<?xml version="1.0" standalone="no"?>
<!DOCTYPE svg PUBLIC "-//W3C//DTD SVG 1.1//EN" "http://www.w3.org/Graphics/SVG/1.1/DTD/svg11.dtd" >
<svg xmlns="http://www.w3.org/2000/svg" xmlns:xlink="http://www.w3.org/1999/xlink" version="1.1">
<metadata></metadata>
<defs>
<font id="honeywell_sans_webregular" horiz-adv-x="604" >
<font-face units-per-em="1000" ascent="774" descent="-226" />
<missing-glyph horiz-adv-x="230" />
<glyph unicode="fi" horiz-adv-x="606" d="M433 623q0 20 12 31t32 11q43 0 43 -42q0 -43 -43 -43q-20 0 -32 11.5t-12 31.5zM126 0v438h-94v44h94v74q0 84 36.5 120.5t101.5 36.5q21 0 41.5 -4t38.5 -12l-9 -47q-16 7 -31 10.5t-35 3.5q-42 0 -65.5 -24.5t-23.5 -88.5v-69h156v-44h-156v-438h-54zM449 482h56v-482 h-56v482z" />
<glyph unicode="fl" d="M126 0v438h-94v44h94v74q0 84 36.5 120.5t101.5 36.5q21 0 41.5 -4t38.5 -12l-9 -47q-16 7 -31 10.5t-35 3.5q-42 0 -65.5 -24.5t-23.5 -88.5v-69h156v-44h-156v-438h-54zM547 0q-49 0 -76.5 23.5t-27.5 78.5v598h56v-591q0 -36 13 -49.5t48 -13.5h34v-46h-47z" />
<glyph horiz-adv-x="176" />
<glyph horiz-adv-x="176" />
<glyph unicode="&#xd;" horiz-adv-x="176" />
<glyph unicode=" "  horiz-adv-x="230" />
<glyph unicode="&#x09;" horiz-adv-x="230" />
<glyph unicode="&#xa0;" horiz-adv-x="230" />
<glyph unicode="!" horiz-adv-x="211" d="M137 700l-8 -519h-47l-8 519h63zM62 37q0 20 12 31t32 11t31.5 -11t11.5 -31t-11.5 -31.5t-31.5 -11.5t-32 11.5t-12 31.5z" />
<glyph unicode="&#x22;" horiz-adv-x="275" d="M168 526l-5 185h55l-5 -185h-45zM110 526h-46l-4 185h54z" />
<glyph unicode="#" horiz-adv-x="717" d="M286 449l-59 -185h210l58 185h-209zM109 449l14 43h119l66 208h58l-67 -208h210l67 208h57l-67 -208h115l-13 -43h-115l-59 -185h123l-13 -44h-124l-70 -220h-57l69 220h-209l-69 -220h-58l70 220h-110l14 44h109l59 185h-119z" />
<glyph unicode="$" horiz-adv-x="576" d="M269 385v248q-73 -3 -108.5 -32t-35.5 -82q0 -101 136 -132zM316 64q78 4 114.5 36.5t36.5 91.5q0 25 -7.5 45t-25 35.5t-46.5 27.5t-72 23v-259zM316 -62h-47v78q-74 4 -129 33t-95 92l42 27q37 -52 78.5 -76.5t103.5 -28.5v271l-17 4q-91 22 -135 67t-44 111 q0 35 11.5 64.5t35.5 50.5t61 33.5t88 14.5v87h47v-87q70 -5 114.5 -30t74.5 -74l-43 -28q-25 40 -58.5 60.5t-87.5 25.5v-259l5 -1q54 -14 92.5 -30t62.5 -37t35 -48t11 -63q0 -87 -53 -130.5t-153 -48.5v-78z" />
<glyph unicode="%" horiz-adv-x="1022" d="M46 0zM646 204q0 113 40.5 162.5t123.5 49.5q82 0 122 -49.5t40 -162.5q0 -112 -40.5 -162t-121.5 -50q-83 0 -123.5 49.5t-40.5 162.5zM924 204q0 48 -7.5 81t-22.5 53.5t-36 29t-48 8.5q-28 0 -49.5 -8.5t-36.5 -28.5t-22.5 -53t-7.5 -82t7.5 -82t22.5 -53t36.5 -28.5 t48.5 -8.5t48.5 8.5t36.5 28.5t22.5 53t7.5 82zM46 497q0 113 40.5 162.5t123.5 49.5q82 0 122 -49.5t40 -162.5q0 -112 -40.5 -162t-121.5 -50q-83 0 -123.5 49.5t-40.5 162.5zM324 497q0 48 -7.5 81t-22.5 53.5t-36 29t-48 8.5q-28 0 -49.5 -8.5t-36.5 -28.5t-22.5 -53 t-7.5 -82t7.5 -82t22.5 -53t36.5 -28.5t48.5 -8.5t48.5 8.5t36.5 28.5t22.5 53t7.5 82zM700 701l-334 -701h-54l336 701h52z" />
<glyph unicode="&#x26;" horiz-adv-x="700" d="M581 474h54q0 -115 -23.5 -201.5t-66.5 -147.5q33 -23 69 -46.5t77 -49.5l-27 -40q-42 26 -79 50t-71 48q-92 -98 -240 -98q-49 0 -91.5 11t-74 34t-49.5 57.5t-18 81.5q0 37 11 66t31 52.5t47 43t59 39.5q-45 61 -60 106.5t-15 78.5q0 71 44.5 111.5t135.5 40.5 q80 0 117 -33.5t37 -92.5q0 -35 -12 -63t-35 -53.5t-58 -50t-80 -52.5q38 -45 96 -97t145 -114q37 54 58 133.5t19 185.5zM168 557q0 -28 13 -66.5t52 -89.5q42 26 72.5 47t50 41t29 41t9.5 47q0 89 -103 89q-63 0 -93 -29t-30 -80zM278 35q57 0 106.5 19.5t88.5 60.5 q-91 65 -152 120t-102 103q-60 -38 -91 -73.5t-31 -88.5q0 -67 50 -104t131 -37z" />
<glyph unicode="'" horiz-adv-x="170" d="M64 526l-4 185h54l-4 -185h-46z" />
<glyph unicode="(" horiz-adv-x="344" d="M288 -33l-4 -42q-112 15 -169.5 115t-57.5 282t57.5 282t169.5 115l4 -42q-86 -16 -132.5 -101t-46.5 -254t46.5 -254t132.5 -101z" />
<glyph unicode=")" horiz-adv-x="344" d="M56 -33q85 16 132 101t47 254t-47 254t-132 101l4 42q112 -15 169.5 -115t57.5 -282t-57.5 -282t-169.5 -115z" />
<glyph unicode="*" horiz-adv-x="397" d="M107 362l-38 30l96 120l-138 39l13 46l136 -46l-5 160h52l-6 -160l137 46l13 -45l-137 -40l95 -120l-37 -30l-91 125z" />
<glyph unicode="+" horiz-adv-x="496" d="M273 111h-49v173h-174v46h174v178h49v-178h173v-46h-173v-173z" />
<glyph unicode="," horiz-adv-x="213" d="M73 -115l-12 26q24 11 37.5 34.5t15.5 52.5q-25 -6 -38 7t-13 33t11.5 30.5t30.5 10.5q21 0 33 -13.5t12 -48.5q0 -45 -18.5 -81.5t-58.5 -50.5z" />
<glyph unicode="-" horiz-adv-x="414" d="M365 273v-46h-315v46h315z" />
<glyph unicode="." horiz-adv-x="213" d="M63 37q0 20 12 31t32 11t31.5 -11t11.5 -31t-11.5 -31.5t-31.5 -11.5t-32 11.5t-12 31.5z" />
<glyph unicode="/" horiz-adv-x="477" d="M467 701l-397 -701h-60l396 701h61z" />
<glyph unicode="0" horiz-adv-x="625" d="M42 350q0 97 17 165.5t50.5 112t84 63.5t118.5 20q67 0 118 -20t84.5 -63.5t50.5 -112t17 -165.5q0 -96 -17 -164.5t-50.5 -112t-84.5 -64t-118 -20.5q-68 0 -118.5 20t-84 63.5t-50.5 112t-17 165.5zM524 350q0 88 -14 148t-41 97t-66.5 53t-90.5 16t-90.5 -15.5 t-66.5 -52.5t-41 -97t-14 -149q0 -90 14 -150t41 -96.5t66.5 -52t90.5 -15.5t90.5 15.5t66.5 52t41 96.5t14 150z" />
<glyph unicode="1" horiz-adv-x="625" d="M97 0v51h181v576l-100 -77l-26 44l146 106h36v-649h193v-51h-430z" />
<glyph unicode="2" horiz-adv-x="625" d="M65 0v54l263 254q41 39 68 71t42.5 59t22 50t6.5 45q1 65 -40 98t-118 33t-122.5 -31t-77.5 -93l-42 30q19 35 42 61.5t52.5 44t67 26.5t84.5 9q107 0 159 -47t52 -128q0 -29 -8.5 -58t-28 -60.5t-50 -67.5t-75.5 -79l-227 -224l427 1v-48h-497z" />
<glyph unicode="3" horiz-adv-x="625" d="M307 -11q-88 0 -145.5 28t-94.5 90l41 32q32 -54 79.5 -78.5t118.5 -24.5q98 0 146 42t48 120q0 31 -8.5 57.5t-27 46t-49 30.5t-73.5 11h-105v49h103q60 0 99.5 36.5t39.5 102.5q0 67 -43.5 100t-125.5 33q-69 0 -112 -26t-75 -84l-41 31q36 64 90.5 95t141.5 31 q108 0 165 -45.5t57 -133.5q0 -56 -28.5 -98.5t-80.5 -63.5q36 -8 61 -25t40.5 -39.5t22.5 -49t7 -53.5q0 -48 -15.5 -87.5t-46.5 -67.5t-78 -43.5t-111 -15.5z" />
<glyph unicode="4" horiz-adv-x="625" d="M30 190v40l244 470h60l-243 -461h334v343h56v-343h114v-49h-114v-190h-56v190h-395z" />
<glyph unicode="5" horiz-adv-x="625" d="M173 651l-27 -267q40 29 86 41.5t94 12.5q49 0 92 -12t74.5 -37.5t49.5 -66t18 -96.5q0 -52 -16.5 -95.5t-49 -75t-80.5 -49t-112 -17.5q-78 0 -139 27.5t-98 90.5l42 33q30 -51 78 -78t117 -27q51 0 89 14t62.5 39.5t37 60t12.5 75.5q0 85 -49 127t-140 42 q-61 0 -105.5 -18.5t-85.5 -50.5l-32 16l37 360h395v-49h-350z" />
<glyph unicode="6" horiz-adv-x="625" d="M332 -11q-60 0 -110 20t-86.5 63t-57 110.5t-20.5 162.5q0 96 19.5 165.5t55.5 114t87.5 65.5t115.5 21q75 0 129.5 -26.5t83.5 -83.5l-43 -30q-28 51 -72.5 72t-100.5 21q-47 0 -87.5 -16.5t-69.5 -54.5t-45.5 -100t-16.5 -153q0 -11 1 -31.5t3 -34.5q7 37 25.5 67 t46.5 51.5t64.5 33t80.5 11.5q107 0 170 -55.5t63 -163.5q0 -52 -15 -94t-45 -72t-74 -46.5t-102 -16.5zM139 207q0 -33 12 -64t36 -55t59.5 -38.5t82.5 -14.5q82 0 132 44.5t50 134.5q0 84 -47 130t-138 46q-42 0 -76.5 -13t-59 -36.5t-38 -57.5t-13.5 -76z" />
<glyph unicode="7" horiz-adv-x="625" d="M208 0q0 87 18 179t51 179t80.5 163t108.5 130h-383v49h459v-49q-63 -39 -113.5 -108.5t-86.5 -157.5t-56 -187.5t-21 -197.5h-57z" />
<glyph unicode="8" horiz-adv-x="625" d="M312 -11q-118 0 -182 54t-64 148q0 75 42.5 120.5t111.5 59.5q-59 14 -93.5 55t-34.5 106q0 88 56 133.5t164 45.5t164 -45t56 -133q0 -65 -34 -106t-93 -56q68 -14 110.5 -59.5t42.5 -120.5q0 -94 -63.5 -148t-182.5 -54zM477 532q0 65 -41.5 99.5t-123.5 34.5 t-123.5 -34.5t-41.5 -99.5q0 -63 41.5 -100t123.5 -37t123.5 37t41.5 100zM502 193q0 72 -49.5 113t-140.5 41q-90 0 -139.5 -41t-49.5 -113q0 -75 47.5 -116t141.5 -41t142 41t48 116z" />
<glyph unicode="9" horiz-adv-x="625" d="M486 493q0 33 -12 64t-35.5 55t-59 38.5t-83.5 14.5q-82 0 -132 -45t-50 -137q0 -84 47 -130.5t138 -46.5q42 0 76.5 13t59 37.5t38 59t13.5 77.5zM290 -11q-75 0 -130.5 26.5t-85.5 83.5l43 30q29 -51 74 -72t102 -21q47 0 87 16.5t69 54.5t45.5 100t16.5 153 q0 11 -0.5 30t-2.5 34q-15 -74 -72.5 -119t-145.5 -45q-107 0 -169.5 56.5t-62.5 165.5q0 52 15 94t44.5 72t73.5 46.5t102 16.5q60 0 110 -19.5t86.5 -62.5t57 -110.5t20.5 -163.5t-19 -165.5t-55 -114t-87.5 -65.5t-115.5 -21z" />
<glyph unicode=":" horiz-adv-x="213" d="M63 0zM63 37q0 20 12 31t32 11t31.5 -11t11.5 -31t-11.5 -31.5t-31.5 -11.5t-32 11.5t-12 31.5zM63 424q0 20 12 31t32 11t31.5 -11t11.5 -31t-11.5 -31.5t-31.5 -11.5t-32 11.5t-12 31.5z" />
<glyph unicode=";" horiz-adv-x="213" d="M61 0zM73 -115l-12 26q24 11 37.5 34.5t15.5 52.5q-25 -6 -38 7t-13 33t11.5 30.5t30.5 10.5q21 0 33 -13.5t12 -48.5q0 -45 -18.5 -81.5t-58.5 -50.5zM63 424q0 20 12 31t32 11t31.5 -11t11.5 -31t-11.5 -31.5t-31.5 -11.5t-32 11.5t-12 31.5z" />
<glyph unicode="&#x3c;" horiz-adv-x="459" d="M345 508l28 -36l-224 -161l224 -161l-28 -39l-262 186v26z" />
<glyph unicode="=" horiz-adv-x="496" d="M446 395v-46h-396v46h396zM446 270v-47h-396v47h396z" />
<glyph unicode="&#x3e;" horiz-adv-x="459" d="M114 111l-28 36l226 162l-226 161l29 38l261 -185v-25z" />
<glyph unicode="?" horiz-adv-x="503" d="M207 181v142h31q92 0 139.5 45.5t47.5 128.5q0 81 -50 123t-138 42q-69 0 -114.5 -27t-77.5 -94l-42 29q35 75 93.5 108t146.5 33q54 0 98.5 -14.5t75.5 -41.5t48 -66t17 -88q0 -97 -56.5 -153.5t-162.5 -60.5v-106h-56zM192 37q0 20 11.5 31t31.5 11q43 0 43 -42 q0 -20 -11.5 -31.5t-31.5 -11.5t-31.5 11.5t-11.5 31.5z" />
<glyph unicode="@" horiz-adv-x="818" d="M679 1q-45 -47 -110 -72.5t-150 -25.5q-81 0 -145 24.5t-108.5 68.5t-67.5 106.5t-23 139.5q0 76 23 138.5t67.5 106.5t108.5 68.5t145 24.5q78 0 138 -22t101.5 -62.5t62.5 -97t21 -125.5q0 -86 -36 -136.5t-107 -50.5q-36 0 -61.5 16.5t-31.5 59.5q-33 -85 -133 -85 q-51 0 -82 25t-31 75q0 48 37 75.5t112 27.5h94q-1 61 -26 83.5t-74 22.5q-42 0 -65.5 -12t-39.5 -34l-22 24q37 56 131 56q63 0 99.5 -31t36.5 -108v-91q0 -38 15 -57t49 -19q50 0 77.5 41.5t27.5 116.5q0 67 -20.5 119.5t-59 88t-92.5 54t-121 18.5q-72 0 -129.5 -20.5 t-98.5 -60.5t-63 -97.5t-22 -131.5t22 -132t63 -98t98.5 -60.5t129.5 -20.5q157 0 242 91zM381 110q56 0 87 36t35 96v8h-92q-54 0 -82.5 -17t-28.5 -55q0 -35 21 -51.5t60 -16.5z" />
<glyph unicode="A" d="M300 645l-156 -438h313zM531 0l-57 158h-346l-56 -158h-60l254 700h72l254 -700h-61z" />
<glyph unicode="B" horiz-adv-x="674" d="M115 0v700h279q53 0 91 -13t62 -36.5t35 -56.5t11 -73q0 -59 -30 -101t-81 -58q35 -6 60 -22t40.5 -38.5t23 -50t7.5 -54.5q0 -98 -55 -147.5t-176 -49.5h-267zM395 652h-224v-269h231q34 0 59.5 11t42 29.5t24.5 42.5t8 51q0 69 -38 102t-103 33zM402 333h-231v-285h215 q86 0 128 35.5t42 113.5q0 63 -37.5 99.5t-116.5 36.5z" />
<glyph unicode="C" horiz-adv-x="696" d="M385 -11q-74 0 -131 19.5t-96 63t-59 112t-20 166.5q0 99 20 167.5t59 111.5t96 62.5t131 19.5q90 0 152.5 -30t98.5 -100l-46 -31q-32 63 -82.5 88t-122.5 25q-58 0 -104 -15t-78 -51t-49 -96t-17 -150t17 -150t49 -96.5t78 -52t104 -15.5q75 0 129 27t90 96l43 -29 q-41 -77 -106 -109.5t-156 -32.5z" />
<glyph unicode="D" horiz-adv-x="742" d="M368 0h-253v700h254q72 0 127 -19t92 -60.5t56 -107t19 -157.5q0 -186 -76 -271t-219 -85zM173 49h193q54 0 98.5 15.5t75.5 51.5t48 94.5t17 144.5q0 83 -16 139.5t-46.5 91.5t-74 50t-98.5 15h-197v-602z" />
<glyph unicode="E" horiz-adv-x="653" d="M115 0v700h490v-49h-434v-274h380v-50h-380v-278h444v-49h-500z" />
<glyph unicode="F" horiz-adv-x="607" d="M115 0v700h475v-49h-417v-280h374v-50h-374v-321h-58z" />
<glyph unicode="G" horiz-adv-x="728" d="M376 -11q-71 0 -126 20.5t-93 64.5t-58 112.5t-20 163.5q0 99 20 167.5t59 111.5t96 62.5t131 19.5q90 0 152 -30.5t98 -97.5l-46 -32q-32 60 -82 86t-122 26q-58 0 -104 -14.5t-78 -50.5t-49 -96.5t-17 -151.5q0 -89 17 -149t48.5 -96.5t77.5 -52t103 -15.5 q43 0 81.5 11.5t68.5 37.5t48 68.5t21 105.5v25h-208v46h262v-331h-49l-4 127q-26 -68 -85.5 -103t-141.5 -35z" />
<glyph unicode="H" horiz-adv-x="783" d="M610 0v327h-437v-327h-58v700h58v-323h437v323h58v-700h-58z" />
<glyph unicode="I" horiz-adv-x="288" d="M115 0v700h58v-700h-58z" />
<glyph unicode="J" horiz-adv-x="501" d="M169 -11q-42 0 -78.5 10.5t-67.5 33.5l27 45q25 -20 56.5 -30t66.5 -10q40 0 72.5 12t55.5 37.5t35.5 66.5t12.5 99v447h57v-443q0 -74 -17 -125.5t-48 -83t-75 -45.5t-97 -14z" />
<glyph unicode="K" horiz-adv-x="626" d="M115 0v700h58v-418l358 418h69l-271 -314l290 -386h-69l-259 344l-118 -136v-208h-58z" />
<glyph unicode="L" horiz-adv-x="619" d="M173 49h422v-49h-480v700h58v-651z" />
<glyph unicode="M" horiz-adv-x="938" d="M446 0l-277 603l1 -603h-55v700h64l290 -633l290 633h63v-700h-55l2 603l-277 -603h-46z" />
<glyph unicode="N" horiz-adv-x="774" d="M599 0l-430 616l2 -616h-56v700h60l429 -614l-1 614h56v-700h-60z" />
<glyph unicode="O" horiz-adv-x="769" d="M384 -11q-75 0 -132.5 20t-95.5 63.5t-57.5 112t-19.5 165.5t19.5 165.5t58 112t95.5 63.5t132 20q77 0 134.5 -20t96 -63.5t57.5 -112t19 -165.5t-20 -165.5t-58.5 -112t-96 -63.5t-132.5 -20zM384 663q-59 0 -105 -15t-77.5 -51.5t-48 -96.5t-16.5 -150 q0 -89 16.5 -148.5t48 -96.5t77.5 -52.5t105 -15.5t105.5 15.5t78.5 52t48.5 96.5t16.5 150q0 88 -16.5 148t-48.5 96.5t-78.5 52t-105.5 15.5z" />
<glyph unicode="P" horiz-adv-x="668" d="M115 0v700h265q122 0 178 -55t56 -161q0 -104 -57.5 -165t-178.5 -61h-205v-258h-58zM381 651h-208v-344h212q80 0 125.5 43.5t45.5 131.5q0 87 -42.5 128t-132.5 41z" />
<glyph unicode="Q" horiz-adv-x="768" d="M549 23l92 -115h-66l-76 95q-53 -14 -115 -14q-75 0 -132.5 20t-95.5 63.5t-57.5 112t-19.5 165.5t19.5 165.5t58 112t95.5 63.5t132 20q77 0 134.5 -20t96 -63.5t57.5 -112t19 -165.5q0 -131 -36 -210.5t-106 -116.5zM384 663q-59 0 -105 -15t-77.5 -51.5t-48 -96.5 t-16.5 -150q0 -89 16.5 -148.5t48 -96.5t77.5 -52.5t105 -15.5q22 0 42 1.5t39 6.5l-99 125h67l84 -106q57 30 86.5 98t29.5 189q0 88 -16.5 148t-48.5 96.5t-78.5 52t-105.5 15.5z" />
<glyph unicode="R" horiz-adv-x="664" d="M380 651h-207v-323h211q79 0 124 40.5t45 123.5q0 159 -173 159zM115 0v700h264q121 0 176 -52t55 -154q0 -79 -36 -132.5t-111 -73.5l157 -288h-63l-153 279q-5 -1 -16 -1h-215v-278h-58z" />
<glyph unicode="S" horiz-adv-x="616" d="M538 587l-47 -29q-30 54 -74.5 80.5t-118.5 26.5q-93 0 -135 -37.5t-42 -97.5q0 -52 35.5 -86t119.5 -54l63 -15q58 -14 99.5 -31.5t67 -40t37.5 -52t12 -67.5q0 -93 -64.5 -144t-186.5 -51q-91 0 -156 30t-109 102l46 30q20 -31 41.5 -53t47.5 -35.5t57.5 -20t71.5 -6.5 q103 0 149.5 38.5t46.5 105.5q0 26 -7.5 46.5t-27 37t-52 30.5t-81.5 26l-65 16q-100 25 -150.5 70t-50.5 122q0 82 59 132.5t175 50.5q92 0 147.5 -31t91.5 -93z" />
<glyph unicode="T" horiz-adv-x="565" d="M13 700h539v-49h-241v-651h-57v651h-241v49z" />
<glyph unicode="U" horiz-adv-x="742" d="M590 265v435h57v-433q0 -141 -73.5 -209.5t-202.5 -68.5q-130 0 -203 68.5t-73 209.5v433h58v-435q0 -62 15.5 -105t44 -70.5t68.5 -40t90 -12.5q49 0 89.5 12.5t69.5 40t44.5 70.5t15.5 105z" />
<glyph unicode="V" horiz-adv-x="601" d="M10 700h61l230 -646l231 646h59l-254 -700h-72z" />
<glyph unicode="W" horiz-adv-x="906" d="M424 695h57l173 -612l184 617h56l-213 -700h-57l-173 612l-171 -612h-58l-210 700h59l180 -620z" />
<glyph unicode="X" horiz-adv-x="627" d="M539 0l-227 318l-227 -318h-65l259 362l-239 338h66l209 -295l207 295h65l-240 -337l260 -363h-68z" />
<glyph unicode="Y" horiz-adv-x="599" d="M271 283l-255 417h63l221 -367l222 367h61l-254 -417v-283h-58v283z" />
<glyph unicode="Z" horiz-adv-x="571" d="M26 0v44l448 607h-425v49h493v-44l-449 -607h457v-49h-524z" />
<glyph unicode="[" horiz-adv-x="339" d="M92 -103v812h187v-42h-136v-727h142v-43h-193z" />
<glyph unicode="\" horiz-adv-x="490" d="M406 0l-396 700h58l396 -700h-58z" />
<glyph unicode="]" horiz-adv-x="339" d="M54 -103v43h142v727h-136v42h187v-812h-193z" />
<glyph unicode="^" horiz-adv-x="402" d="M176 701h53l148 -307v-1h-57l-118 251l-122 -251h-55v1z" />
<glyph unicode="_" horiz-adv-x="479" d="M484 0v-44h-489v44h489z" />
<glyph unicode="`" horiz-adv-x="600" d="M285 568l-107 107v5h74l81 -109v-3h-48z" />
<glyph unicode="a" horiz-adv-x="563" d="M242 35q78 0 123 49.5t50 137.5v22h-141q-79 0 -118 -26t-39 -83q0 -48 31 -74t94 -26zM418 106q-23 -55 -71 -86t-118 -31q-75 0 -121 37.5t-46 106.5q0 72 51 114t159 42h143q0 46 -8.5 76.5t-26.5 48.5t-45.5 25.5t-64.5 7.5q-60 0 -95 -18t-58 -49l-32 34 q54 79 189 79q47 0 84 -10t62 -33t38 -60t13 -91v-299h-48z" />
<glyph unicode="b" horiz-adv-x="606" d="M154 700v-322q24 58 72 86.5t114 28.5q99 0 151 -63t52 -188q0 -122 -55.5 -187.5t-158.5 -65.5q-59 0 -105 25.5t-72 81.5l-3 -96h-51v700h56zM154 238q0 -53 12.5 -91.5t35 -63.5t53 -36.5t66.5 -11.5q166 0 166 206t-161 206q-38 0 -69.5 -12.5t-54 -38t-35.5 -65 t-13 -93.5z" />
<glyph unicode="c" horiz-adv-x="534" d="M289 -11q-110 0 -168 60.5t-58 190.5t58.5 191.5t168.5 61.5q72 0 118.5 -26.5t73.5 -75.5l-41 -27q-21 42 -59.5 62.5t-91.5 20.5q-87 0 -129 -47.5t-42 -159.5q0 -110 42.5 -157.5t127.5 -47.5q59 0 96 21.5t60 72.5l43 -23q-26 -61 -76.5 -89t-122.5 -28z" />
<glyph unicode="d" horiz-adv-x="606" d="M452 245q0 52 -13 90t-35.5 63t-53 37t-66.5 12q-84 0 -124.5 -52t-40.5 -154q0 -206 164 -206q36 0 67 12.5t53.5 38t35.5 65t13 94.5zM456 0l-3 105q-23 -59 -71 -87.5t-113 -28.5q-100 0 -153 65t-53 187t55 187t159 65q60 0 104.5 -25t70.5 -76v308h55v-700h-51z" />
<glyph unicode="e" horiz-adv-x="543" d="M287 -11q-107 0 -165.5 61t-58.5 191q0 125 57 188.5t165 63.5q103 0 154 -63.5t51 -172.5q0 -6 -0.5 -11.5t-0.5 -10.5v-10h-370q3 -101 45.5 -145.5t123.5 -44.5q60 0 98 21t60 72l42 -22q-26 -61 -77.5 -89t-123.5 -28zM283 448q-76 0 -117.5 -43t-46.5 -135h315 q-3 92 -41 135t-110 43z" />
<glyph unicode="f" horiz-adv-x="348" d="M32 482h94v74q0 84 36.5 120.5t101.5 36.5q21 0 41.5 -4t38.5 -12l-9 -47q-16 7 -31 10.5t-35 3.5q-42 0 -65.5 -24.5t-23.5 -88.5v-69h156v-44h-156v-438h-54v438h-94v44z" />
<glyph unicode="g" d="M449 250q0 51 -13 88.5t-35.5 62t-53 36t-66.5 11.5q-162 0 -162 -202q0 -203 161 -203q37 0 68 12t53.5 37.5t35 64.5t12.5 93zM505 482v-477q0 -58 -17.5 -98.5t-48 -66.5t-73.5 -38t-94 -12q-68 0 -120 23.5t-84 86.5l41 29q27 -53 67.5 -73t95.5 -20q39 0 71.5 9 t56 29t36.5 52t13 78v98q-25 -54 -71.5 -79.5t-109.5 -25.5q-98 0 -151.5 63.5t-53.5 185.5q0 119 52.5 183t154.5 64q63 0 109.5 -26t71.5 -78l6 93h48z" />
<glyph unicode="h" horiz-adv-x="616" d="M154 700v-331q25 63 76.5 93.5t117.5 30.5q177 0 177 -188v-305h-56v290q0 85 -37 120t-101 35q-81 0 -126.5 -52.5t-50.5 -142.5v-250h-56v700h56z" />
<glyph unicode="i" horiz-adv-x="258" d="M86 623q0 42 43 42t43 -42q0 -43 -43 -43t-43 43zM101 482h56v-482h-56v482z" />
<glyph unicode="j" horiz-adv-x="258" d="M86 623q0 42 43 42t43 -42q0 -43 -43 -43t-43 43zM101 -46v528h56v-536q0 -82 -34 -119t-95 -37q-19 0 -36.5 2.5t-38.5 10.5l10 47q14 -6 27.5 -9t33.5 -3q38 0 57.5 25t19.5 91z" />
<glyph unicode="k" horiz-adv-x="511" d="M99 0v700h56v-503l263 285h68l-200 -214l209 -268h-67l-178 231l-95 -100v-131h-56z" />
<glyph unicode="l" horiz-adv-x="260" d="M199 0q-49 0 -76.5 23.5t-27.5 78.5v598h56v-591q0 -36 13 -49.5t48 -13.5h34v-46h-47z" />
<glyph unicode="m" horiz-adv-x="915" d="M98 0v482h49l6 -107q25 62 72.5 90t102.5 28q66 0 103.5 -35.5t47.5 -96.5q23 69 73 100.5t113 31.5q159 0 159 -186v-307h-56v292q0 85 -31.5 119t-87.5 34q-71 0 -113.5 -49t-46.5 -138v-258h-56v290q0 85 -33 120t-89 35q-69 0 -110.5 -49.5t-46.5 -141.5v-254h-56z " />
<glyph unicode="n" horiz-adv-x="616" d="M98 482h49l7 -109q26 62 77 91t117 29q177 0 177 -188v-305h-56v291q0 85 -36.5 119.5t-101.5 34.5q-81 0 -126.5 -52.5t-50.5 -142.5v-250h-56v482z" />
<glyph unicode="o" horiz-adv-x="581" d="M63 241q0 130 59 191t169 61q114 0 170.5 -60.5t56.5 -191.5q0 -129 -57.5 -190.5t-169.5 -61.5t-170 60.5t-58 191.5zM462 240q0 110 -41.5 158.5t-129.5 48.5q-89 0 -130.5 -48.5t-41.5 -158.5q0 -108 42 -156.5t130 -48.5t129.5 48.5t41.5 156.5z" />
<glyph unicode="p" horiz-adv-x="606" d="M154 238q0 -53 12.5 -91.5t35 -63t53 -36.5t66.5 -12q84 0 125 52.5t41 154.5q0 205 -159 205q-38 0 -69.5 -12.5t-55 -38t-36.5 -65t-13 -93.5zM98 482h49l5 -106q24 59 73.5 88t116.5 29q99 0 150 -64t51 -187q0 -122 -55.5 -187.5t-159.5 -65.5q-58 0 -103 24.5 t-71 75.5v-275h-56v668z" />
<glyph unicode="q" horiz-adv-x="606" d="M507 -186h-55v286q-25 -56 -72.5 -83.5t-111.5 -27.5q-100 0 -152.5 63.5t-52.5 188.5q0 121 55 186.5t159 65.5q60 0 105 -26.5t70 -80.5l7 96h48v-668zM452 245q0 52 -13 90.5t-35.5 63t-53 36.5t-66.5 12q-165 0 -165 -206t164 -206q37 0 68 12.5t53.5 38t35 65 t12.5 94.5z" />
<glyph unicode="r" horiz-adv-x="354" d="M98 0v482h49l5 -120q24 64 73 96t112 29v-53q-84 5 -131 -44.5t-52 -146.5v-243h-56z" />
<glyph unicode="s" horiz-adv-x="506" d="M252 32q71 0 101 25.5t30 63.5t-25 58t-89 34l-45 10q-79 17 -116 48.5t-37 83.5q0 30 10.5 55t32 43.5t55 29t78.5 10.5q59 0 99.5 -17.5t72.5 -58.5l-37 -34q-28 35 -59 50.5t-79 15.5q-62 0 -91 -24t-29 -64q0 -32 22.5 -52.5t84.5 -34.5l51 -12q46 -10 76 -23.5 t47 -30.5t24 -37t7 -43q0 -28 -9.5 -53.5t-31.5 -44.5t-57.5 -30t-87.5 -11q-68 0 -118 21t-85 72l41 31q29 -43 67.5 -62t96.5 -19z" />
<glyph unicode="t" horiz-adv-x="355" d="M23 482h91v146h55v-146h155v-44h-155v-273q0 -40 7 -64.5t19.5 -38.5t30.5 -19t40 -5q20 0 34 3t30 8l9 -46q-26 -9 -43.5 -11.5t-38.5 -2.5q-66 0 -104.5 38.5t-38.5 127.5v283h-91v44z" />
<glyph unicode="u" horiz-adv-x="614" d="M467 0l-5 106q-26 -60 -75.5 -88.5t-113.5 -28.5q-91 0 -136.5 50t-45.5 147v296h56v-287q0 -85 36.5 -122t102.5 -37q82 0 125.5 50t48.5 137v259h56v-482h-49z" />
<glyph unicode="v" horiz-adv-x="482" d="M10 482h60l172 -428l173 428h57l-200 -482h-61z" />
<glyph unicode="w" horiz-adv-x="712" d="M329 475h58l128 -412l133 419h55l-159 -482h-61l-127 409l-126 -409h-60l-160 482h56l135 -418z" />
<glyph unicode="x" horiz-adv-x="493" d="M30 482h66l152 -196l150 196h65l-184 -234l198 -248h-67l-165 210l-164 -210h-65l198 249z" />
<glyph unicode="y" horiz-adv-x="482" d="M193 -56l18 51l-202 487h59l173 -429l173 429h58l-232 -557q-17 -41 -36.5 -67.5t-41.5 -41.5t-46 -20.5t-50 -5.5q-19 0 -36.5 2.5t-38.5 10.5l9 47q17 -6 31.5 -9t34.5 -3q16 0 32 3.5t32 14.5t32 32t31 56z" />
<glyph unicode="z" horiz-adv-x="478" d="M40 0v42l322 395h-315v45h381v-43l-323 -394h330v-45h-395z" />
<glyph unicode="{" horiz-adv-x="347" d="M280 -77q-63 6 -95 35.5t-32 89.5q0 33 5.5 64.5t5.5 62.5q0 65 -26 94.5t-89 29.5h-27v43h27q63 0 89 29t26 95q0 30 -5.5 62t-5.5 67q0 59 32 88t95 35l5 -43q-39 -5 -60 -24.5t-21 -60.5q0 -30 5.5 -63t5.5 -66q0 -59 -21 -92.5t-71 -47.5q50 -14 71 -48t21 -92 q0 -33 -5.5 -66t-5.5 -63q0 -42 21 -61.5t60 -24.5z" />
<glyph unicode="|" horiz-adv-x="281" d="M115 -65v831h51v-831h-51z" />
<glyph unicode="}" horiz-adv-x="347" d="M65 -34q39 5 60 24.5t21 61.5q0 30 -5.5 63t-5.5 66q0 58 21 92t71 48q-50 14 -71 47.5t-21 92.5q0 33 5.5 66t5.5 63q0 41 -21 60.5t-60 24.5l5 43q63 -6 95 -35t32 -88q0 -35 -5.5 -67t-5.5 -62q0 -66 26 -95t89 -29h27v-43h-27q-63 0 -89 -29.5t-26 -94.5 q0 -31 5.5 -62.5t5.5 -64.5q0 -60 -32 -89.5t-95 -35.5z" />
<glyph unicode="~" horiz-adv-x="509" d="M432 407l52 -7q-3 -33 -13.5 -56t-26.5 -37.5t-37 -21t-44 -6.5q-32 0 -59.5 12t-53.5 26t-50.5 26t-51.5 12q-26 0 -46.5 -16t-24.5 -59l-52 8q5 65 40 92.5t83 27.5q32 0 59 -11.5t53 -25.5t50.5 -26t50.5 -12t46.5 16t24.5 58z" />
<glyph unicode="&#xa1;" horiz-adv-x="217" d="M80 -198l8 519h47l8 -519h-63zM155 465q0 -20 -12 -31t-32 -11t-31.5 11t-11.5 31t11.5 31.5t31.5 11.5t32 -11.5t12 -31.5z" />
<glyph unicode="&#xa2;" horiz-adv-x="545" d="M125 254q0 -96 35 -141t107 -51v386q-73 -6 -107.5 -51.5t-34.5 -142.5zM267 -62v78q-97 6 -148 63.5t-51 174.5t51 175.5t148 64.5v80h47v-79q62 -4 102.5 -29t64.5 -70l-41 -26q-18 35 -50.5 54.5t-75.5 23.5v-387q49 2 81 23.5t53 65.5l43 -22q-24 -56 -69 -83 t-108 -30v-77h-47z" />
<glyph unicode="&#xa3;" horiz-adv-x="569" d="M43 0v46h28q39 0 52 28t11 86l-6 154h-85v45h84l-5 146q-3 101 47.5 153.5t153.5 52.5q74 0 119.5 -31t74.5 -88l-43 -29q-24 49 -59.5 75.5t-93.5 26.5q-73 0 -109 -39t-34 -121l5 -146h213v-45h-210l4 -156q3 -88 -32 -112h211q44 0 77.5 12t62.5 48l33 -32 q-35 -44 -76 -59t-96 -15h-327z" />
<glyph unicode="&#xa5;" horiz-adv-x="599" d="M533 288v-45h-204v-243h-58v243h-205v45h202l-36 57h-166v45h140l-190 310h63l221 -367l222 367h61l-190 -310h140v-45h-167l-35 -57h202z" />
<glyph unicode="&#xa6;" horiz-adv-x="281" d="M115 381v385h51v-385h-51zM115 -65v384h51v-384h-51z" />
<glyph unicode="&#xa7;" horiz-adv-x="519" d="M407 334q1 33 -23.5 57.5t-90.5 38.5l-36 7q-23 4 -45 0.5t-39 -14.5t-27.5 -28.5t-10.5 -40.5q-1 -30 22 -55.5t81 -37.5l36 -8q23 -5 47 -2.5t43 12t31 27t12 44.5zM263 -22q-65 0 -112.5 19.5t-82.5 70.5l40 28q28 -41 64 -58.5t92 -17.5q70 0 98 25t28 63 q0 35 -23.5 57.5t-89.5 38.5l-46 10q-75 18 -110.5 52t-35.5 87q0 38 23.5 70t77.5 42q-85 38 -85 117q0 27 8.5 50.5t28 41t50 27.5t75.5 10q56 0 94 -16.5t69 -53.5l-35 -33q-27 33 -56.5 47t-72.5 14q-59 0 -85 -22.5t-26 -62.5q0 -31 23.5 -57t80.5 -40l51 -12 q46 -11 76 -25t47 -31t24 -37t7 -43q0 -40 -24 -71.5t-77 -42.5q49 -21 66.5 -49t17.5 -66q0 -26 -9 -50t-30 -42t-55.5 -29t-85.5 -11z" />
<glyph unicode="&#xa8;" horiz-adv-x="600" d="M337 622q0 20 12 31t32 11t32 -11t12 -31t-12 -31t-32 -11t-32 11t-12 31zM185 622q0 20 11.5 31t31.5 11t32 -11t12 -31t-12 -31t-32 -11t-31.5 11t-11.5 31z" />
<glyph unicode="&#xa9;" horiz-adv-x="827" d="M75 349q0 76 23 138.5t66.5 106.5t106.5 68.5t143 24.5t142.5 -24.5t106 -68.5t66.5 -106.5t23 -138.5t-23 -138.5t-66.5 -106.5t-106 -68.5t-142.5 -24.5t-143 24.5t-106.5 68.5t-66.5 106.5t-23 138.5zM106 349q0 -74 21.5 -131.5t61.5 -97.5t97 -60.5t128 -20.5 q70 0 127 20.5t97.5 60.5t62 97.5t21.5 131.5t-21.5 132t-62 97.5t-97.5 60.5t-127 21q-71 0 -128 -21t-97 -60.5t-61.5 -97.5t-21.5 -132zM419 174q-84 0 -127 43t-43 134q0 92 43 136t127 44q54 0 88 -19t54 -54l-32 -21q-33 59 -110 59q-63 0 -95 -34t-32 -111 q0 -75 32 -108t95 -33q43 0 69.5 15t43.5 50l33 -18q-20 -44 -56.5 -63.5t-89.5 -19.5z" />
<glyph unicode="&#xaa;" horiz-adv-x="403" d="M177 390q55 0 87 35.5t32 100.5v8h-96q-110 0 -110 -75q0 -32 22 -50.5t65 -18.5zM165 355q-53 0 -85.5 26t-32.5 77t37.5 79.5t115.5 28.5h96v2q0 61 -25 83.5t-76 22.5q-41 0 -66 -13t-42 -35l-24 29q39 56 137 56q67 0 104 -31t37 -107v-210h-39l-4 70 q-16 -38 -49.5 -58t-83.5 -20z" />
<glyph unicode="&#xab;" horiz-adv-x="608" d="M452 0l-195 241v3l192 238h64l-193 -238l197 -244h-65zM252 0l-191 240v3l191 239h64l-192 -240l195 -242h-67z" />
<glyph unicode="&#xad;" horiz-adv-x="401" d="M353 273v-46h-303v46h303z" />
<glyph unicode="&#xae;" horiz-adv-x="473" d="M53 528q0 83 48 133t136 50q87 0 135 -50t48 -133q0 -41 -12.5 -74.5t-36 -57.5t-57.5 -37t-77 -13q-87 0 -135.5 50.5t-48.5 131.5zM76 528q0 -78 43.5 -120.5t117.5 -42.5q73 0 116.5 42.5t43.5 120.5t-43.5 120.5t-116.5 42.5q-74 0 -117.5 -42.5t-43.5 -120.5z M244 602h-51v-76h47q17 0 29.5 8.5t12.5 30.5q0 37 -38 37zM169 441v182h75q31 0 47.5 -15.5t16.5 -41.5q0 -22 -10.5 -36t-27.5 -20l36 -69h-28l-34 65h-51v-65h-24z" />
<glyph unicode="&#xaf;" horiz-adv-x="600" d="M427 641v-39h-239v39h239z" />
<glyph unicode="&#xb0;" horiz-adv-x="460" d="M231 357q-85 0 -131.5 48t-46.5 128t46.5 128.5t131.5 48.5q84 0 130.5 -48.5t46.5 -128.5t-46.5 -128t-130.5 -48zM231 671q-62 0 -97.5 -36t-35.5 -102t35.5 -102t97.5 -36q60 0 96 36t36 102t-36 102t-96 36z" />
<glyph unicode="&#xb1;" horiz-adv-x="496" d="M273 127h-49v165h-174v45h174v171h49v-171h173v-45h-173v-165zM446 46v-46h-396v46h396z" />
<glyph unicode="&#xb2;" horiz-adv-x="359" d="M30 295zM31 295v40l150 142q22 21 37 38t24 31.5t13 27t4 25.5q0 37 -22 54t-64 17q-43 0 -67.5 -16.5t-42.5 -51.5l-33 25q23 43 57.5 63.5t89.5 20.5q63 0 96.5 -27.5t33.5 -78.5q0 -36 -21 -70.5t-72 -82.5l-117 -115l230 2v-44h-296z" />
<glyph unicode="&#xb3;" horiz-adv-x="367" d="M29 287zM175 287q-53 0 -88 17t-58 54l34 26q19 -30 44.5 -43.5t63.5 -13.5q54 0 79.5 22t25.5 62q0 32 -19.5 54t-67.5 22h-58v40h58q33 0 54 18.5t21 53.5q0 72 -90 72q-38 0 -61 -14t-42 -46l-33 23q22 40 55 58.5t85 18.5q65 0 99.5 -28t34.5 -80q0 -33 -16.5 -57.5 t-45.5 -36.5q40 -11 56.5 -37t16.5 -60q0 -57 -36.5 -91t-111.5 -34z" />
<glyph unicode="&#xb4;" horiz-adv-x="600" d="M416 675l-107 -107h-47v3l80 109h74v-5z" />
<glyph unicode="&#xb6;" horiz-adv-x="640" d="M137 482q0 -88 45.5 -131t125.5 -43h55v343h-52q-89 0 -131.5 -41t-42.5 -128zM496 651h-77v-343h77v343zM552 700v-700h-56v258h-77v-258h-56v258h-43q-123 0 -181.5 61t-58.5 165q0 106 57.5 161t181.5 55h233z" />
<glyph unicode="&#xb7;" horiz-adv-x="213" d="M63 293zM63 336q0 20 12 31t32 11t31.5 -11t11.5 -31t-11.5 -31.5t-31.5 -11.5t-32 11.5t-12 31.5z" />
<glyph unicode="&#xb8;" horiz-adv-x="600" d="M308 0h40l-17 -72h12q31 0 56 -17.5t25 -56.5q0 -41 -30 -61.5t-77 -20.5q-35 0 -61.5 12.5t-44.5 40.5l29 26q14 -23 30.5 -33.5t44.5 -10.5q31 0 48.5 12t17.5 35q0 24 -16.5 34.5t-40.5 10.5h-12q-5 0 -12 -2l-14 11z" />
<glyph unicode="&#xb9;" horiz-adv-x="203" d="M13 295zM135 295h-48v349l-56 -41l-18 38l91 62h31v-408z" />
<glyph unicode="&#xba;" horiz-adv-x="419" d="M47 533q0 92 42.5 135t120.5 43q80 0 121 -42.5t41 -135.5q0 -91 -41.5 -134.5t-120.5 -43.5t-121 42.5t-42 135.5zM328 533q0 75 -29 108.5t-89 33.5q-61 0 -89.5 -33.5t-28.5 -108.5t28.5 -108.5t89.5 -33.5q60 0 89 33.5t29 108.5z" />
<glyph unicode="&#xbb;" horiz-adv-x="608" d="M156 483l195 -241v-3l-192 -238h-64l193 238l-197 244h65zM356 483l191 -240v-3l-191 -239h-64l192 240l-195 242h67z" />
<glyph unicode="&#xbc;" horiz-adv-x="824" d="M13 0zM135 293h-48v349l-56 -41l-18 38l91 62h31v-408zM526 701l-334 -701h-54l336 701h52zM466 104v35l139 268h48l-137 -261h180v187h44v-187h64v-42h-64v-104h-44v104h-230z" />
<glyph unicode="&#xbd;" horiz-adv-x="796" d="M13 0zM468 0v40l150 142q22 21 37 38t24 31.5t13 27t4 25.5q0 37 -22 54t-64 17q-43 0 -67.5 -16.5t-42.5 -51.5l-33 25q23 43 57.5 63.5t89.5 20.5q63 0 96.5 -27.5t33.5 -78.5q0 -36 -21 -70.5t-72 -82.5l-117 -115l230 2v-44h-296zM135 293h-48v349l-56 -41l-18 38 l91 62h31v-408zM526 701l-334 -701h-54l336 701h52z" />
<glyph unicode="&#xbe;" horiz-adv-x="944" d="M29 0zM175 285q-53 0 -88 17t-58 54l34 26q19 -30 44.5 -43.5t63.5 -13.5q54 0 79.5 22t25.5 62q0 32 -19.5 54t-67.5 22h-58v40h58q33 0 54 18.5t21 53.5q0 72 -90 72q-38 0 -61 -14t-42 -46l-33 23q22 40 55 58.5t85 18.5q65 0 99.5 -28t34.5 -80q0 -33 -16.5 -57.5 t-45.5 -36.5q40 -11 56.5 -37t16.5 -60q0 -57 -36.5 -91t-111.5 -34zM661 701l-334 -701h-54l336 701h52zM586 104v35l139 268h48l-137 -261h180v187h44v-187h64v-42h-64v-104h-44v104h-230z" />
<glyph unicode="&#xbf;" horiz-adv-x="498" d="M277 321v-142h-31q-92 0 -139.5 -45.5t-47.5 -128.5q0 -81 50 -123t138 -42q69 0 114.5 27t77.5 94l42 -29q-35 -75 -93.5 -108t-146.5 -33q-54 0 -98.5 14.5t-75.5 41.5t-48 66t-17 88q0 97 56.5 153.5t162.5 60.5v106h56zM292 465q0 -20 -11.5 -31t-31.5 -11 q-43 0 -43 42q0 20 11.5 31.5t31.5 11.5t31.5 -11.5t11.5 -31.5z" />
<glyph unicode="&#xc0;" d="M12 0zM300 645l-156 -438h313zM531 0l-57 158h-346l-56 -158h-60l254 700h72l254 -700h-61zM286 787l-107 107v5h74l81 -109v-3h-48z" />
<glyph unicode="&#xc1;" d="M12 0zM300 645l-156 -438h313zM531 0l-57 158h-346l-56 -158h-60l254 700h72l254 -700h-61zM431 893l-107 -107h-47v3l80 109h74v-5z" />
<glyph unicode="&#xc2;" d="M12 0zM300 645l-156 -438h313zM531 0l-57 158h-346l-56 -158h-60l254 700h72l254 -700h-61zM305 864l-83 -78h-62v2l120 110h52l120 -110v-2h-65z" />
<glyph unicode="&#xc3;" d="M12 0zM300 645l-156 -438h313zM531 0l-57 158h-346l-56 -158h-60l254 700h72l254 -700h-61zM400 887h44q1 -26 -6 -43t-18 -26.5t-25 -13.5t-27 -4q-21 0 -37.5 7.5t-30.5 17t-27.5 17t-29.5 7.5t-25.5 -11t-9.5 -34h-44q-1 25 5.5 42t17.5 27t24.5 14t26.5 4 q22 0 38.5 -7.5t31 -17t28 -17t29.5 -7.5q35 0 35 45z" />
<glyph unicode="&#xc4;" d="M12 0zM300 645l-156 -438h313zM531 0l-57 158h-346l-56 -158h-60l254 700h72l254 -700h-61zM336 840q0 20 12 31t32 11t32 -11t12 -31t-12 -31t-32 -11t-32 11t-12 31zM184 840q0 20 11.5 31t31.5 11t32 -11t12 -31t-12 -31t-32 -11t-31.5 11t-11.5 31z" />
<glyph unicode="&#xc5;" d="M12 0zM300 645l-156 -438h313zM531 0l-57 158h-346l-56 -158h-60l254 700h72l254 -700h-61zM215 852q0 41 25.5 65.5t65.5 24.5q38 0 63 -24.5t25 -65.5q0 -40 -25.5 -64.5t-64.5 -24.5q-38 0 -63.5 24.5t-25.5 64.5zM247 852q0 -26 16.5 -43.5t40.5 -17.5 q25 0 41.5 17.5t16.5 43.5q0 27 -16.5 44t-39.5 17q-26 0 -42.5 -17t-16.5 -44z" />
<glyph unicode="&#xc6;" horiz-adv-x="894" d="M301 648l-158 -441h307zM519 0l-55 158h-338l-57 -158h-59l256 700h580v-49h-487l94 -274h338v-50h-322l95 -278h292v-49h-337z" />
<glyph unicode="&#xc7;" horiz-adv-x="696" d="M371 -228q-35 0 -61.5 12.5t-44.5 40.5l29 26q14 -23 30.5 -33.5t44.5 -10.5q31 0 48.5 12t17.5 35q0 24 -16.5 34.5t-40.5 10.5h-12q-5 0 -12 -2l-14 11l20 82q-68 3 -120.5 24.5t-88 65t-54 110t-18.5 160.5q0 99 20 167.5t59 111.5t96 62.5t131 19.5q90 0 152.5 -30 t98.5 -100l-46 -31q-32 63 -82.5 88t-122.5 25q-58 0 -104 -15t-78 -51t-49 -96t-17 -150t17 -150t49 -96.5t78 -52t104 -15.5q75 0 129 27t90 96l43 -29q-39 -74 -101 -107t-147 -35l-14 -61h12q31 0 56 -17.5t25 -56.5q0 -41 -30 -61.5t-77 -20.5z" />
<glyph unicode="&#xc8;" horiz-adv-x="653" d="M115 0zM115 0v700h490v-49h-434v-274h380v-50h-380v-278h444v-49h-500zM350 787l-107 107v5h74l81 -109v-3h-48z" />
<glyph unicode="&#xc9;" horiz-adv-x="653" d="M115 0zM496 893l-107 -107h-47v3l80 109h74v-5zM115 0v700h490v-49h-434v-274h380v-50h-380v-278h444v-49h-500z" />
<glyph unicode="&#xca;" horiz-adv-x="653" d="M115 0zM369 864l-83 -78h-62v2l120 110h52l120 -110v-2h-65zM115 0v700h490v-49h-434v-274h380v-50h-380v-278h444v-49h-500z" />
<glyph unicode="&#xcb;" horiz-adv-x="653" d="M115 0zM400 840q0 20 12 31t32 11t32 -11t12 -31t-12 -31t-32 -11t-32 11t-12 31zM248 840q0 20 11.5 31t31.5 11t32 -11t12 -31t-12 -31t-32 -11t-31.5 11t-11.5 31zM115 0v700h490v-49h-434v-274h380v-50h-380v-278h444v-49h-500z" />
<glyph unicode="&#xcc;" horiz-adv-x="288" d="M19 0zM115 0v700h58v-700h-58zM126 787l-107 107v5h74l81 -109v-3h-48z" />
<glyph unicode="&#xcd;" horiz-adv-x="288" d="M115 0zM115 0v700h58v-700h-58zM271 893l-107 -107h-47v3l80 109h74v-5z" />
<glyph unicode="&#xce;" horiz-adv-x="288" d="M0 0zM115 0v700h58v-700h-58zM144 864l-83 -78h-62v2l120 110h52l120 -110v-2h-65z" />
<glyph unicode="&#xcf;" horiz-adv-x="288" d="M24 0zM115 0v700h58v-700h-58zM176 840q0 20 12 31t32 11t32 -11t12 -31t-12 -31t-32 -11t-32 11t-12 31zM24 840q0 20 11.5 31t31.5 11t32 -11t12 -31t-12 -31t-32 -11t-31.5 11t-11.5 31z" />
<glyph unicode="&#xd0;" horiz-adv-x="758" d="M384 0h-253v340h-83v46h83v314h254q72 0 127 -19t92.5 -60.5t56.5 -107t19 -157.5q0 -93 -19.5 -160.5t-57 -111t-93 -64t-126.5 -20.5zM189 49h193q54 0 98.5 15.5t76 51.5t48.5 94.5t17 144.5q0 83 -16.5 139.5t-47 91.5t-74 50t-98.5 15h-197v-265h173v-46h-173v-291z " />
<glyph unicode="&#xd1;" horiz-adv-x="774" d="M115 0zM599 0l-430 616l2 -616h-56v700h60l429 -614l-1 614h56v-700h-60zM481 887h44q1 -26 -6 -43t-18 -26.5t-25 -13.5t-27 -4q-21 0 -37.5 7.5t-30.5 17t-27.5 17t-29.5 7.5t-25.5 -11t-9.5 -34h-44q-1 25 5.5 42t17.5 27t24.5 14t26.5 4q22 0 38.5 -7.5t31 -17 t28 -17t29.5 -7.5q35 0 35 45z" />
<glyph unicode="&#xd2;" horiz-adv-x="769" d="M79 0zM384 -11q-75 0 -132.5 20t-95.5 63.5t-57.5 112t-19.5 165.5t19.5 165.5t58 112t95.5 63.5t132 20q77 0 134.5 -20t96 -63.5t57.5 -112t19 -165.5t-20 -165.5t-58.5 -112t-96 -63.5t-132.5 -20zM384 663q-59 0 -105 -15t-77.5 -51.5t-48 -96.5t-16.5 -150 q0 -89 16.5 -148.5t48 -96.5t77.5 -52.5t105 -15.5t105.5 15.5t78.5 52t48.5 96.5t16.5 150q0 88 -16.5 148t-48.5 96.5t-78.5 52t-105.5 15.5zM367 788l-107 107v5h74l81 -109v-3h-48z" />
<glyph unicode="&#xd3;" horiz-adv-x="769" d="M79 0zM511 893l-107 -107h-47v3l80 109h74v-5zM384 -11q-75 0 -132.5 20t-95.5 63.5t-57.5 112t-19.5 165.5t19.5 165.5t58 112t95.5 63.5t132 20q77 0 134.5 -20t96 -63.5t57.5 -112t19 -165.5t-20 -165.5t-58.5 -112t-96 -63.5t-132.5 -20zM384 663q-59 0 -105 -15 t-77.5 -51.5t-48 -96.5t-16.5 -150q0 -89 16.5 -148.5t48 -96.5t77.5 -52.5t105 -15.5t105.5 15.5t78.5 52t48.5 96.5t16.5 150q0 88 -16.5 148t-48.5 96.5t-78.5 52t-105.5 15.5z" />
<glyph unicode="&#xd4;" horiz-adv-x="769" d="M79 0zM385 864l-83 -78h-62v2l120 110h52l120 -110v-2h-65zM384 -11q-75 0 -132.5 20t-95.5 63.5t-57.5 112t-19.5 165.5t19.5 165.5t58 112t95.5 63.5t132 20q77 0 134.5 -20t96 -63.5t57.5 -112t19 -165.5t-20 -165.5t-58.5 -112t-96 -63.5t-132.5 -20zM384 663 q-59 0 -105 -15t-77.5 -51.5t-48 -96.5t-16.5 -150q0 -89 16.5 -148.5t48 -96.5t77.5 -52.5t105 -15.5t105.5 15.5t78.5 52t48.5 96.5t16.5 150q0 88 -16.5 148t-48.5 96.5t-78.5 52t-105.5 15.5z" />
<glyph unicode="&#xd5;" horiz-adv-x="769" d="M79 0zM384 -11q-75 0 -132.5 20t-95.5 63.5t-57.5 112t-19.5 165.5t19.5 165.5t58 112t95.5 63.5t132 20q77 0 134.5 -20t96 -63.5t57.5 -112t19 -165.5t-20 -165.5t-58.5 -112t-96 -63.5t-132.5 -20zM384 663q-59 0 -105 -15t-77.5 -51.5t-48 -96.5t-16.5 -150 q0 -89 16.5 -148.5t48 -96.5t77.5 -52.5t105 -15.5t105.5 15.5t78.5 52t48.5 96.5t16.5 150q0 88 -16.5 148t-48.5 96.5t-78.5 52t-105.5 15.5zM480 887h44q1 -26 -6 -43t-18 -26.5t-25 -13.5t-27 -4q-21 0 -37.5 7.5t-30.5 17t-27.5 17t-29.5 7.5t-25.5 -11t-9.5 -34h-44 q-1 25 5.5 42t17.5 27t24.5 14t26.5 4q22 0 38.5 -7.5t31 -17t28 -17t29.5 -7.5q35 0 35 45z" />
<glyph unicode="&#xd6;" horiz-adv-x="769" d="M79 0zM417 840q0 20 12 31t32 11t32 -11t12 -31t-12 -31t-32 -11t-32 11t-12 31zM265 840q0 20 11.5 31t31.5 11t32 -11t12 -31t-12 -31t-32 -11t-31.5 11t-11.5 31zM384 -11q-75 0 -132.5 20t-95.5 63.5t-57.5 112t-19.5 165.5t19.5 165.5t58 112t95.5 63.5t132 20 q77 0 134.5 -20t96 -63.5t57.5 -112t19 -165.5t-20 -165.5t-58.5 -112t-96 -63.5t-132.5 -20zM384 663q-59 0 -105 -15t-77.5 -51.5t-48 -96.5t-16.5 -150q0 -89 16.5 -148.5t48 -96.5t77.5 -52.5t105 -15.5t105.5 15.5t78.5 52t48.5 96.5t16.5 150q0 88 -16.5 148 t-48.5 96.5t-78.5 52t-105.5 15.5z" />
<glyph unicode="&#xd7;" horiz-adv-x="470" d="M103 151l-32 32l130 130l-131 132l34 34l131 -132l132 132l32 -32l-131 -131l132 -132l-34 -34l-133 132z" />
<glyph unicode="&#xd8;" horiz-adv-x="775" d="M113 0h-63l88 100q-28 44 -42 105t-14 145q0 97 19.5 165.5t58.5 112t96 63.5t132 20q72 0 127.5 -18t93.5 -59l58 66h61l-89 -102q27 -44 41 -104.5t14 -143.5q0 -97 -20 -165.5t-58.5 -112t-95.5 -63.5t-132 -20q-72 0 -126.5 18t-92.5 57zM573 593q-32 38 -78.5 54 t-106.5 16q-59 0 -105.5 -15t-78 -51.5t-48 -96.5t-16.5 -150q0 -68 9.5 -118t29.5 -86zM205 104q32 -36 77.5 -51.5t105.5 -15.5q59 0 105 15.5t78 52t48.5 96.5t16.5 150q0 66 -9.5 115.5t-28.5 84.5z" />
<glyph unicode="&#xd9;" horiz-adv-x="742" d="M95 0zM590 265v435h57v-433q0 -141 -73.5 -209.5t-202.5 -68.5q-130 0 -203 68.5t-73 209.5v433h58v-435q0 -62 15.5 -105t44 -70.5t68.5 -40t90 -12.5q49 0 89.5 12.5t69.5 40t44.5 70.5t15.5 105zM354 787l-107 107v5h74l81 -109v-3h-48z" />
<glyph unicode="&#xda;" horiz-adv-x="742" d="M95 0zM499 893l-107 -107h-47v3l80 109h74v-5zM590 265v435h57v-433q0 -141 -73.5 -209.5t-202.5 -68.5q-130 0 -203 68.5t-73 209.5v433h58v-435q0 -62 15.5 -105t44 -70.5t68.5 -40t90 -12.5q49 0 89.5 12.5t69.5 40t44.5 70.5t15.5 105z" />
<glyph unicode="&#xdb;" horiz-adv-x="742" d="M95 0zM372 864l-83 -78h-62v2l120 110h52l120 -110v-2h-65zM590 265v435h57v-433q0 -141 -73.5 -209.5t-202.5 -68.5q-130 0 -203 68.5t-73 209.5v433h58v-435q0 -62 15.5 -105t44 -70.5t68.5 -40t90 -12.5q49 0 89.5 12.5t69.5 40t44.5 70.5t15.5 105z" />
<glyph unicode="&#xdc;" horiz-adv-x="742" d="M95 0zM404 840q0 20 12 31t32 11t32 -11t12 -31t-12 -31t-32 -11t-32 11t-12 31zM252 840q0 20 11.5 31t31.5 11t32 -11t12 -31t-12 -31t-32 -11t-31.5 11t-11.5 31zM590 265v435h57v-433q0 -141 -73.5 -209.5t-202.5 -68.5q-130 0 -203 68.5t-73 209.5v433h58v-435 q0 -62 15.5 -105t44 -70.5t68.5 -40t90 -12.5q49 0 89.5 12.5t69.5 40t44.5 70.5t15.5 105z" />
<glyph unicode="&#xdd;" horiz-adv-x="599" d="M16 0zM271 283l-255 417h63l221 -367l222 367h61l-254 -417v-283h-58v283zM427 893l-107 -107h-47v3l80 109h74v-5z" />
<glyph unicode="&#xde;" horiz-adv-x="648" d="M115 0v700h58v-140h201q115 0 168 -50t53 -147q0 -96 -55 -151t-168 -55h-199v-157h-58zM374 509h-201v-303h205q75 0 117 38.5t42 115.5q0 76 -39 112.5t-124 36.5z" />
<glyph unicode="&#xdf;" horiz-adv-x="609" d="M331 353h-45v44h46q64 0 94.5 38.5t30.5 96.5q0 66 -39 98.5t-108 32.5q-73 0 -114.5 -43.5t-41.5 -134.5v-484h-56v489q0 60 17 102t46 68t67.5 38t81.5 12q100 0 151.5 -48.5t51.5 -128.5q0 -55 -23.5 -93.5t-65.5 -58.5q69 -17 102.5 -64t33.5 -116q0 -46 -13.5 -84 t-40 -65.5t-66 -42.5t-90.5 -15q-24 0 -50 3.5t-57 17.5l12 45q25 -11 45.5 -15t40.5 -4q79 0 121.5 38.5t42.5 119.5q0 70 -41 112t-133 42z" />
<glyph unicode="&#xe0;" horiz-adv-x="563" d="M62 0zM242 35q78 0 123 49.5t50 137.5v22h-141q-79 0 -118 -26t-39 -83q0 -48 31 -74t94 -26zM418 106q-23 -55 -71 -86t-118 -31q-75 0 -121 37.5t-46 106.5q0 72 51 114t159 42h143q0 46 -8.5 76.5t-26.5 48.5t-45.5 25.5t-64.5 7.5q-60 0 -95 -18t-58 -49l-32 34 q54 79 189 79q47 0 84 -10t62 -33t38 -60t13 -91v-299h-48zM253 568l-107 107v5h74l81 -109v-3h-48z" />
<glyph unicode="&#xe1;" horiz-adv-x="563" d="M62 0zM242 35q78 0 123 49.5t50 137.5v22h-141q-79 0 -118 -26t-39 -83q0 -48 31 -74t94 -26zM418 106q-23 -55 -71 -86t-118 -31q-75 0 -121 37.5t-46 106.5q0 72 51 114t159 42h143q0 46 -8.5 76.5t-26.5 48.5t-45.5 25.5t-64.5 7.5q-60 0 -95 -18t-58 -49l-32 34 q54 79 189 79q47 0 84 -10t62 -33t38 -60t13 -91v-299h-48zM399 675l-107 -107h-47v3l80 109h74v-5z" />
<glyph unicode="&#xe2;" horiz-adv-x="563" d="M60 0zM240 35q78 0 123 49.5t50 137.5v22h-141q-79 0 -118 -26t-39 -83q0 -48 31 -74t94 -26zM416 106q-23 -55 -71 -86t-118 -31q-75 0 -121 37.5t-46 106.5q0 72 51 114t159 42h143q0 46 -8.5 76.5t-26.5 48.5t-45.5 25.5t-64.5 7.5q-60 0 -95 -18t-58 -49l-32 34 q54 79 189 79q47 0 84 -10t62 -33t38 -60t13 -91v-299h-48zM272 646l-83 -78h-62v2l120 110h52l120 -110v-2h-65z" />
<glyph unicode="&#xe3;" horiz-adv-x="563" d="M60 0zM240 35q78 0 123 49.5t50 137.5v22h-141q-79 0 -118 -26t-39 -83q0 -48 31 -74t94 -26zM416 106q-23 -55 -71 -86t-118 -31q-75 0 -121 37.5t-46 106.5q0 72 51 114t159 42h143q0 46 -8.5 76.5t-26.5 48.5t-45.5 25.5t-64.5 7.5q-60 0 -95 -18t-58 -49l-32 34 q54 79 189 79q47 0 84 -10t62 -33t38 -60t13 -91v-299h-48zM367 669h44q1 -26 -6 -43t-18 -26.5t-25 -13.5t-27 -4q-21 0 -37.5 7.5t-30.5 17t-27.5 17t-29.5 7.5t-25.5 -11t-9.5 -34h-44q-1 25 5.5 42t17.5 27t24.5 14t26.5 4q22 0 38.5 -7.5t31 -17t28 -17t29.5 -7.5 q35 0 35 45z" />
<glyph unicode="&#xe4;" horiz-adv-x="563" d="M60 0zM240 35q78 0 123 49.5t50 137.5v22h-141q-79 0 -118 -26t-39 -83q0 -48 31 -74t94 -26zM416 106q-23 -55 -71 -86t-118 -31q-75 0 -121 37.5t-46 106.5q0 72 51 114t159 42h143q0 46 -8.5 76.5t-26.5 48.5t-45.5 25.5t-64.5 7.5q-60 0 -95 -18t-58 -49l-32 34 q54 79 189 79q47 0 84 -10t62 -33t38 -60t13 -91v-299h-48zM304 622q0 20 12 31t32 11t32 -11t12 -31t-12 -31t-32 -11t-32 11t-12 31zM152 622q0 20 11.5 31t31.5 11t32 -11t12 -31t-12 -31t-32 -11t-31.5 11t-11.5 31z" />
<glyph unicode="&#xe5;" horiz-adv-x="563" d="M60 0zM240 35q78 0 123 49.5t50 137.5v22h-141q-79 0 -118 -26t-39 -83q0 -48 31 -74t94 -26zM416 106q-23 -55 -71 -86t-118 -31q-75 0 -121 37.5t-46 106.5q0 72 51 114t159 42h143q0 46 -8.5 76.5t-26.5 48.5t-45.5 25.5t-64.5 7.5q-60 0 -95 -18t-58 -49l-32 34 q54 79 189 79q47 0 84 -10t62 -33t38 -60t13 -91v-299h-48zM183 634q0 41 25.5 65.5t65.5 24.5q38 0 63 -24.5t25 -65.5q0 -40 -25.5 -64.5t-64.5 -24.5q-38 0 -63.5 24.5t-25.5 64.5zM215 634q0 -26 16.5 -43.5t40.5 -17.5q25 0 41.5 17.5t16.5 43.5q0 27 -16.5 44 t-39.5 17q-26 0 -42.5 -17t-16.5 -44z" />
<glyph unicode="&#xe6;" horiz-adv-x="892" d="M634 -11q-77 0 -128 33t-73 102q-21 -63 -74.5 -99t-134.5 -36q-74 0 -118.5 36.5t-44.5 105.5t49.5 109t156.5 40h144v12q0 45 -9 74.5t-27 47.5t-45.5 25.5t-64.5 7.5q-58 0 -93.5 -18t-58.5 -49l-32 34q54 79 189 79q69 0 113.5 -23t64.5 -79q52 102 187 102 q51 0 89 -16t63 -45.5t37.5 -71.5t12.5 -94q0 -9 -0.5 -17t-1.5 -13h-370q1 -107 44 -154t126 -47q60 0 98 21t60 72l42 -22q-26 -61 -77.5 -89t-123.5 -28zM632 448q-75 0 -116.5 -40.5t-49.5 -127.5h315q-3 89 -41 128.5t-108 39.5zM236 35q80 0 127.5 51.5t47.5 149.5 h-140q-78 0 -116.5 -25.5t-38.5 -80.5q0 -46 30 -70.5t90 -24.5z" />
<glyph unicode="&#xe7;" horiz-adv-x="534" d="M278 -228q-35 0 -61.5 12.5t-44.5 40.5l29 26q14 -23 30.5 -33.5t44.5 -10.5q31 0 48.5 12t17.5 35q0 24 -16.5 34.5t-40.5 10.5h-12q-5 0 -12 -2l-14 11l20 82q-100 5 -152 65.5t-52 184.5q0 130 58.5 191.5t168.5 61.5q72 0 118.5 -26.5t73.5 -75.5l-41 -27 q-21 42 -59.5 62.5t-91.5 20.5q-87 0 -129 -47.5t-42 -159.5q0 -110 42.5 -157.5t127.5 -47.5q59 0 96 21.5t60 72.5l43 -23q-25 -57 -70.5 -85t-110.5 -32l-15 -61h12q31 0 56 -17.5t25 -56.5q0 -41 -30 -61.5t-77 -20.5z" />
<glyph unicode="&#xe8;" horiz-adv-x="543" d="M63 0zM287 -11q-107 0 -165.5 61t-58.5 191q0 125 57 188.5t165 63.5q103 0 154 -63.5t51 -172.5q0 -6 -0.5 -11.5t-0.5 -10.5v-10h-370q3 -101 45.5 -145.5t123.5 -44.5q60 0 98 21t60 72l42 -22q-26 -61 -77.5 -89t-123.5 -28zM283 448q-76 0 -117.5 -43t-46.5 -135 h315q-3 92 -41 135t-110 43zM265 568l-107 107v5h74l81 -109v-3h-48z" />
<glyph unicode="&#xe9;" horiz-adv-x="543" d="M63 0zM409 675l-107 -107h-47v3l80 109h74v-5zM287 -11q-107 0 -165.5 61t-58.5 191q0 125 57 188.5t165 63.5q103 0 154 -63.5t51 -172.5q0 -6 -0.5 -11.5t-0.5 -10.5v-10h-370q3 -101 45.5 -145.5t123.5 -44.5q60 0 98 21t60 72l42 -22q-26 -61 -77.5 -89t-123.5 -28z M283 448q-76 0 -117.5 -43t-46.5 -135h315q-3 92 -41 135t-110 43z" />
<glyph unicode="&#xea;" horiz-adv-x="543" d="M63 0zM283 646l-83 -78h-62v2l120 110h52l120 -110v-2h-65zM287 -11q-107 0 -165.5 61t-58.5 191q0 125 57 188.5t165 63.5q103 0 154 -63.5t51 -172.5q0 -6 -0.5 -11.5t-0.5 -10.5v-10h-370q3 -101 45.5 -145.5t123.5 -44.5q60 0 98 21t60 72l42 -22q-26 -61 -77.5 -89 t-123.5 -28zM283 448q-76 0 -117.5 -43t-46.5 -135h315q-3 92 -41 135t-110 43z" />
<glyph unicode="&#xeb;" horiz-adv-x="543" d="M63 0zM315 622q0 20 12 31t32 11t32 -11t12 -31t-12 -31t-32 -11t-32 11t-12 31zM163 622q0 20 11.5 31t31.5 11t32 -11t12 -31t-12 -31t-32 -11t-31.5 11t-11.5 31zM287 -11q-107 0 -165.5 61t-58.5 191q0 125 57 188.5t165 63.5q103 0 154 -63.5t51 -172.5 q0 -6 -0.5 -11.5t-0.5 -10.5v-10h-370q3 -101 45.5 -145.5t123.5 -44.5q60 0 98 21t60 72l42 -22q-26 -61 -77.5 -89t-123.5 -28zM283 448q-76 0 -117.5 -43t-46.5 -135h315q-3 92 -41 135t-110 43z" />
<glyph unicode="&#xec;" horiz-adv-x="258" d="M4 0zM101 482h56v-482h-56v482zM111 568l-107 107v5h74l81 -109v-3h-48z" />
<glyph unicode="&#xed;" horiz-adv-x="258" d="M101 0zM256 675l-107 -107h-47v3l80 109h74v-5zM101 482h56v-482h-56v482z" />
<glyph unicode="&#xee;" horiz-adv-x="258" d="M0 0zM129 646l-83 -78h-62v2l120 110h52l120 -110v-2h-65zM101 482h56v-482h-56v482z" />
<glyph unicode="&#xef;" horiz-adv-x="258" d="M9 0zM161 622q0 20 12 31t32 11t32 -11t12 -31t-12 -31t-32 -11t-32 11t-12 31zM9 622q0 20 11.5 31t31.5 11t32 -11t12 -31t-12 -31t-32 -11t-31.5 11t-11.5 31zM101 482h56v-482h-56v482z" />
<glyph unicode="&#xf0;" horiz-adv-x="586" d="M482 706l21 -32l-87 -55q54 -64 78.5 -155.5t24.5 -214.5v-10q0 -128 -57.5 -189t-169.5 -61q-111 0 -170 60t-59 190t59.5 191t169.5 61q111 0 159 -77q-10 55 -29 99t-50 79l-86 -54l-21 32l79 50q-28 26 -63 44t-78 32l18 39q103 -29 167 -89zM463 239 q0 109 -41.5 158t-129.5 49q-89 0 -131 -49t-42 -158q0 -108 42.5 -156t130.5 -48t129.5 48t41.5 156z" />
<glyph unicode="&#xf1;" horiz-adv-x="616" d="M98 0zM98 482h49l7 -109q26 62 77 91t117 29q177 0 177 -188v-305h-56v291q0 85 -36.5 119.5t-101.5 34.5q-81 0 -126.5 -52.5t-50.5 -142.5v-250h-56v482zM414 669h44q1 -26 -6 -43t-18 -26.5t-25 -13.5t-27 -4q-21 0 -37.5 7.5t-30.5 17t-27.5 17t-29.5 7.5t-25.5 -11 t-9.5 -34h-44q-1 25 5.5 42t17.5 27t24.5 14t26.5 4q22 0 38.5 -7.5t31 -17t28 -17t29.5 -7.5q35 0 35 45z" />
<glyph unicode="&#xf2;" horiz-adv-x="581" d="M63 0zM63 241q0 130 59 191t169 61q114 0 170.5 -60.5t56.5 -191.5q0 -129 -57.5 -190.5t-169.5 -61.5t-170 60.5t-58 191.5zM462 240q0 110 -41.5 158.5t-129.5 48.5q-89 0 -130.5 -48.5t-41.5 -158.5q0 -108 42 -156.5t130 -48.5t129.5 48.5t41.5 156.5zM272 568 l-107 107v5h74l81 -109v-3h-48z" />
<glyph unicode="&#xf3;" horiz-adv-x="581" d="M63 0zM418 675l-107 -107h-47v3l80 109h74v-5zM63 241q0 130 59 191t169 61q114 0 170.5 -60.5t56.5 -191.5q0 -129 -57.5 -190.5t-169.5 -61.5t-170 60.5t-58 191.5zM462 240q0 110 -41.5 158.5t-129.5 48.5q-89 0 -130.5 -48.5t-41.5 -158.5q0 -108 42 -156.5 t130 -48.5t129.5 48.5t41.5 156.5z" />
<glyph unicode="&#xf4;" horiz-adv-x="581" d="M63 0zM290 646l-83 -78h-62v2l120 110h52l120 -110v-2h-65zM63 241q0 130 59 191t169 61q114 0 170.5 -60.5t56.5 -191.5q0 -129 -57.5 -190.5t-169.5 -61.5t-170 60.5t-58 191.5zM462 240q0 110 -41.5 158.5t-129.5 48.5q-89 0 -130.5 -48.5t-41.5 -158.5 q0 -108 42 -156.5t130 -48.5t129.5 48.5t41.5 156.5z" />
<glyph unicode="&#xf5;" horiz-adv-x="581" d="M63 0zM63 241q0 130 59 191t169 61q114 0 170.5 -60.5t56.5 -191.5q0 -129 -57.5 -190.5t-169.5 -61.5t-170 60.5t-58 191.5zM462 240q0 110 -41.5 158.5t-129.5 48.5q-89 0 -130.5 -48.5t-41.5 -158.5q0 -108 42 -156.5t130 -48.5t129.5 48.5t41.5 156.5zM385 669h44 q1 -26 -6 -43t-18 -26.5t-25 -13.5t-27 -4q-21 0 -37.5 7.5t-30.5 17t-27.5 17t-29.5 7.5t-25.5 -11t-9.5 -34h-44q-1 25 5.5 42t17.5 27t24.5 14t26.5 4q22 0 38.5 -7.5t31 -17t28 -17t29.5 -7.5q35 0 35 45z" />
<glyph unicode="&#xf6;" horiz-adv-x="581" d="M63 0zM322 622q0 20 12 31t32 11t32 -11t12 -31t-12 -31t-32 -11t-32 11t-12 31zM170 622q0 20 11.5 31t31.5 11t32 -11t12 -31t-12 -31t-32 -11t-31.5 11t-11.5 31zM63 241q0 130 59 191t169 61q114 0 170.5 -60.5t56.5 -191.5q0 -129 -57.5 -190.5t-169.5 -61.5 t-170 60.5t-58 191.5zM462 240q0 110 -41.5 158.5t-129.5 48.5q-89 0 -130.5 -48.5t-41.5 -158.5q0 -108 42 -156.5t130 -48.5t129.5 48.5t41.5 156.5z" />
<glyph unicode="&#xf7;" horiz-adv-x="496" d="M203 460q0 20 12 31.5t32 11.5t32 -11.5t12 -31.5t-12 -31t-32 -11t-32 11t-12 31zM446 330v-46h-396v46h396zM203 158q0 21 12 32t32 11t32 -11t12 -32q0 -20 -12 -31t-32 -11t-32 11t-12 31z" />
<glyph unicode="&#xf8;" horiz-adv-x="587" d="M559 482l-76 -78q37 -59 37 -163q0 -129 -57.5 -190.5t-169.5 -61.5q-104 0 -160 53l-41 -42h-58l71 74q-40 59 -40 167q0 130 59 191t169 61q106 0 164 -56l43 45h59zM144 115l276 285q-20 25 -52 36t-75 11q-89 0 -130.5 -48.5t-41.5 -158.5q0 -77 23 -125zM464 240 q0 75 -21 122l-275 -284q21 -23 52 -33t73 -10q88 0 129.5 48.5t41.5 156.5z" />
<glyph unicode="&#xf9;" horiz-adv-x="614" d="M91 0zM467 0l-5 106q-26 -60 -75.5 -88.5t-113.5 -28.5q-91 0 -136.5 50t-45.5 147v296h56v-287q0 -85 36.5 -122t102.5 -37q82 0 125.5 50t48.5 137v259h56v-482h-49zM285 568l-107 107v5h74l81 -109v-3h-48z" />
<glyph unicode="&#xfa;" horiz-adv-x="614" d="M91 0zM430 675l-107 -107h-47v3l80 109h74v-5zM467 0l-5 106q-26 -60 -75.5 -88.5t-113.5 -28.5q-91 0 -136.5 50t-45.5 147v296h56v-287q0 -85 36.5 -122t102.5 -37q82 0 125.5 50t48.5 137v259h56v-482h-49z" />
<glyph unicode="&#xfb;" horiz-adv-x="614" d="M91 0zM303 646l-83 -78h-62v2l120 110h52l120 -110v-2h-65zM467 0l-5 106q-26 -60 -75.5 -88.5t-113.5 -28.5q-91 0 -136.5 50t-45.5 147v296h56v-287q0 -85 36.5 -122t102.5 -37q82 0 125.5 50t48.5 137v259h56v-482h-49z" />
<glyph unicode="&#xfc;" horiz-adv-x="614" d="M91 0zM335 622q0 20 12 31t32 11t32 -11t12 -31t-12 -31t-32 -11t-32 11t-12 31zM183 622q0 20 11.5 31t31.5 11t32 -11t12 -31t-12 -31t-32 -11t-31.5 11t-11.5 31zM467 0l-5 106q-26 -60 -75.5 -88.5t-113.5 -28.5q-91 0 -136.5 50t-45.5 147v296h56v-287 q0 -85 36.5 -122t102.5 -37q82 0 125.5 50t48.5 137v259h56v-482h-49z" />
<glyph unicode="&#xfd;" horiz-adv-x="482" d="M0 0zM193 -56l18 51l-202 487h59l173 -429l173 429h58l-232 -557q-17 -41 -36.5 -67.5t-41.5 -41.5t-46 -20.5t-50 -5.5q-19 0 -36.5 2.5t-38.5 10.5l9 47q17 -6 31.5 -9t34.5 -3q16 0 32 3.5t32 14.5t32 32t31 56zM367 675l-107 -107h-47v3l80 109h74v-5z" />
<glyph unicode="&#xfe;" horiz-adv-x="607" d="M155 238q0 -53 12.5 -91.5t34.5 -63t52.5 -36.5t66.5 -12q84 0 125 52.5t41 154.5q0 205 -159 205q-38 0 -69.5 -12.5t-54.5 -38t-36 -65t-13 -93.5zM155 700v-323q23 58 72 87t115 29q99 0 150 -64t51 -187q0 -122 -55 -187.5t-159 -65.5q-59 0 -104.5 25t-69.5 77v-277 h-56v886h56z" />
<glyph unicode="&#xff;" horiz-adv-x="482" d="M0 0zM193 -56l18 51l-202 487h59l173 -429l173 429h58l-232 -557q-17 -41 -36.5 -67.5t-41.5 -41.5t-46 -20.5t-50 -5.5q-19 0 -36.5 2.5t-38.5 10.5l9 47q17 -6 31.5 -9t34.5 -3q16 0 32 3.5t32 14.5t32 32t31 56zM272 622q0 20 12 31t32 11t32 -11t12 -31t-12 -31 t-32 -11t-32 11t-12 31zM120 622q0 20 11.5 31t31.5 11t32 -11t12 -31t-12 -31t-32 -11t-31.5 11t-11.5 31z" />
<glyph unicode="&#x100;" d="M12 0zM300 645l-156 -438h313zM531 0l-57 158h-346l-56 -158h-60l254 700h72l254 -700h-61zM424 859v-39h-239v39h239z" />
<glyph unicode="&#x101;" horiz-adv-x="563" d="M60 0zM240 35q78 0 123 49.5t50 137.5v22h-141q-79 0 -118 -26t-39 -83q0 -48 31 -74t94 -26zM416 106q-23 -55 -71 -86t-118 -31q-75 0 -121 37.5t-46 106.5q0 72 51 114t159 42h143q0 46 -8.5 76.5t-26.5 48.5t-45.5 25.5t-64.5 7.5q-60 0 -95 -18t-58 -49l-32 34 q54 79 189 79q47 0 84 -10t62 -33t38 -60t13 -91v-299h-48zM392 641v-39h-239v39h239z" />
<glyph unicode="&#x102;" d="M12 0zM300 645l-156 -438h313zM531 0l-57 158h-346l-56 -158h-60l254 700h72l254 -700h-61zM389 897h44q0 -32 -9 -54t-25.5 -35t-41 -18.5t-54.5 -5.5t-54 5.5t-40.5 18.5t-25.5 35t-9 54h43q0 -44 22 -60t64 -16t64 16t22 60z" />
<glyph unicode="&#x103;" horiz-adv-x="563" d="M60 0zM240 35q78 0 123 49.5t50 137.5v22h-141q-79 0 -118 -26t-39 -83q0 -48 31 -74t94 -26zM416 106q-23 -55 -71 -86t-118 -31q-75 0 -121 37.5t-46 106.5q0 72 51 114t159 42h143q0 46 -8.5 76.5t-26.5 48.5t-45.5 25.5t-64.5 7.5q-60 0 -95 -18t-58 -49l-32 34 q54 79 189 79q47 0 84 -10t62 -33t38 -60t13 -91v-299h-48zM357 679h44q0 -32 -9 -54t-25.5 -35t-41 -18.5t-54.5 -5.5t-54 5.5t-40.5 18.5t-25.5 35t-9 54h43q0 -44 22 -60t64 -16t64 16t22 60z" />
<glyph unicode="&#x104;" d="M524 17l-50 141h-346l-57 -158h-59l254 700h72l254 -700h-23q-42 -5 -71 -35t-29 -70q0 -33 18.5 -46t47.5 -13q36 0 64 18l11 -36q-37 -22 -80 -22q-20 0 -38.5 4.5t-33 15t-23.5 28.5t-9 44q0 25 8.5 46.5t22 37.5t31.5 27.5t36 17.5zM301 646l-157 -439h313z" />
<glyph unicode="&#x105;" horiz-adv-x="563" d="M507 -182q-35 -22 -79 -22q-20 0 -39 4.5t-33 15t-22.5 28.5t-8.5 44q0 25 8 46t21 37.5t30.5 28t35.5 17.5l-4 89q-23 -55 -71 -86t-118 -31q-75 0 -121 37.5t-46 106.5q0 72 51 114t159 42h143q0 46 -8.5 76.5t-26.5 48.5t-45.5 25.5t-64.5 7.5q-60 0 -95 -18t-58 -49 l-32 34q54 79 189 79q47 0 84 -10t62 -33t38 -60t13 -91v-299h-3q-42 -5 -70 -35t-28 -70q0 -33 17.5 -46t46.5 -13q37 0 65 18zM240 35q78 0 123 49.5t50 137.5v22h-141q-79 0 -118 -26t-39 -83q0 -48 31 -74t94 -26z" />
<glyph unicode="&#x106;" horiz-adv-x="696" d="M79 0zM512 894l-107 -107h-47v3l80 109h74v-5zM385 -11q-74 0 -131 19.5t-96 63t-59 112t-20 166.5q0 99 20 167.5t59 111.5t96 62.5t131 19.5q90 0 152.5 -30t98.5 -100l-46 -31q-32 63 -82.5 88t-122.5 25q-58 0 -104 -15t-78 -51t-49 -96t-17 -150t17 -150t49 -96.5 t78 -52t104 -15.5q75 0 129 27t90 96l43 -29q-41 -77 -106 -109.5t-156 -32.5z" />
<glyph unicode="&#x107;" horiz-adv-x="534" d="M63 0zM417 675l-107 -107h-47v3l80 109h74v-5zM289 -11q-110 0 -168 60.5t-58 190.5t58.5 191.5t168.5 61.5q72 0 118.5 -26.5t73.5 -75.5l-41 -27q-21 42 -59.5 62.5t-91.5 20.5q-87 0 -129 -47.5t-42 -159.5q0 -110 42.5 -157.5t127.5 -47.5q59 0 96 21.5t60 72.5 l43 -23q-26 -61 -76.5 -89t-122.5 -28z" />
<glyph unicode="&#x108;" horiz-adv-x="696" d="M79 0zM387 865l-83 -78h-62v2l120 110h52l120 -110v-2h-65zM385 -11q-74 0 -131 19.5t-96 63t-59 112t-20 166.5q0 99 20 167.5t59 111.5t96 62.5t131 19.5q90 0 152.5 -30t98.5 -100l-46 -31q-32 63 -82.5 88t-122.5 25q-58 0 -104 -15t-78 -51t-49 -96t-17 -150 t17 -150t49 -96.5t78 -52t104 -15.5q75 0 129 27t90 96l43 -29q-41 -77 -106 -109.5t-156 -32.5z" />
<glyph unicode="&#x109;" horiz-adv-x="534" d="M63 0zM290 646l-83 -78h-62v2l120 110h52l120 -110v-2h-65zM289 -11q-110 0 -168 60.5t-58 190.5t58.5 191.5t168.5 61.5q72 0 118.5 -26.5t73.5 -75.5l-41 -27q-21 42 -59.5 62.5t-91.5 20.5q-87 0 -129 -47.5t-42 -159.5q0 -110 42.5 -157.5t127.5 -47.5q59 0 96 21.5 t60 72.5l43 -23q-26 -61 -76.5 -89t-122.5 -28z" />
<glyph unicode="&#x10a;" horiz-adv-x="696" d="M79 0zM385 -11q-74 0 -131 19.5t-96 63t-59 112t-20 166.5q0 99 20 167.5t59 111.5t96 62.5t131 19.5q90 0 152.5 -30t98.5 -100l-46 -31q-32 63 -82.5 88t-122.5 25q-58 0 -104 -15t-78 -51t-49 -96t-17 -150t17 -150t49 -96.5t78 -52t104 -15.5q75 0 129 27t90 96 l43 -29q-41 -77 -106 -109.5t-156 -32.5zM343 841q0 20 12 31t33 11q43 0 43 -42t-43 -42q-21 0 -33 11t-12 31z" />
<glyph unicode="&#x10b;" horiz-adv-x="534" d="M63 0zM289 -11q-110 0 -168 60.5t-58 190.5t58.5 191.5t168.5 61.5q72 0 118.5 -26.5t73.5 -75.5l-41 -27q-21 42 -59.5 62.5t-91.5 20.5q-87 0 -129 -47.5t-42 -159.5q0 -110 42.5 -157.5t127.5 -47.5q59 0 96 21.5t60 72.5l43 -23q-26 -61 -76.5 -89t-122.5 -28z M248 622q0 20 12 31t33 11q43 0 43 -42t-43 -42q-21 0 -33 11t-12 31z" />
<glyph unicode="&#x10c;" horiz-adv-x="696" d="M79 0zM385 822l84 77h62v-2l-120 -110h-52l-120 110v2h64zM385 -11q-74 0 -131 19.5t-96 63t-59 112t-20 166.5q0 99 20 167.5t59 111.5t96 62.5t131 19.5q90 0 152.5 -30t98.5 -100l-46 -31q-32 63 -82.5 88t-122.5 25q-58 0 -104 -15t-78 -51t-49 -96t-17 -150t17 -150 t49 -96.5t78 -52t104 -15.5q75 0 129 27t90 96l43 -29q-41 -77 -106 -109.5t-156 -32.5z" />
<glyph unicode="&#x10d;" horiz-adv-x="534" d="M63 0zM289 603l84 77h62v-2l-120 -110h-52l-120 110v2h64zM289 -11q-110 0 -168 60.5t-58 190.5t58.5 191.5t168.5 61.5q72 0 118.5 -26.5t73.5 -75.5l-41 -27q-21 42 -59.5 62.5t-91.5 20.5q-87 0 -129 -47.5t-42 -159.5q0 -110 42.5 -157.5t127.5 -47.5q59 0 96 21.5 t60 72.5l43 -23q-26 -61 -76.5 -89t-122.5 -28z" />
<glyph unicode="&#x10e;" horiz-adv-x="742" d="M115 0zM381 821l84 77h62v-2l-120 -110h-52l-120 110v2h64zM368 0h-253v700h254q72 0 127 -19t92 -60.5t56 -107t19 -157.5q0 -186 -76 -271t-219 -85zM173 49h193q54 0 98.5 15.5t75.5 51.5t48 94.5t17 144.5q0 83 -16 139.5t-46.5 91.5t-74 50t-98.5 15h-197v-602z" />
<glyph unicode="&#x10f;" horiz-adv-x="649" d="M63 0zM645 500h-39l7 200h57zM452 245q0 52 -13 90t-35.5 63t-53 37t-66.5 12q-84 0 -124.5 -52t-40.5 -154q0 -206 164 -206q36 0 67 12.5t53.5 38t35.5 65t13 94.5zM456 0l-3 105q-23 -59 -71 -87.5t-113 -28.5q-100 0 -153 65t-53 187t55 187t159 65q60 0 104.5 -25 t70.5 -76v308h55v-700h-51z" />
<glyph unicode="&#x110;" horiz-adv-x="758" d="M384 0h-253v340h-83v46h83v314h254q72 0 127 -19t92.5 -60.5t56.5 -107t19 -157.5q0 -93 -19.5 -160.5t-57 -111t-93 -64t-126.5 -20.5zM189 49h193q54 0 98.5 15.5t76 51.5t48.5 94.5t17 144.5q0 83 -16.5 139.5t-47 91.5t-74 50t-98.5 15h-197v-265h173v-46h-173v-291z " />
<glyph unicode="&#x111;" horiz-adv-x="620" d="M452 245q0 52 -13 90.5t-35.5 63.5t-53 37t-66.5 12q-84 0 -124.5 -52.5t-40.5 -154.5q0 -206 164 -206q36 0 67 12.5t53.5 38t35.5 65.5t13 94zM590 602v-38h-83v-564h-51l-3 104q-24 -58 -72 -86.5t-112 -28.5q-100 0 -153 65t-53 187t55 187t159 65q59 0 104 -25.5 t71 -76.5v173h-167v38h167v98h55v-98h83z" />
<glyph unicode="&#x112;" horiz-adv-x="653" d="M115 0zM115 0v700h490v-49h-434v-274h380v-50h-380v-278h444v-49h-500zM488 859v-39h-239v39h239z" />
<glyph unicode="&#x113;" horiz-adv-x="543" d="M63 0zM287 -11q-107 0 -165.5 61t-58.5 191q0 125 57 188.5t165 63.5q103 0 154 -63.5t51 -172.5q0 -6 -0.5 -11.5t-0.5 -10.5v-10h-370q3 -101 45.5 -145.5t123.5 -44.5q60 0 98 21t60 72l42 -22q-26 -61 -77.5 -89t-123.5 -28zM283 448q-76 0 -117.5 -43t-46.5 -135 h315q-3 92 -41 135t-110 43zM403 641v-39h-239v39h239z" />
<glyph unicode="&#x114;" horiz-adv-x="653" d="M115 0zM115 0v700h490v-49h-434v-274h380v-50h-380v-278h444v-49h-500zM454 897h44q0 -32 -9 -54t-25.5 -35t-41 -18.5t-54.5 -5.5t-54 5.5t-40.5 18.5t-25.5 35t-9 54h43q0 -44 22 -60t64 -16t64 16t22 60z" />
<glyph unicode="&#x115;" horiz-adv-x="543" d="M63 0zM287 -11q-107 0 -165.5 61t-58.5 191q0 125 57 188.5t165 63.5q103 0 154 -63.5t51 -172.5q0 -6 -0.5 -11.5t-0.5 -10.5v-10h-370q3 -101 45.5 -145.5t123.5 -44.5q60 0 98 21t60 72l42 -22q-26 -61 -77.5 -89t-123.5 -28zM283 448q-76 0 -117.5 -43t-46.5 -135 h315q-3 92 -41 135t-110 43zM367 679h44q0 -32 -9 -54t-25.5 -35t-41 -18.5t-54.5 -5.5t-54 5.5t-40.5 18.5t-25.5 35t-9 54h43q0 -44 22 -60t64 -16t64 16t22 60z" />
<glyph unicode="&#x116;" horiz-adv-x="653" d="M115 0zM115 0v700h490v-49h-434v-274h380v-50h-380v-278h444v-49h-500zM327 840q0 20 12 31t33 11q43 0 43 -42t-43 -42q-21 0 -33 11t-12 31z" />
<glyph unicode="&#x117;" horiz-adv-x="543" d="M63 0zM287 -11q-107 0 -165.5 61t-58.5 191q0 125 57 188.5t165 63.5q103 0 154 -63.5t51 -172.5q0 -6 -0.5 -11.5t-0.5 -10.5v-10h-370q3 -101 45.5 -145.5t123.5 -44.5q60 0 98 21t60 72l42 -22q-26 -61 -77.5 -89t-123.5 -28zM283 448q-76 0 -117.5 -43t-46.5 -135 h315q-3 92 -41 135t-110 43zM240 622q0 20 12 31t33 11q43 0 43 -42t-43 -42q-21 0 -33 11t-12 31z" />
<glyph unicode="&#x118;" horiz-adv-x="653" d="M115 0v700h490v-49h-433v-274h379v-50h-379v-278h443v-49q-48 -5 -77.5 -35t-29.5 -70q0 -33 18 -46t47 -13q37 0 65 18l10 -36q-35 -22 -79 -22q-20 0 -38.5 4.5t-33 15t-23 28.5t-8.5 44q0 39 18.5 67.5t44.5 44.5h-414z" />
<glyph unicode="&#x119;" horiz-adv-x="543" d="M233 -112q0 34 14 59.5t35 42.5q-104 1 -161.5 61.5t-57.5 189.5q0 125 57 188.5t165 63.5q104 0 154.5 -63.5t50.5 -172.5v-16q0 -9 -1 -16h-371q2 -101 46 -145.5t124 -44.5q60 0 98 21t60 72l42 -22q-38 -86 -129 -108q-38 -10 -60.5 -39t-22.5 -64q0 -33 18 -46 t47 -13q37 0 65 18l10 -36q-37 -22 -80 -22q-20 0 -38.5 4.5t-33 15t-23 28.5t-8.5 44zM283 448q-77 0 -118 -43t-46 -135h316q-2 92 -41 135t-111 43z" />
<glyph unicode="&#x11a;" horiz-adv-x="653" d="M115 0zM368 821l84 77h62v-2l-120 -110h-52l-120 110v2h64zM115 0v700h490v-49h-434v-274h380v-50h-380v-278h444v-49h-500z" />
<glyph unicode="&#x11b;" horiz-adv-x="543" d="M63 0zM283 603l84 77h62v-2l-120 -110h-52l-120 110v2h64zM287 -11q-107 0 -165.5 61t-58.5 191q0 125 57 188.5t165 63.5q103 0 154 -63.5t51 -172.5q0 -6 -0.5 -11.5t-0.5 -10.5v-10h-370q3 -101 45.5 -145.5t123.5 -44.5q60 0 98 21t60 72l42 -22q-26 -61 -77.5 -89 t-123.5 -28zM283 448q-76 0 -117.5 -43t-46.5 -135h315q-3 92 -41 135t-110 43z" />
<glyph unicode="&#x11c;" horiz-adv-x="728" d="M79 0zM384 864l-83 -78h-62v2l120 110h52l120 -110v-2h-65zM376 -11q-71 0 -126 20.5t-93 64.5t-58 112.5t-20 163.5q0 99 20 167.5t59 111.5t96 62.5t131 19.5q90 0 152 -30.5t98 -97.5l-46 -32q-32 60 -82 86t-122 26q-58 0 -104 -14.5t-78 -50.5t-49 -96.5t-17 -151.5 q0 -89 17 -149t48.5 -96.5t77.5 -52t103 -15.5q43 0 81.5 11.5t68.5 37.5t48 68.5t21 105.5v25h-208v46h262v-331h-49l-4 127q-26 -68 -85.5 -103t-141.5 -35z" />
<glyph unicode="&#x11d;" d="M63 0zM278 646l-83 -78h-62v2l120 110h52l120 -110v-2h-65zM449 250q0 51 -13 88.5t-35.5 62t-53 36t-66.5 11.5q-162 0 -162 -202q0 -203 161 -203q37 0 68 12t53.5 37.5t35 64.5t12.5 93zM505 482v-477q0 -58 -17.5 -98.5t-48 -66.5t-73.5 -38t-94 -12q-68 0 -120 23.5 t-84 86.5l41 29q27 -53 67.5 -73t95.5 -20q39 0 71.5 9t56 29t36.5 52t13 78v98q-25 -54 -71.5 -79.5t-109.5 -25.5q-98 0 -151.5 63.5t-53.5 185.5q0 119 52.5 183t154.5 64q63 0 109.5 -26t71.5 -78l6 93h48z" />
<glyph unicode="&#x11e;" horiz-adv-x="728" d="M79 0zM376 -11q-71 0 -126 20.5t-93 64.5t-58 112.5t-20 163.5q0 99 20 167.5t59 111.5t96 62.5t131 19.5q90 0 152 -30.5t98 -97.5l-46 -32q-32 60 -82 86t-122 26q-58 0 -104 -14.5t-78 -50.5t-49 -96.5t-17 -151.5q0 -89 17 -149t48.5 -96.5t77.5 -52t103 -15.5 q43 0 81.5 11.5t68.5 37.5t48 68.5t21 105.5v25h-208v46h262v-331h-49l-4 127q-26 -68 -85.5 -103t-141.5 -35zM468 897h44q0 -32 -9 -54t-25.5 -35t-41 -18.5t-54.5 -5.5t-54 5.5t-40.5 18.5t-25.5 35t-9 54h43q0 -44 22 -60t64 -16t64 16t22 60z" />
<glyph unicode="&#x11f;" d="M63 0zM449 250q0 51 -13 88.5t-35.5 62t-53 36t-66.5 11.5q-162 0 -162 -202q0 -203 161 -203q37 0 68 12t53.5 37.5t35 64.5t12.5 93zM505 482v-477q0 -58 -17.5 -98.5t-48 -66.5t-73.5 -38t-94 -12q-68 0 -120 23.5t-84 86.5l41 29q27 -53 67.5 -73t95.5 -20 q39 0 71.5 9t56 29t36.5 52t13 78v98q-25 -54 -71.5 -79.5t-109.5 -25.5q-98 0 -151.5 63.5t-53.5 185.5q0 119 52.5 183t154.5 64q63 0 109.5 -26t71.5 -78l6 93h48zM362 679h44q0 -32 -9 -54t-25.5 -35t-41 -18.5t-54.5 -5.5t-54 5.5t-40.5 18.5t-25.5 35t-9 54h43 q0 -44 22 -60t64 -16t64 16t22 60z" />
<glyph unicode="&#x120;" horiz-adv-x="728" d="M79 0zM376 -11q-71 0 -126 20.5t-93 64.5t-58 112.5t-20 163.5q0 99 20 167.5t59 111.5t96 62.5t131 19.5q90 0 152 -30.5t98 -97.5l-46 -32q-32 60 -82 86t-122 26q-58 0 -104 -14.5t-78 -50.5t-49 -96.5t-17 -151.5q0 -89 17 -149t48.5 -96.5t77.5 -52t103 -15.5 q43 0 81.5 11.5t68.5 37.5t48 68.5t21 105.5v25h-208v46h262v-331h-49l-4 127q-26 -68 -85.5 -103t-141.5 -35zM341 840q0 20 12 31t33 11q43 0 43 -42t-43 -42q-21 0 -33 11t-12 31z" />
<glyph unicode="&#x121;" d="M63 0zM449 250q0 51 -13 88.5t-35.5 62t-53 36t-66.5 11.5q-162 0 -162 -202q0 -203 161 -203q37 0 68 12t53.5 37.5t35 64.5t12.5 93zM505 482v-477q0 -58 -17.5 -98.5t-48 -66.5t-73.5 -38t-94 -12q-68 0 -120 23.5t-84 86.5l41 29q27 -53 67.5 -73t95.5 -20 q39 0 71.5 9t56 29t36.5 52t13 78v98q-25 -54 -71.5 -79.5t-109.5 -25.5q-98 0 -151.5 63.5t-53.5 185.5q0 119 52.5 183t154.5 64q63 0 109.5 -26t71.5 -78l6 93h48zM235 622q0 20 12 31t33 11q43 0 43 -42t-43 -42q-21 0 -33 11t-12 31z" />
<glyph unicode="&#x122;" horiz-adv-x="728" d="M79 0zM349 -255l-12 26q24 10 37 31.5t15 49.5q-26 -4 -38.5 9t-12.5 31q0 20 11 30t30 10q21 0 33.5 -14t12.5 -47q0 -43 -18.5 -78.5t-57.5 -47.5zM376 -11q-71 0 -126 20.5t-93 64.5t-58 112.5t-20 163.5q0 99 20 167.5t59 111.5t96 62.5t131 19.5q90 0 152 -30.5 t98 -97.5l-46 -32q-32 60 -82 86t-122 26q-58 0 -104 -14.5t-78 -50.5t-49 -96.5t-17 -151.5q0 -89 17 -149t48.5 -96.5t77.5 -52t103 -15.5q43 0 81.5 11.5t68.5 37.5t48 68.5t21 105.5v25h-208v46h262v-331h-49l-4 127q-26 -68 -85.5 -103t-141.5 -35z" />
<glyph unicode="&#x123;" d="M310 757l12 -26q-24 -10 -37 -31.5t-15 -49.5q26 4 38.5 -9t12.5 -31q0 -20 -11 -30t-30 -10q-21 0 -33.5 14t-12.5 47q0 43 18.5 78.5t57.5 47.5zM449 250q0 51 -13 88.5t-35.5 62t-53 36t-66.5 11.5q-162 0 -162 -202q0 -203 161 -203q37 0 68 12t53.5 37.5t35 64.5 t12.5 93zM505 482v-477q0 -58 -17.5 -98.5t-48 -66.5t-73.5 -38t-94 -12q-68 0 -120 23.5t-84 86.5l41 29q27 -53 67.5 -73t95.5 -20q39 0 71.5 9t56 29t36.5 52t13 78v98q-25 -54 -71.5 -79.5t-109.5 -25.5q-98 0 -151.5 63.5t-53.5 185.5q0 119 52.5 183t154.5 64 q63 0 109.5 -26t71.5 -78l6 93h48z" />
<glyph unicode="&#x124;" horiz-adv-x="783" d="M115 0zM392 865l-83 -78h-62v2l120 110h52l120 -110v-2h-65zM610 0v327h-437v-327h-58v700h58v-323h437v323h58v-700h-58z" />
<glyph unicode="&#x125;" horiz-adv-x="616" d="M0 0zM130 823l-83 -78h-62v2l120 110h52l120 -110v-2h-65zM154 700v-331q25 63 76.5 93.5t117.5 30.5q177 0 177 -188v-305h-56v290q0 85 -37 120t-101 35q-81 0 -126.5 -52.5t-50.5 -142.5v-250h-56v700h56z" />
<glyph unicode="&#x126;" horiz-adv-x="795" d="M179 377h437v123h-437v-123zM616 0v327h-437v-327h-58v500h-76v41h76v159h58v-159h437v159h58v-159h80v-41h-80v-500h-58z" />
<glyph unicode="&#x127;" horiz-adv-x="630" d="M29 564v38h83v98h56v-98h166v-38h-166v-195q25 63 76.5 93.5t117.5 30.5q176 0 176 -188v-305h-56v290q0 85 -37 120t-100 35q-81 0 -127 -52.5t-50 -142.5v-250h-56v564h-83z" />
<glyph unicode="&#x128;" horiz-adv-x="288" d="M3 0zM115 0v700h58v-700h-58zM240 887h44q1 -26 -6 -43t-18 -26.5t-25 -13.5t-27 -4q-21 0 -37.5 7.5t-30.5 17t-27.5 17t-29.5 7.5t-25.5 -11t-9.5 -34h-44q-1 25 5.5 42t17.5 27t24.5 14t26.5 4q22 0 38.5 -7.5t31 -17t28 -17t29.5 -7.5q35 0 35 45z" />
<glyph unicode="&#x129;" horiz-adv-x="258" d="M0 0zM101 482h56v-482h-56v482zM224 669h44q1 -26 -6 -43t-18 -26.5t-25 -13.5t-27 -4q-21 0 -37.5 7.5t-30.5 17t-27.5 17t-29.5 7.5t-25.5 -11t-9.5 -34h-44q-1 25 5.5 42t17.5 27t24.5 14t26.5 4q22 0 38.5 -7.5t31 -17t28 -17t29.5 -7.5q35 0 35 45z" />
<glyph unicode="&#x12a;" horiz-adv-x="288" d="M25 0zM115 0v700h58v-700h-58zM264 859v-39h-239v39h239z" />
<glyph unicode="&#x12b;" horiz-adv-x="258" d="M10 0zM101 482h56v-482h-56v482zM249 641v-39h-239v39h239z" />
<glyph unicode="&#x12c;" horiz-adv-x="288" d="M14 0zM115 0v700h58v-700h-58zM229 897h44q0 -32 -9 -54t-25.5 -35t-41 -18.5t-54.5 -5.5t-54 5.5t-40.5 18.5t-25.5 35t-9 54h43q0 -44 22 -60t64 -16t64 16t22 60z" />
<glyph unicode="&#x12d;" horiz-adv-x="258" d="M0 0zM101 482h56v-482h-56v482zM214 679h44q0 -32 -9 -54t-25.5 -35t-41 -18.5t-54.5 -5.5t-54 5.5t-40.5 18.5t-25.5 35t-9 54h43q0 -44 22 -60t64 -16t64 16t22 60z" />
<glyph unicode="&#x12e;" horiz-adv-x="288" d="M109 -204q-20 0 -39 4.5t-33 15t-22.5 28.5t-8.5 44q0 28 9.5 50.5t24.5 39t34.5 27.5t40.5 16v679h58v-700h-26q-21 -2 -39 -11.5t-31.5 -23.5t-21 -32t-7.5 -38q0 -33 18 -46t47 -13q37 0 65 18l10 -36q-35 -22 -79 -22z" />
<glyph unicode="&#x12f;" horiz-adv-x="258" d="M86 623q0 42 43 42t43 -42q0 -43 -43 -43t-43 43zM96 -204q-20 0 -38.5 4.5t-33 15t-23 28.5t-8.5 44q0 27 9.5 49.5t24.5 39.5t34.5 28t39.5 16v461h56v-482h-22q-42 -5 -70.5 -35t-28.5 -70q0 -33 17.5 -46t46.5 -13q37 0 65 18l11 -36q-37 -22 -80 -22z" />
<glyph unicode="&#x130;" horiz-adv-x="288" d="M102 0zM115 0v700h58v-700h-58zM102 840q0 20 12 31t33 11q43 0 43 -42t-43 -42q-21 0 -33 11t-12 31z" />
<glyph unicode="&#x131;" horiz-adv-x="258" d="M101 482h56v-482h-56v482z" />
<glyph unicode="&#x132;" horiz-adv-x="791" d="M115 0zM115 0v700h58v-700h-58zM460 -11q-42 0 -78.5 10.5t-67.5 33.5l27 45q25 -20 56.5 -30t66.5 -10q40 0 72.5 12t55.5 37.5t35.5 66.5t12.5 99v447h57v-443q0 -74 -17 -125.5t-48 -83t-75 -45.5t-97 -14z" />
<glyph unicode="&#x133;" horiz-adv-x="515" d="M86 0zM86 623q0 42 43 42t43 -42q0 -43 -43 -43t-43 43zM101 482h56v-482h-56v482zM344 623q0 42 43 42t43 -42q0 -43 -43 -43t-43 43zM359 -46v528h56v-536q0 -82 -34 -119t-95 -37q-19 0 -36.5 2.5t-38.5 10.5l10 47q14 -6 27.5 -9t33.5 -3q38 0 57.5 25t19.5 91z" />
<glyph unicode="&#x134;" horiz-adv-x="501" d="M23 0zM379 864l-83 -78h-62v2l120 110h52l120 -110v-2h-65zM169 -11q-42 0 -78.5 10.5t-67.5 33.5l27 45q25 -20 56.5 -30t66.5 -10q40 0 72.5 12t55.5 37.5t35.5 66.5t12.5 99v447h57v-443q0 -74 -17 -125.5t-48 -83t-75 -45.5t-97 -14z" />
<glyph unicode="&#x135;" horiz-adv-x="258" d="M0 0zM101 -46v528h56v-536q0 -82 -34 -119t-95 -37q-19 0 -36.5 2.5t-38.5 10.5l10 47q14 -6 27.5 -9t33.5 -3q38 0 57.5 25t19.5 91zM129 646l-83 -78h-62v2l120 110h52l120 -110v-2h-65z" />
<glyph unicode="&#x136;" horiz-adv-x="626" d="M115 0zM317 -255l-12 26q24 10 37 31.5t15 49.5q-26 -4 -38.5 9t-12.5 31q0 20 11 30t30 10q21 0 33.5 -14t12.5 -47q0 -43 -18.5 -78.5t-57.5 -47.5zM115 0v700h58v-418l358 418h69l-271 -314l290 -386h-69l-259 344l-118 -136v-208h-58z" />
<glyph unicode="&#x137;" horiz-adv-x="511" d="M99 0zM242 -255l-12 26q24 10 37 31.5t15 49.5q-26 -4 -38.5 9t-12.5 31q0 20 11 30t30 10q21 0 33.5 -14t12.5 -47q0 -43 -18.5 -78.5t-57.5 -47.5zM99 0v700h56v-503l263 285h68l-200 -214l209 -268h-67l-178 231l-95 -100v-131h-56z" />
<glyph unicode="&#x138;" horiz-adv-x="511" d="M99 0v482h56v-285l263 285h68l-200 -214l209 -268h-67l-178 231l-95 -100v-131h-56z" />
<glyph unicode="&#x139;" horiz-adv-x="619" d="M115 0zM270 893l-107 -107h-47v3l80 109h74v-5zM173 49h422v-49h-480v700h58v-651z" />
<glyph unicode="&#x13a;" horiz-adv-x="260" d="M96 0zM251 894l-107 -107h-47v3l80 109h74v-5zM200 0q-49 0 -76.5 23.5t-27.5 78.5v598h56v-591q0 -36 13 -49.5t48 -13.5h34v-46h-47z" />
<glyph unicode="&#x13b;" horiz-adv-x="619" d="M115 0zM324 -255l-12 26q24 10 37 31.5t15 49.5q-26 -4 -38.5 9t-12.5 31q0 20 11 30t30 10q21 0 33.5 -14t12.5 -47q0 -43 -18.5 -78.5t-57.5 -47.5zM173 49h422v-49h-480v700h58v-651z" />
<glyph unicode="&#x13c;" horiz-adv-x="260" d="M95 0zM199 0q-49 0 -76.5 23.5t-27.5 78.5v598h56v-591q0 -36 13 -49.5t48 -13.5h34v-46h-47zM144 -255l-12 26q24 10 37 31.5t15 49.5q-26 -4 -38.5 9t-12.5 31q0 20 11 30t30 10q21 0 33.5 -14t12.5 -47q0 -43 -18.5 -78.5t-57.5 -47.5z" />
<glyph unicode="&#x13d;" horiz-adv-x="619" d="M115 0zM433 500h-39l7 200h57zM173 49h422v-49h-480v700h58v-651z" />
<glyph unicode="&#x13e;" horiz-adv-x="298" d="M96 0zM294 500h-39l7 200h57zM200 0q-49 0 -76.5 23.5t-27.5 78.5v598h56v-591q0 -36 13 -49.5t48 -13.5h34v-46h-47z" />
<glyph unicode="&#x13f;" horiz-adv-x="619" d="M115 0zM173 49h422v-49h-480v700h58v-651zM391 355q0 20 12 31t33 11q43 0 43 -42t-43 -42q-21 0 -33 11t-12 31z" />
<glyph unicode="&#x140;" horiz-adv-x="329" d="M96 0zM200 0q-49 0 -76.5 23.5t-27.5 78.5v598h56v-591q0 -36 13 -49.5t48 -13.5h34v-46h-47zM243 301q0 20 12 31t33 11q43 0 43 -42t-43 -42q-21 0 -33 11t-12 31z" />
<glyph unicode="&#x141;" horiz-adv-x="639" d="M193 49h422v-49h-480v282l-110 -75v54l110 75v364h58v-327l175 118v-54l-175 -118v-270z" />
<glyph unicode="&#x142;" horiz-adv-x="286" d="M266 0h-47q-49 0 -76.5 23.5t-27.5 78.5v189l-103 -90v55l103 90v354h56v-310l114 101v-55l-114 -101v-226q0 -36 13 -49.5t48 -13.5h34v-46z" />
<glyph unicode="&#x143;" horiz-adv-x="774" d="M115 0zM513 893l-107 -107h-47v3l80 109h74v-5zM599 0l-430 616l2 -616h-56v700h60l429 -614l-1 614h56v-700h-60z" />
<glyph unicode="&#x144;" horiz-adv-x="616" d="M98 0zM446 675l-107 -107h-47v3l80 109h74v-5zM98 482h49l7 -109q26 62 77 91t117 29q177 0 177 -188v-305h-56v291q0 85 -36.5 119.5t-101.5 34.5q-81 0 -126.5 -52.5t-50.5 -142.5v-250h-56v482z" />
<glyph unicode="&#x145;" horiz-adv-x="774" d="M115 0zM356 -255l-12 26q24 10 37 31.5t15 49.5q-26 -4 -38.5 9t-12.5 31q0 20 11 30t30 10q21 0 33.5 -14t12.5 -47q0 -43 -18.5 -78.5t-57.5 -47.5zM599 0l-430 616l2 -616h-56v700h60l429 -614l-1 614h56v-700h-60z" />
<glyph unicode="&#x146;" horiz-adv-x="616" d="M98 0zM284 -255l-12 26q24 10 37 31.5t15 49.5q-26 -4 -38.5 9t-12.5 31q0 20 11 30t30 10q21 0 33.5 -14t12.5 -47q0 -43 -18.5 -78.5t-57.5 -47.5zM98 482h49l7 -109q26 62 77 91t117 29q177 0 177 -188v-305h-56v291q0 85 -36.5 119.5t-101.5 34.5q-81 0 -126.5 -52.5 t-50.5 -142.5v-250h-56v482z" />
<glyph unicode="&#x147;" horiz-adv-x="774" d="M115 0zM386 821l84 77h62v-2l-120 -110h-52l-120 110v2h64zM599 0l-430 616l2 -616h-56v700h60l429 -614l-1 614h56v-700h-60z" />
<glyph unicode="&#x148;" horiz-adv-x="616" d="M98 0zM319 603l84 77h62v-2l-120 -110h-52l-120 110v2h64zM98 482h49l7 -109q26 62 77 91t117 29q177 0 177 -188v-305h-56v291q0 85 -36.5 119.5t-101.5 34.5q-81 0 -126.5 -52.5t-50.5 -142.5v-250h-56v482z" />
<glyph unicode="&#x14a;" horiz-adv-x="774" d="M602 -46v42l-433 620l2 -616h-56v700h60l429 -614l-1 614h56v-754q0 -82 -34.5 -119t-94.5 -37q-19 0 -36.5 2.5t-37.5 10.5l9 47q14 -6 27.5 -9t32.5 -3q38 0 57.5 25t19.5 91z" />
<glyph unicode="&#x14b;" horiz-adv-x="616" d="M469 -46v337q0 85 -36.5 119.5t-101.5 34.5q-81 0 -126.5 -52.5t-50.5 -142.5v-250h-56v482h49l7 -110q26 62 75.5 91.5t118.5 29.5q177 0 177 -188v-359q0 -82 -34 -119t-95 -37q-19 0 -36 2.5t-38 10.5l9 47q14 -6 28 -9t34 -3q37 0 56.5 25t19.5 91z" />
<glyph unicode="&#x14c;" horiz-adv-x="769" d="M79 0zM505 859v-39h-239v39h239zM384 -11q-75 0 -132.5 20t-95.5 63.5t-57.5 112t-19.5 165.5t19.5 165.5t58 112t95.5 63.5t132 20q77 0 134.5 -20t96 -63.5t57.5 -112t19 -165.5t-20 -165.5t-58.5 -112t-96 -63.5t-132.5 -20zM384 663q-59 0 -105 -15t-77.5 -51.5 t-48 -96.5t-16.5 -150q0 -89 16.5 -148.5t48 -96.5t77.5 -52.5t105 -15.5t105.5 15.5t78.5 52t48.5 96.5t16.5 150q0 88 -16.5 148t-48.5 96.5t-78.5 52t-105.5 15.5z" />
<glyph unicode="&#x14d;" horiz-adv-x="581" d="M63 0zM410 641v-39h-239v39h239zM63 241q0 130 59 191t169 61q114 0 170.5 -60.5t56.5 -191.5q0 -129 -57.5 -190.5t-169.5 -61.5t-170 60.5t-58 191.5zM462 240q0 110 -41.5 158.5t-129.5 48.5q-89 0 -130.5 -48.5t-41.5 -158.5q0 -108 42 -156.5t130 -48.5t129.5 48.5 t41.5 156.5z" />
<glyph unicode="&#x14e;" horiz-adv-x="769" d="M79 0zM384 -11q-75 0 -132.5 20t-95.5 63.5t-57.5 112t-19.5 165.5t19.5 165.5t58 112t95.5 63.5t132 20q77 0 134.5 -20t96 -63.5t57.5 -112t19 -165.5t-20 -165.5t-58.5 -112t-96 -63.5t-132.5 -20zM384 663q-59 0 -105 -15t-77.5 -51.5t-48 -96.5t-16.5 -150 q0 -89 16.5 -148.5t48 -96.5t77.5 -52.5t105 -15.5t105.5 15.5t78.5 52t48.5 96.5t16.5 150q0 88 -16.5 148t-48.5 96.5t-78.5 52t-105.5 15.5zM469 897h44q0 -32 -9 -54t-25.5 -35t-41 -18.5t-54.5 -5.5t-54 5.5t-40.5 18.5t-25.5 35t-9 54h43q0 -44 22 -60t64 -16t64 16 t22 60z" />
<glyph unicode="&#x14f;" horiz-adv-x="581" d="M63 0zM63 241q0 130 59 191t169 61q114 0 170.5 -60.5t56.5 -191.5q0 -129 -57.5 -190.5t-169.5 -61.5t-170 60.5t-58 191.5zM462 240q0 110 -41.5 158.5t-129.5 48.5q-89 0 -130.5 -48.5t-41.5 -158.5q0 -108 42 -156.5t130 -48.5t129.5 48.5t41.5 156.5zM375 679h44 q0 -32 -9 -54t-25.5 -35t-41 -18.5t-54.5 -5.5t-54 5.5t-40.5 18.5t-25.5 35t-9 54h43q0 -44 22 -60t64 -16t64 16t22 60z" />
<glyph unicode="&#x150;" horiz-adv-x="769" d="M79 0zM565 893l-110 -107h-46v3l81 109h75v-5zM435 893l-93 -107h-46v3l71 109h68v-5zM384 -11q-75 0 -132.5 20t-95.5 63.5t-57.5 112t-19.5 165.5t19.5 165.5t58 112t95.5 63.5t132 20q77 0 134.5 -20t96 -63.5t57.5 -112t19 -165.5t-20 -165.5t-58.5 -112t-96 -63.5 t-132.5 -20zM384 663q-59 0 -105 -15t-77.5 -51.5t-48 -96.5t-16.5 -150q0 -89 16.5 -148.5t48 -96.5t77.5 -52.5t105 -15.5t105.5 15.5t78.5 52t48.5 96.5t16.5 150q0 88 -16.5 148t-48.5 96.5t-78.5 52t-105.5 15.5z" />
<glyph unicode="&#x151;" horiz-adv-x="581" d="M63 0zM469 675l-110 -107h-46v3l81 109h75v-5zM339 675l-93 -107h-46v3l71 109h68v-5zM63 241q0 130 59 191t169 61q114 0 170.5 -60.5t56.5 -191.5q0 -129 -57.5 -190.5t-169.5 -61.5t-170 60.5t-58 191.5zM462 240q0 110 -41.5 158.5t-129.5 48.5q-89 0 -130.5 -48.5 t-41.5 -158.5q0 -108 42 -156.5t130 -48.5t129.5 48.5t41.5 156.5z" />
<glyph unicode="&#x152;" horiz-adv-x="1103" d="M1065 0h-690q-146 0 -221.5 85t-75.5 271q0 92 19 157.5t56.5 107t93.5 60.5t129 19h679v-49h-429v-274h375v-50h-375v-278h439v-49zM377 49h192v602h-194q-56 0 -100.5 -15t-75 -50t-47 -91.5t-16.5 -139.5q0 -86 17 -144.5t48 -94.5t75.5 -51.5t100.5 -15.5z" />
<glyph unicode="&#x153;" horiz-adv-x="944" d="M63 241q0 130 59 191t169 61q76 0 125.5 -27.5t74.5 -85.5q52 113 195 113q103 0 153.5 -63.5t50.5 -172.5q0 -9 -0.5 -18t-0.5 -14h-371q3 -101 46 -145.5t124 -44.5q60 0 98 21t60 72l42 -22q-26 -61 -77.5 -89t-123.5 -28t-121.5 27.5t-75.5 85.5q-25 -57 -75 -85 t-124 -28q-112 0 -170 60.5t-58 191.5zM518 270h318q-4 92 -42.5 135t-110.5 43q-76 0 -118 -43t-47 -135zM291 35q88 0 129 48.5t41 156.5q0 110 -41 158.5t-129 48.5q-89 0 -130.5 -48.5t-41.5 -158.5q0 -108 42 -156.5t130 -48.5z" />
<glyph unicode="&#x154;" horiz-adv-x="664" d="M115 0zM489 893l-107 -107h-47v3l80 109h74v-5zM380 651h-207v-323h211q79 0 124 40.5t45 123.5q0 159 -173 159zM115 0v700h264q121 0 176 -52t55 -154q0 -79 -36 -132.5t-111 -73.5l157 -288h-63l-153 279q-5 -1 -16 -1h-215v-278h-58z" />
<glyph unicode="&#x155;" horiz-adv-x="354" d="M98 0zM327 675l-107 -107h-47v3l80 109h74v-5zM98 0v482h49l5 -120q24 64 73 96t112 29v-53q-84 5 -131 -44.5t-52 -146.5v-243h-56z" />
<glyph unicode="&#x156;" horiz-adv-x="664" d="M115 0zM312 -255l-12 26q24 10 37 31.5t15 49.5q-26 -4 -38.5 9t-12.5 31q0 20 11 30t30 10q21 0 33.5 -14t12.5 -47q0 -43 -18.5 -78.5t-57.5 -47.5zM380 651h-207v-323h211q79 0 124 40.5t45 123.5q0 159 -173 159zM115 0v700h264q121 0 176 -52t55 -154 q0 -79 -36 -132.5t-111 -73.5l157 -288h-63l-153 279q-5 -1 -16 -1h-215v-278h-58z" />
<glyph unicode="&#x157;" horiz-adv-x="354" d="M83 0zM95 -255l-12 26q24 10 37 31.5t15 49.5q-26 -4 -38.5 9t-12.5 31q0 20 11 30t30 10q21 0 33.5 -14t12.5 -47q0 -43 -18.5 -78.5t-57.5 -47.5zM98 0v482h49l5 -120q24 64 73 96t112 29v-53q-84 5 -131 -44.5t-52 -146.5v-243h-56z" />
<glyph unicode="&#x158;" horiz-adv-x="664" d="M115 0zM362 821l84 77h62v-2l-120 -110h-52l-120 110v2h64zM380 651h-207v-323h211q79 0 124 40.5t45 123.5q0 159 -173 159zM115 0v700h264q121 0 176 -52t55 -154q0 -79 -36 -132.5t-111 -73.5l157 -288h-63l-153 279q-5 -1 -16 -1h-215v-278h-58z" />
<glyph unicode="&#x159;" horiz-adv-x="354" d="M71 0zM217 603l84 77h62v-2l-120 -110h-52l-120 110v2h64zM98 0v482h49l5 -120q24 64 73 96t112 29v-53q-84 5 -131 -44.5t-52 -146.5v-243h-56z" />
<glyph unicode="&#x15a;" horiz-adv-x="616" d="M39 0zM425 893l-107 -107h-47v3l80 109h74v-5zM538 587l-47 -29q-30 54 -74.5 80.5t-118.5 26.5q-93 0 -135 -37.5t-42 -97.5q0 -52 35.5 -86t119.5 -54l63 -15q58 -14 99.5 -31.5t67 -40t37.5 -52t12 -67.5q0 -93 -64.5 -144t-186.5 -51q-91 0 -156 30t-109 102l46 30 q20 -31 41.5 -53t47.5 -35.5t57.5 -20t71.5 -6.5q103 0 149.5 38.5t46.5 105.5q0 26 -7.5 46.5t-27 37t-52 30.5t-81.5 26l-65 16q-100 25 -150.5 70t-50.5 122q0 82 59 132.5t175 50.5q92 0 147.5 -31t91.5 -93z" />
<glyph unicode="&#x15b;" horiz-adv-x="506" d="M47 0zM370 675l-107 -107h-47v3l80 109h74v-5zM252 32q71 0 101 25.5t30 63.5t-25 58t-89 34l-45 10q-79 17 -116 48.5t-37 83.5q0 30 10.5 55t32 43.5t55 29t78.5 10.5q59 0 99.5 -17.5t72.5 -58.5l-37 -34q-28 35 -59 50.5t-79 15.5q-62 0 -91 -24t-29 -64 q0 -32 22.5 -52.5t84.5 -34.5l51 -12q46 -10 76 -23.5t47 -30.5t24 -37t7 -43q0 -28 -9.5 -53.5t-31.5 -44.5t-57.5 -30t-87.5 -11q-68 0 -118 21t-85 72l41 31q29 -43 67.5 -62t96.5 -19z" />
<glyph unicode="&#x15c;" horiz-adv-x="616" d="M39 0zM299 864l-83 -78h-62v2l120 110h52l120 -110v-2h-65zM538 587l-47 -29q-30 54 -74.5 80.5t-118.5 26.5q-93 0 -135 -37.5t-42 -97.5q0 -52 35.5 -86t119.5 -54l63 -15q58 -14 99.5 -31.5t67 -40t37.5 -52t12 -67.5q0 -93 -64.5 -144t-186.5 -51q-91 0 -156 30 t-109 102l46 30q20 -31 41.5 -53t47.5 -35.5t57.5 -20t71.5 -6.5q103 0 149.5 38.5t46.5 105.5q0 26 -7.5 46.5t-27 37t-52 30.5t-81.5 26l-65 16q-100 25 -150.5 70t-50.5 122q0 82 59 132.5t175 50.5q92 0 147.5 -31t91.5 -93z" />
<glyph unicode="&#x15d;" horiz-adv-x="506" d="M47 0zM244 646l-83 -78h-62v2l120 110h52l120 -110v-2h-65zM252 32q71 0 101 25.5t30 63.5t-25 58t-89 34l-45 10q-79 17 -116 48.5t-37 83.5q0 30 10.5 55t32 43.5t55 29t78.5 10.5q59 0 99.5 -17.5t72.5 -58.5l-37 -34q-28 35 -59 50.5t-79 15.5q-62 0 -91 -24t-29 -64 q0 -32 22.5 -52.5t84.5 -34.5l51 -12q46 -10 76 -23.5t47 -30.5t24 -37t7 -43q0 -28 -9.5 -53.5t-31.5 -44.5t-57.5 -30t-87.5 -11q-68 0 -118 21t-85 72l41 31q29 -43 67.5 -62t96.5 -19z" />
<glyph unicode="&#x15e;" horiz-adv-x="616" d="M290 -228q-35 0 -61.5 12.5t-44.5 40.5l29 26q14 -23 30.5 -33.5t44.5 -10.5q31 0 48.5 12t17.5 35q0 24 -16.5 34.5t-40.5 10.5h-12q-5 0 -12 -2l-14 11l20 82q-81 4 -140 34.5t-100 96.5l46 30q20 -31 41.5 -53t47.5 -35.5t57.5 -20t71.5 -6.5q103 0 149.5 38.5 t46.5 105.5q0 26 -7.5 46.5t-27 37t-52 30.5t-81.5 26l-65 16q-100 25 -150.5 70t-50.5 122q0 82 59 132.5t175 50.5q92 0 147.5 -31t91.5 -93l-47 -29q-30 54 -74.5 80.5t-118.5 26.5q-93 0 -135 -37.5t-42 -97.5q0 -52 35.5 -86t119.5 -54l63 -15q58 -14 99.5 -31.5 t67 -40t37.5 -52t12 -67.5q0 -90 -61 -141t-176 -54l-14 -61h12q31 0 56 -17.5t25 -56.5q0 -41 -30 -61.5t-77 -20.5z" />
<glyph unicode="&#x15f;" horiz-adv-x="506" d="M239 -228q-35 0 -61.5 12.5t-44.5 40.5l29 26q14 -23 30.5 -33.5t44.5 -10.5q31 0 48.5 12t17.5 35q0 24 -16.5 34.5t-40.5 10.5h-12q-5 0 -12 -2l-14 11l20 82q-60 3 -104.5 24t-76.5 68l41 31q29 -43 67.5 -62t96.5 -19q71 0 101 25.5t30 63.5t-25 58t-89 34l-45 10 q-79 17 -116 48.5t-37 83.5q0 30 10.5 55t32 43.5t55 29t78.5 10.5q59 0 99.5 -17.5t72.5 -58.5l-37 -34q-28 35 -59 50.5t-79 15.5q-62 0 -91 -24t-29 -64q0 -32 22.5 -52.5t84.5 -34.5l51 -12q46 -10 76 -23.5t47 -30.5t24 -37t7 -43q0 -27 -8.5 -51.5t-28.5 -43 t-52.5 -30.5t-79.5 -14l-14 -61h12q31 0 56 -17.5t25 -56.5q0 -41 -30 -61.5t-77 -20.5z" />
<glyph unicode="&#x160;" horiz-adv-x="616" d="M39 0zM298 821l84 77h62v-2l-120 -110h-52l-120 110v2h64zM538 587l-47 -29q-30 54 -74.5 80.5t-118.5 26.5q-93 0 -135 -37.5t-42 -97.5q0 -52 35.5 -86t119.5 -54l63 -15q58 -14 99.5 -31.5t67 -40t37.5 -52t12 -67.5q0 -93 -64.5 -144t-186.5 -51q-91 0 -156 30 t-109 102l46 30q20 -31 41.5 -53t47.5 -35.5t57.5 -20t71.5 -6.5q103 0 149.5 38.5t46.5 105.5q0 26 -7.5 46.5t-27 37t-52 30.5t-81.5 26l-65 16q-100 25 -150.5 70t-50.5 122q0 82 59 132.5t175 50.5q92 0 147.5 -31t91.5 -93z" />
<glyph unicode="&#x161;" horiz-adv-x="506" d="M47 0zM243 603l84 77h62v-2l-120 -110h-52l-120 110v2h64zM252 32q71 0 101 25.5t30 63.5t-25 58t-89 34l-45 10q-79 17 -116 48.5t-37 83.5q0 30 10.5 55t32 43.5t55 29t78.5 10.5q59 0 99.5 -17.5t72.5 -58.5l-37 -34q-28 35 -59 50.5t-79 15.5q-62 0 -91 -24t-29 -64 q0 -32 22.5 -52.5t84.5 -34.5l51 -12q46 -10 76 -23.5t47 -30.5t24 -37t7 -43q0 -28 -9.5 -53.5t-31.5 -44.5t-57.5 -30t-87.5 -11q-68 0 -118 21t-85 72l41 31q29 -43 67.5 -62t96.5 -19z" />
<glyph unicode="&#x162;" horiz-adv-x="565" d="M13 0zM251 -255l-12 26q24 10 37 31.5t15 49.5q-26 -4 -38.5 9t-12.5 31q0 20 11 30t30 10q21 0 33.5 -14t12.5 -47q0 -43 -18.5 -78.5t-57.5 -47.5zM13 700h539v-49h-241v-651h-57v651h-241v49z" />
<glyph unicode="&#x163;" horiz-adv-x="349" d="M23 0zM221 -255l-12 26q24 10 37 31.5t15 49.5q-26 -4 -38.5 9t-12.5 31q0 20 11 30t30 10q21 0 33.5 -14t12.5 -47q0 -43 -18.5 -78.5t-57.5 -47.5zM23 482h91v146h55v-146h155v-44h-155v-273q0 -40 7 -64.5t19.5 -38.5t30.5 -19t40 -5q20 0 34 3t30 8l9 -46 q-26 -9 -43.5 -11.5t-38.5 -2.5q-66 0 -104.5 38.5t-38.5 127.5v283h-91v44z" />
<glyph unicode="&#x164;" horiz-adv-x="565" d="M13 0zM281 821l84 77h62v-2l-120 -110h-52l-120 110v2h64zM13 700h539v-49h-241v-651h-57v651h-241v49z" />
<glyph unicode="&#x165;" horiz-adv-x="355" d="M280 554h-39l7 181h57zM23 482h91v146h55v-146h155v-44h-155v-273q0 -40 7 -64.5t19.5 -38.5t30.5 -19t40 -5q20 0 34 3t30 8l9 -46q-26 -9 -43.5 -11.5t-38.5 -2.5q-66 0 -104.5 38.5t-38.5 127.5v283h-91v44z" />
<glyph unicode="&#x166;" horiz-adv-x="565" d="M14 700h538v-49h-240v-280h193v-40h-193v-331h-58v331h-194v40h194v280h-240v49z" />
<glyph unicode="&#x167;" horiz-adv-x="349" d="M324 482v-44h-155v-113h155v-39h-155v-121q0 -40 7 -64.5t19.5 -38.5t30.5 -19t40 -5q20 0 34 3t30 8l9 -46q-26 -9 -43.5 -11.5t-38.5 -2.5q-66 0 -104.5 38.5t-38.5 127.5v131h-91v39h91v113h-91v44h91v146h55v-146h155z" />
<glyph unicode="&#x168;" horiz-adv-x="742" d="M95 0zM590 265v435h57v-433q0 -141 -73.5 -209.5t-202.5 -68.5q-130 0 -203 68.5t-73 209.5v433h58v-435q0 -62 15.5 -105t44 -70.5t68.5 -40t90 -12.5q49 0 89.5 12.5t69.5 40t44.5 70.5t15.5 105zM467 887h44q1 -26 -6 -43t-18 -26.5t-25 -13.5t-27 -4q-21 0 -37.5 7.5 t-30.5 17t-27.5 17t-29.5 7.5t-25.5 -11t-9.5 -34h-44q-1 25 5.5 42t17.5 27t24.5 14t26.5 4q22 0 38.5 -7.5t31 -17t28 -17t29.5 -7.5q35 0 35 45z" />
<glyph unicode="&#x169;" horiz-adv-x="614" d="M91 0zM467 0l-5 106q-26 -60 -75.5 -88.5t-113.5 -28.5q-91 0 -136.5 50t-45.5 147v296h56v-287q0 -85 36.5 -122t102.5 -37q82 0 125.5 50t48.5 137v259h56v-482h-49zM398 669h44q1 -26 -6 -43t-18 -26.5t-25 -13.5t-27 -4q-21 0 -37.5 7.5t-30.5 17t-27.5 17t-29.5 7.5 t-25.5 -11t-9.5 -34h-44q-1 25 5.5 42t17.5 27t24.5 14t26.5 4q22 0 38.5 -7.5t31 -17t28 -17t29.5 -7.5q35 0 35 45z" />
<glyph unicode="&#x16a;" horiz-adv-x="742" d="M95 0zM590 265v435h57v-433q0 -141 -73.5 -209.5t-202.5 -68.5q-130 0 -203 68.5t-73 209.5v433h58v-435q0 -62 15.5 -105t44 -70.5t68.5 -40t90 -12.5q49 0 89.5 12.5t69.5 40t44.5 70.5t15.5 105zM492 859v-39h-239v39h239z" />
<glyph unicode="&#x16b;" horiz-adv-x="614" d="M91 0zM467 0l-5 106q-26 -60 -75.5 -88.5t-113.5 -28.5q-91 0 -136.5 50t-45.5 147v296h56v-287q0 -85 36.5 -122t102.5 -37q82 0 125.5 50t48.5 137v259h56v-482h-49zM423 641v-39h-239v39h239z" />
<glyph unicode="&#x16c;" horiz-adv-x="742" d="M95 0zM590 265v435h57v-433q0 -141 -73.5 -209.5t-202.5 -68.5q-130 0 -203 68.5t-73 209.5v433h58v-435q0 -62 15.5 -105t44 -70.5t68.5 -40t90 -12.5q49 0 89.5 12.5t69.5 40t44.5 70.5t15.5 105zM457 897h44q0 -32 -9 -54t-25.5 -35t-41 -18.5t-54.5 -5.5t-54 5.5 t-40.5 18.5t-25.5 35t-9 54h43q0 -44 22 -60t64 -16t64 16t22 60z" />
<glyph unicode="&#x16d;" horiz-adv-x="614" d="M91 0zM467 0l-5 106q-26 -60 -75.5 -88.5t-113.5 -28.5q-91 0 -136.5 50t-45.5 147v296h56v-287q0 -85 36.5 -122t102.5 -37q82 0 125.5 50t48.5 137v259h56v-482h-49zM388 679h44q0 -32 -9 -54t-25.5 -35t-41 -18.5t-54.5 -5.5t-54 5.5t-40.5 18.5t-25.5 35t-9 54h43 q0 -44 22 -60t64 -16t64 16t22 60z" />
<glyph unicode="&#x16e;" horiz-adv-x="742" d="M95 0zM283 852q0 41 25.5 65.5t65.5 24.5q38 0 63 -24.5t25 -65.5q0 -40 -25.5 -64.5t-64.5 -24.5q-38 0 -63.5 24.5t-25.5 64.5zM315 852q0 -26 16.5 -43.5t40.5 -17.5q25 0 41.5 17.5t16.5 43.5q0 27 -16.5 44t-39.5 17q-26 0 -42.5 -17t-16.5 -44zM590 265v435h57 v-433q0 -141 -73.5 -209.5t-202.5 -68.5q-130 0 -203 68.5t-73 209.5v433h58v-435q0 -62 15.5 -105t44 -70.5t68.5 -40t90 -12.5q49 0 89.5 12.5t69.5 40t44.5 70.5t15.5 105z" />
<glyph unicode="&#x16f;" horiz-adv-x="614" d="M91 0zM214 634q0 41 25.5 65.5t65.5 24.5q38 0 63 -24.5t25 -65.5q0 -40 -25.5 -64.5t-64.5 -24.5q-38 0 -63.5 24.5t-25.5 64.5zM246 634q0 -26 16.5 -43.5t40.5 -17.5q25 0 41.5 17.5t16.5 43.5q0 27 -16.5 44t-39.5 17q-26 0 -42.5 -17t-16.5 -44zM467 0l-5 106 q-26 -60 -75.5 -88.5t-113.5 -28.5q-91 0 -136.5 50t-45.5 147v296h56v-287q0 -85 36.5 -122t102.5 -37q82 0 125.5 50t48.5 137v259h56v-482h-49z" />
<glyph unicode="&#x170;" horiz-adv-x="742" d="M95 0zM590 265v435h57v-433q0 -141 -73.5 -209.5t-202.5 -68.5q-130 0 -203 68.5t-73 209.5v433h58v-435q0 -62 15.5 -105t44 -70.5t68.5 -40t90 -12.5q49 0 89.5 12.5t69.5 40t44.5 70.5t15.5 105zM552 893l-110 -107h-46v3l81 109h75v-5zM422 893l-93 -107h-46v3 l71 109h68v-5z" />
<glyph unicode="&#x171;" horiz-adv-x="614" d="M91 0zM467 0l-5 106q-26 -60 -75.5 -88.5t-113.5 -28.5q-91 0 -136.5 50t-45.5 147v296h56v-287q0 -85 36.5 -122t102.5 -37q82 0 125.5 50t48.5 137v259h56v-482h-49zM478 675l-110 -107h-46v3l81 109h75v-5zM348 675l-93 -107h-46v3l71 109h68v-5z" />
<glyph unicode="&#x172;" horiz-adv-x="743" d="M352 -100q0 31 11 53.5t29 38.5q-6 -1 -13.5 -1.5t-13.5 -0.5q-127 2 -198.5 69.5t-71.5 207.5v433h58v-435q0 -62 15.5 -105t44 -70.5t69 -40t90.5 -12.5q49 0 89.5 12.5t69 40t44 70.5t15.5 105v435h58v-433q0 -112 -47 -176.5t-132 -89.5q-32 -10 -53.5 -35t-21.5 -60 q0 -39 18 -54.5t47 -15.5q37 0 65 18l10 -36q-35 -22 -79 -22q-20 0 -39 5t-33 17t-22.5 32t-8.5 50z" />
<glyph unicode="&#x173;" horiz-adv-x="614" d="M476 -204q-20 0 -38.5 4.5t-32.5 15t-23 28.5t-9 44q0 25 8 45.5t21 36.5t29.5 27.5t34.5 17.5l-4 92q-25 -60 -75 -89t-114 -29q-91 0 -136.5 50t-45.5 147v296h56v-287q0 -85 36.5 -122t102.5 -37q82 0 125.5 50t48.5 137v259h56v-482q-42 -5 -71 -35t-29 -70 q0 -33 18 -46t47 -13q17 0 33 4t32 14l10 -36q-35 -22 -80 -22z" />
<glyph unicode="&#x174;" horiz-adv-x="906" d="M12 0zM453 864l-83 -78h-62v2l120 110h52l120 -110v-2h-65zM424 695h57l173 -612l184 617h56l-213 -700h-57l-173 612l-171 -612h-58l-210 700h59l180 -620z" />
<glyph unicode="&#x175;" horiz-adv-x="712" d="M10 0zM357 646l-83 -78h-62v2l120 110h52l120 -110v-2h-65zM329 475h58l128 -412l133 419h55l-159 -482h-61l-127 409l-126 -409h-60l-160 482h56l135 -418z" />
<glyph unicode="&#x176;" horiz-adv-x="599" d="M16 0zM271 283l-255 417h63l221 -367l222 367h61l-254 -417v-283h-58v283zM301 864l-83 -78h-62v2l120 110h52l120 -110v-2h-65z" />
<glyph unicode="&#x177;" horiz-adv-x="482" d="M0 0zM193 -56l18 51l-202 487h59l173 -429l173 429h58l-232 -557q-17 -41 -36.5 -67.5t-41.5 -41.5t-46 -20.5t-50 -5.5q-19 0 -36.5 2.5t-38.5 10.5l9 47q17 -6 31.5 -9t34.5 -3q16 0 32 3.5t32 14.5t32 32t31 56zM241 646l-83 -78h-62v2l120 110h52l120 -110v-2h-65z " />
<glyph unicode="&#x178;" horiz-adv-x="599" d="M16 0zM271 283l-255 417h63l221 -367l222 367h61l-254 -417v-283h-58v283zM332 840q0 20 12 31t32 11t32 -11t12 -31t-12 -31t-32 -11t-32 11t-12 31zM180 840q0 20 11.5 31t31.5 11t32 -11t12 -31t-12 -31t-32 -11t-31.5 11t-11.5 31z" />
<glyph unicode="&#x179;" horiz-adv-x="571" d="M26 0zM415 893l-107 -107h-47v3l80 109h74v-5zM26 0v44l448 607h-425v49h493v-44l-449 -607h457v-49h-524z" />
<glyph unicode="&#x17a;" horiz-adv-x="478" d="M40 0zM364 675l-107 -107h-47v3l80 109h74v-5zM40 0v42l322 395h-315v45h381v-43l-323 -394h330v-45h-395z" />
<glyph unicode="&#x17b;" horiz-adv-x="571" d="M26 0zM26 0v44l448 607h-425v49h493v-44l-449 -607h457v-49h-524zM246 840q0 20 12 31t33 11q43 0 43 -42t-43 -42q-21 0 -33 11t-12 31z" />
<glyph unicode="&#x17c;" horiz-adv-x="478" d="M40 0zM40 0v42l322 395h-315v45h381v-43l-323 -394h330v-45h-395zM195 622q0 20 12 31t33 11q43 0 43 -42t-43 -42q-21 0 -33 11t-12 31z" />
<glyph unicode="&#x17d;" horiz-adv-x="571" d="M26 0zM287 821l84 77h62v-2l-120 -110h-52l-120 110v2h64zM26 0v44l448 607h-425v49h493v-44l-449 -607h457v-49h-524z" />
<glyph unicode="&#x17e;" horiz-adv-x="478" d="M40 0zM237 603l84 77h62v-2l-120 -110h-52l-120 110v2h64zM40 0v42l322 395h-315v45h381v-43l-323 -394h330v-45h-395z" />
<glyph unicode="&#x192;" horiz-adv-x="380" d="M72 -48l56 365h-91l7 44h91l17 101q13 83 54 119.5t105 36.5q20 0 41 -4t38 -12l-17 -47q-14 7 -28 10t-34 3q-42 0 -68 -23.5t-37 -87.5l-16 -96h153l-7 -44h-152l-58 -371q-13 -82 -51 -119t-98 -37q-19 0 -38 2.5t-36 10.5l17 47q14 -6 26 -9t32 -3q36 0 59.5 24.5 t34.5 89.5z" />
<glyph unicode="&#x218;" horiz-adv-x="616" d="M39 0zM270 -255l-12 26q24 10 37 31.5t15 49.5q-26 -4 -38.5 9t-12.5 31q0 20 11 30t30 10q21 0 33.5 -14t12.5 -47q0 -43 -18.5 -78.5t-57.5 -47.5zM538 587l-47 -29q-30 54 -74.5 80.5t-118.5 26.5q-93 0 -135 -37.5t-42 -97.5q0 -52 35.5 -86t119.5 -54l63 -15 q58 -14 99.5 -31.5t67 -40t37.5 -52t12 -67.5q0 -93 -64.5 -144t-186.5 -51q-91 0 -156 30t-109 102l46 30q20 -31 41.5 -53t47.5 -35.5t57.5 -20t71.5 -6.5q103 0 149.5 38.5t46.5 105.5q0 26 -7.5 46.5t-27 37t-52 30.5t-81.5 26l-65 16q-100 25 -150.5 70t-50.5 122 q0 82 59 132.5t175 50.5q92 0 147.5 -31t91.5 -93z" />
<glyph unicode="&#x219;" horiz-adv-x="506" d="M47 0zM223 -255l-12 26q24 10 37 31.5t15 49.5q-26 -4 -38.5 9t-12.5 31q0 20 11 30t30 10q21 0 33.5 -14t12.5 -47q0 -43 -18.5 -78.5t-57.5 -47.5zM252 32q71 0 101 25.5t30 63.5t-25 58t-89 34l-45 10q-79 17 -116 48.5t-37 83.5q0 30 10.5 55t32 43.5t55 29 t78.5 10.5q59 0 99.5 -17.5t72.5 -58.5l-37 -34q-28 35 -59 50.5t-79 15.5q-62 0 -91 -24t-29 -64q0 -32 22.5 -52.5t84.5 -34.5l51 -12q46 -10 76 -23.5t47 -30.5t24 -37t7 -43q0 -28 -9.5 -53.5t-31.5 -44.5t-57.5 -30t-87.5 -11q-68 0 -118 21t-85 72l41 31 q29 -43 67.5 -62t96.5 -19z" />
<glyph unicode="&#x237;" horiz-adv-x="258" d="M101 -46v528h56v-536q0 -82 -34 -119t-95 -37q-19 0 -36.5 2.5t-38.5 10.5l10 47q14 -6 27.5 -9t33.5 -3q38 0 57.5 25t19.5 91z" />
<glyph unicode="&#x2c6;" horiz-adv-x="600" d="M296 646l-83 -78h-62v2l120 110h52l120 -110v-2h-65z" />
<glyph unicode="&#x2c7;" horiz-adv-x="600" d="M297 603l84 77h62v-2l-120 -110h-52l-120 110v2h64z" />
<glyph unicode="&#x2d8;" horiz-adv-x="600" d="M385 679h44q0 -32 -9 -54t-25.5 -35t-41 -18.5t-54.5 -5.5t-54 5.5t-40.5 18.5t-25.5 35t-9 54h43q0 -44 22 -60t64 -16t64 16t22 60z" />
<glyph unicode="&#x2d9;" horiz-adv-x="600" d="M258 622q0 20 12 31t33 11q43 0 43 -42t-43 -42q-21 0 -33 11t-12 31z" />
<glyph unicode="&#x2da;" horiz-adv-x="600" d="M213 634q0 41 25.5 65.5t65.5 24.5q38 0 63 -24.5t25 -65.5q0 -40 -25.5 -64.5t-64.5 -24.5q-38 0 -63.5 24.5t-25.5 64.5zM245 634q0 -26 16.5 -43.5t40.5 -17.5q25 0 41.5 17.5t16.5 43.5q0 27 -16.5 44t-39.5 17q-26 0 -42.5 -17t-16.5 -44z" />
<glyph unicode="&#x2db;" horiz-adv-x="600" d="M308 -204q-20 0 -39 4.5t-33 15t-22.5 28.5t-8.5 44q0 33 13 58t33 42.5t45 27t48 10.5l2 -26q-42 -5 -70 -35t-28 -70q0 -33 17.5 -46t46.5 -13q37 0 65 18l10 -36q-35 -22 -79 -22z" />
<glyph unicode="&#x2dc;" horiz-adv-x="600" d="M403 669h44q1 -26 -6 -43t-18 -26.5t-25 -13.5t-27 -4q-21 0 -37.5 7.5t-30.5 17t-27.5 17t-29.5 7.5t-25.5 -11t-9.5 -34h-44q-1 25 5.5 42t17.5 27t24.5 14t26.5 4q22 0 38.5 -7.5t31 -17t28 -17t29.5 -7.5q35 0 35 45z" />
<glyph unicode="&#x2dd;" horiz-adv-x="600" d="M488 675l-110 -107h-46v3l81 109h75v-5zM358 675l-93 -107h-46v3l71 109h68v-5z" />
<glyph unicode="&#x1e80;" horiz-adv-x="906" d="M12 0zM424 695h57l173 -612l184 617h56l-213 -700h-57l-173 612l-171 -612h-58l-210 700h59l180 -620zM434 787l-107 107v5h74l81 -109v-3h-48z" />
<glyph unicode="&#x1e81;" horiz-adv-x="712" d="M10 0zM329 475h58l128 -412l133 419h55l-159 -482h-61l-127 409l-126 -409h-60l-160 482h56l135 -418zM338 569l-107 107v5h74l81 -109v-3h-48z" />
<glyph unicode="&#x1e82;" horiz-adv-x="906" d="M12 0zM579 893l-107 -107h-47v3l80 109h74v-5zM424 695h57l173 -612l184 617h56l-213 -700h-57l-173 612l-171 -612h-58l-210 700h59l180 -620z" />
<glyph unicode="&#x1e83;" horiz-adv-x="712" d="M10 0zM483 675l-107 -107h-47v3l80 109h74v-5zM329 475h58l128 -412l133 419h55l-159 -482h-61l-127 409l-126 -409h-60l-160 482h56l135 -418z" />
<glyph unicode="&#x1e84;" horiz-adv-x="906" d="M12 0zM485 840q0 20 12 31t32 11t32 -11t12 -31t-12 -31t-32 -11t-32 11t-12 31zM333 840q0 20 11.5 31t31.5 11t32 -11t12 -31t-12 -31t-32 -11t-31.5 11t-11.5 31zM424 695h57l173 -612l184 617h56l-213 -700h-57l-173 612l-171 -612h-58l-210 700h59l180 -620z" />
<glyph unicode="&#x1e85;" horiz-adv-x="712" d="M10 0zM389 622q0 20 12 31t32 11t32 -11t12 -31t-12 -31t-32 -11t-32 11t-12 31zM237 622q0 20 11.5 31t31.5 11t32 -11t12 -31t-12 -31t-32 -11t-31.5 11t-11.5 31zM329 475h58l128 -412l133 419h55l-159 -482h-61l-127 409l-126 -409h-60l-160 482h56l135 -418z" />
<glyph unicode="&#x2000;" horiz-adv-x="471" />
<glyph unicode="&#x2001;" horiz-adv-x="942" />
<glyph unicode="&#x2002;" horiz-adv-x="500" />
<glyph unicode="&#x2003;" horiz-adv-x="1000" />
<glyph unicode="&#x2004;" horiz-adv-x="333" />
<glyph unicode="&#x2005;" horiz-adv-x="250" />
<glyph unicode="&#x2006;" horiz-adv-x="167" />
<glyph unicode="&#x2007;" horiz-adv-x="625" />
<glyph unicode="&#x2008;" horiz-adv-x="213" />
<glyph unicode="&#x2009;" horiz-adv-x="200" />
<glyph unicode="&#x200a;" horiz-adv-x="100" />
<glyph unicode="&#x200b;" horiz-adv-x="0" />
<glyph unicode="&#x2010;" horiz-adv-x="414" d="M365 273v-46h-315v46h315z" />
<glyph unicode="&#x2011;" horiz-adv-x="414" d="M365 273v-46h-315v46h315z" />
<glyph unicode="&#x2012;" horiz-adv-x="588" d="M538 273v-46h-488v46h488z" />
<glyph unicode="&#x2013;" horiz-adv-x="588" d="M539 273v-46h-489v46h489z" />
<glyph unicode="&#x2014;" horiz-adv-x="788" d="M739 273v-46h-689v46h689z" />
<glyph unicode="&#x2015;" horiz-adv-x="1086" d="M1038 273v-46h-988v46h988z" />
<glyph unicode="&#x2018;" horiz-adv-x="211" d="M139 727l12 -26q-24 -11 -37.5 -34.5t-15.5 -52.5q25 6 38 -7t13 -33t-11.5 -30.5t-30.5 -10.5q-21 0 -33 13.5t-12 48.5q0 45 18.5 81.5t58.5 50.5z" />
<glyph unicode="&#x2019;" horiz-adv-x="211" d="M62 525zM74 525l-12 26q24 11 37.5 34.5t15.5 52.5q-25 -6 -38 7t-13 33t11.5 30.5t30.5 10.5q21 0 33 -13.5t12 -48.5q0 -45 -18.5 -81.5t-58.5 -50.5z" />
<glyph unicode="&#x201a;" horiz-adv-x="210" d="M73 -114l-12 26q24 11 37.5 34t15.5 52q-25 -6 -38 7t-13 33t11.5 30t30.5 10q20 0 32 -13.5t12 -47.5q0 -44 -18.5 -80.5t-57.5 -50.5z" />
<glyph unicode="&#x201c;" horiz-adv-x="337" d="M139 727l12 -26q-24 -11 -37.5 -34.5t-15.5 -52.5q25 6 38 -7t13 -33t-11.5 -30.5t-30.5 -10.5q-21 0 -33 13.5t-12 48.5q0 45 18.5 81.5t58.5 50.5zM264 727l12 -26q-24 -11 -37.5 -34.5t-15.5 -52.5q25 6 38 -7t13 -33t-11.5 -30.5t-30.5 -10.5q-21 0 -33 13.5 t-12 48.5q0 45 18.5 81.5t58.5 50.5z" />
<glyph unicode="&#x201d;" horiz-adv-x="337" d="M60 525zM72 525l-12 26q24 11 37.5 34.5t15.5 52.5q-25 -6 -38 7t-13 33t11.5 30.5t30.5 10.5q21 0 33 -13.5t12 -48.5q0 -45 -18.5 -81.5t-58.5 -50.5zM199 525l-12 26q24 11 37.5 34.5t15.5 52.5q-25 -6 -38 7t-13 33t11.5 30.5t30.5 10.5q21 0 33 -13.5t12 -48.5 q0 -45 -18.5 -81.5t-58.5 -50.5z" />
<glyph unicode="&#x201e;" horiz-adv-x="336" d="M72 -114l-12 26q24 11 37.5 34t15.5 52q-25 -6 -38 7t-13 33t11.5 30t30.5 10q20 0 32 -13.5t12 -47.5q0 -44 -18.5 -80.5t-57.5 -50.5zM198 -114l-12 26q24 11 37.5 34t15.5 52q-25 -6 -38 7t-13 33t11.5 30t30.5 10q20 0 32 -13.5t12 -47.5q0 -44 -18.5 -80.5 t-57.5 -50.5z" />
<glyph unicode="&#x2020;" horiz-adv-x="304" d="M245 552h-71q0 -58 -0.5 -117.5t-0.5 -117.5h-43v235h-72v38h71l-2 120h50l-2 -120h70v-38z" />
<glyph unicode="&#x2021;" horiz-adv-x="304" d="M57 470h72v88h-72v40h71l-2 112h52l-3 -112h71v-40h-72v-88h72v-40h-71l3 -116h-52l2 116h-71v40z" />
<glyph unicode="&#x2022;" horiz-adv-x="430" d="M73 327q0 64 38 102.5t104 38.5q67 0 105 -38.5t38 -102.5q0 -65 -38 -103t-105 -38q-66 0 -104 38t-38 103z" />
<glyph unicode="&#x2026;" horiz-adv-x="638" d="M489 37q0 20 11.5 31t31.5 11t32 -11t12 -31t-12 -31.5t-32 -11.5t-31.5 11.5t-11.5 31.5zM275 37q0 20 12 31t32 11t32 -11t12 -31t-12 -31.5t-32 -11.5t-32 11.5t-12 31.5zM63 37q0 20 12 31t32 11t31.5 -11t11.5 -31t-11.5 -31.5t-31.5 -11.5t-32 11.5t-12 31.5z" />
<glyph unicode="&#x202f;" horiz-adv-x="188" />
<glyph unicode="&#x2030;" horiz-adv-x="1441" d="M46 0zM646 204q0 113 40.5 162.5t123.5 49.5q82 0 122 -49.5t40 -162.5q0 -112 -40.5 -162t-121.5 -50q-83 0 -123.5 49.5t-40.5 162.5zM924 204q0 48 -7.5 81t-22.5 53.5t-36 29t-48 8.5q-28 0 -49.5 -8.5t-36.5 -28.5t-22.5 -53t-7.5 -82t7.5 -82t22.5 -53t36.5 -28.5 t48.5 -8.5t48.5 8.5t36.5 28.5t22.5 53t7.5 82zM46 497q0 113 40.5 162.5t123.5 49.5q82 0 122 -49.5t40 -162.5q0 -112 -40.5 -162t-121.5 -50q-83 0 -123.5 49.5t-40.5 162.5zM324 497q0 48 -7.5 81t-22.5 53.5t-36 29t-48 8.5q-28 0 -49.5 -8.5t-36.5 -28.5t-22.5 -53 t-7.5 -82t7.5 -82t22.5 -53t36.5 -28.5t48.5 -8.5t48.5 8.5t36.5 28.5t22.5 53t7.5 82zM1065 204q0 113 40.5 162.5t123.5 49.5q82 0 122 -49.5t40 -162.5q0 -112 -40.5 -162t-121.5 -50q-83 0 -123.5 49.5t-40.5 162.5zM1343 204q0 48 -7.5 81t-22.5 53.5t-36 29t-48 8.5 q-28 0 -49.5 -8.5t-36.5 -28.5t-22.5 -53t-7.5 -82t7.5 -82t22.5 -53t36.5 -28.5t48.5 -8.5t48.5 8.5t36.5 28.5t22.5 53t7.5 82zM700 701l-334 -701h-54l336 701h52z" />
<glyph unicode="&#x2039;" horiz-adv-x="408" d="M252 0l-191 240v3l191 239h64l-192 -240l194 -242h-66z" />
<glyph unicode="&#x203a;" horiz-adv-x="408" d="M156 482l191 -240v-3l-191 -239h-64l192 240l-194 242h66z" />
<glyph unicode="&#x2044;" horiz-adv-x="492" d="M442 701l-334 -701h-54l336 701h52z" />
<glyph unicode="&#x205f;" horiz-adv-x="235" />
<glyph unicode="&#x2070;" horiz-adv-x="421" d="M46 287zM46 499q0 113 40.5 162.5t123.5 49.5q82 0 122 -49.5t40 -162.5q0 -112 -40.5 -162t-121.5 -50q-83 0 -123.5 49.5t-40.5 162.5zM324 499q0 48 -7.5 81t-22.5 53.5t-36 29t-48 8.5q-28 0 -49.5 -8.5t-36.5 -28.5t-22.5 -53t-7.5 -82t7.5 -82t22.5 -53t36.5 -28.5 t48.5 -8.5t48.5 8.5t36.5 28.5t22.5 53t7.5 82z" />
<glyph unicode="&#x2074;" horiz-adv-x="387" d="M29 295zM29 399v35l139 268h48l-137 -261h180v187h44v-187h64v-42h-64v-104h-44v104h-230z" />
<glyph unicode="&#x2075;" horiz-adv-x="358" d="M33 287zM108 662l-15 -140q23 16 47.5 22t51.5 6q30 0 55 -7t43.5 -22t29 -39t10.5 -57q0 -62 -39 -100t-114 -38q-48 0 -85 16t-59 53l33 26q17 -27 43.5 -41t66.5 -14q53 0 79.5 27t26.5 70q0 90 -103 90q-31 0 -55.5 -9t-46.5 -26l-28 13l21 210h239v-40h-201z" />
<glyph unicode="&#x2076;" horiz-adv-x="395" d="M46 287zM212 287q-37 0 -67.5 11.5t-52.5 37t-34 65t-12 95.5q0 112 44 163.5t124 51.5q45 0 78.5 -16t51.5 -50l-33 -25q-14 27 -39 39t-58 12q-27 0 -49.5 -9t-38.5 -30t-24.5 -54.5t-8.5 -82.5v-15q0 -10 1 -18q9 39 41.5 63t82.5 24q63 0 99 -32t36 -95 q0 -61 -35.5 -98t-105.5 -37zM107 417q0 -18 6.5 -34t19 -29t31.5 -20.5t44 -7.5q45 0 72 23.5t27 71.5q0 42 -25.5 66t-74.5 24q-47 0 -73.5 -25t-26.5 -69z" />
<glyph unicode="&#x2077;" horiz-adv-x="305" d="M26 295zM148 295h-50q0 51 10 102.5t29 99.5t46.5 90t61.5 73l-219 -1v43h275v-38q-35 -24 -63 -63.5t-48 -88t-31 -104.5t-11 -113z" />
<glyph unicode="&#x2078;" horiz-adv-x="388" d="M44 287zM193 287q-72 0 -110.5 31t-38.5 88q0 43 23.5 69t61.5 35q-32 11 -50 34.5t-18 58.5q0 108 132 108t132 -107q0 -36 -18 -59.5t-50 -34.5q38 -9 61 -35.5t23 -68.5q0 -57 -38 -88t-110 -31zM282 602q0 70 -89 70t-89 -70q0 -34 22 -53.5t67 -19.5q44 0 66.5 19.5 t22.5 53.5zM294 407q0 38 -26.5 60t-74.5 22t-74.5 -22t-26.5 -60t25.5 -60.5t75.5 -22.5t75.5 22.5t25.5 60.5z" />
<glyph unicode="&#x2079;" horiz-adv-x="395" d="M37 287zM176 287q-45 0 -79 15.5t-52 47.5l33 26q15 -26 40.5 -37.5t57.5 -11.5q62 0 92 44.5t29 130.5v13q0 9 -1 16q-11 -38 -42.5 -61.5t-81.5 -23.5q-62 0 -98.5 33t-36.5 96q0 62 36 99t107 37q36 0 66.5 -11.5t52.5 -37t34 -65t12 -95.5q0 -112 -44.5 -163.5 t-124.5 -51.5zM283 579q0 37 -25.5 64.5t-76.5 27.5q-44 0 -70.5 -24t-26.5 -70q0 -44 24.5 -68.5t73.5 -24.5q47 0 74 25t27 70z" />
<glyph unicode="&#x207a;" horiz-adv-x="309" d="M38 360zM174 360h-38v98h-98v35h98v100h38v-100h98v-35h-98v-98z" />
<glyph unicode="&#x207b;" horiz-adv-x="309" d="M38 458zM272 493v-35h-234v35h234z" />
<glyph unicode="&#x207c;" horiz-adv-x="309" d="M38 420zM272 532v-36h-234v36h234zM272 456v-36h-234v36h234z" />
<glyph unicode="&#x207d;" horiz-adv-x="215" d="M36 241zM180 280l-4 -39q-140 18 -140 238q0 108 35 168t105 68l4 -38q-50 -8 -76.5 -54.5t-26.5 -143.5q0 -98 26.5 -144.5t76.5 -54.5z" />
<glyph unicode="&#x207e;" horiz-adv-x="215" d="M34 241zM38 241l-4 39q50 8 76.5 54.5t26.5 144.5q0 97 -26.5 143.5t-76.5 54.5l5 38q69 -8 104.5 -68t35.5 -168q0 -220 -141 -238z" />
<glyph unicode="&#x2080;" horiz-adv-x="421" d="M46 204q0 113 40.5 162.5t123.5 49.5q82 0 122 -49.5t40 -162.5q0 -112 -40.5 -162t-121.5 -50q-83 0 -123.5 49.5t-40.5 162.5zM324 204q0 48 -7.5 81t-22.5 53.5t-36 29t-48 8.5q-28 0 -49.5 -8.5t-36.5 -28.5t-22.5 -53t-7.5 -82t7.5 -82t22.5 -53t36.5 -28.5 t48.5 -8.5t48.5 8.5t36.5 28.5t22.5 53t7.5 82z" />
<glyph unicode="&#x2081;" horiz-adv-x="203" d="M135 0h-48v349l-56 -41l-18 38l91 62h31v-408z" />
<glyph unicode="&#x2082;" horiz-adv-x="359" d="M31 0v40l150 142q22 21 37 38t24 31.5t13 27t4 25.5q0 37 -22 54t-64 17q-43 0 -67.5 -16.5t-42.5 -51.5l-33 25q23 43 57.5 63.5t89.5 20.5q63 0 96.5 -27.5t33.5 -78.5q0 -36 -21 -70.5t-72 -82.5l-117 -115l230 2v-44h-296z" />
<glyph unicode="&#x2083;" horiz-adv-x="367" d="M175 -8q-53 0 -88 17t-58 54l34 26q19 -30 44.5 -43.5t63.5 -13.5q54 0 79.5 22t25.5 62q0 32 -19.5 54t-67.5 22h-58v40h58q33 0 54 18.5t21 53.5q0 72 -90 72q-38 0 -61 -14t-42 -46l-33 23q22 40 55 58.5t85 18.5q65 0 99.5 -28t34.5 -80q0 -33 -16.5 -57.5 t-45.5 -36.5q40 -11 56.5 -37t16.5 -60q0 -57 -36.5 -91t-111.5 -34z" />
<glyph unicode="&#x2084;" horiz-adv-x="387" d="M29 104v35l139 268h48l-137 -261h180v187h44v-187h64v-42h-64v-104h-44v104h-230z" />
<glyph unicode="&#x2085;" horiz-adv-x="358" d="M108 367l-15 -140q23 16 47.5 22t51.5 6q30 0 55 -7t43.5 -22t29 -39t10.5 -57q0 -62 -39 -100t-114 -38q-48 0 -85 16t-59 53l33 26q17 -27 43.5 -41t66.5 -14q53 0 79.5 27t26.5 70q0 90 -103 90q-31 0 -55.5 -9t-46.5 -26l-28 13l21 210h239v-40h-201z" />
<glyph unicode="&#x2086;" horiz-adv-x="395" d="M212 -8q-37 0 -67.5 11.5t-52.5 37t-34 65t-12 95.5q0 112 44 163.5t124 51.5q45 0 78.5 -16t51.5 -50l-33 -25q-14 27 -39 39t-58 12q-27 0 -49.5 -9t-38.5 -30t-24.5 -54.5t-8.5 -82.5v-15q0 -10 1 -18q9 39 41.5 63t82.5 24q63 0 99 -32t36 -95q0 -61 -35.5 -98 t-105.5 -37zM107 122q0 -18 6.5 -34t19 -29t31.5 -20.5t44 -7.5q45 0 72 23.5t27 71.5q0 42 -25.5 66t-74.5 24q-47 0 -73.5 -25t-26.5 -69z" />
<glyph unicode="&#x2087;" horiz-adv-x="305" d="M148 0h-50q0 51 10 102.5t29 99.5t46.5 90t61.5 73l-219 -1v43h275v-38q-35 -24 -63 -63.5t-48 -88t-31 -104.5t-11 -113z" />
<glyph unicode="&#x2088;" horiz-adv-x="388" d="M193 -8q-72 0 -110.5 31t-38.5 88q0 43 23.5 69t61.5 35q-32 11 -50 34.5t-18 58.5q0 108 132 108t132 -107q0 -36 -18 -59.5t-50 -34.5q38 -9 61 -35.5t23 -68.5q0 -57 -38 -88t-110 -31zM282 307q0 70 -89 70t-89 -70q0 -34 22 -53.5t67 -19.5q44 0 66.5 19.5 t22.5 53.5zM294 112q0 38 -26.5 60t-74.5 22t-74.5 -22t-26.5 -60t25.5 -60.5t75.5 -22.5t75.5 22.5t25.5 60.5z" />
<glyph unicode="&#x2089;" horiz-adv-x="395" d="M176 -8q-45 0 -79 15.5t-52 47.5l33 26q15 -26 40.5 -37.5t57.5 -11.5q62 0 92 44.5t29 130.5v13q0 9 -1 16q-11 -38 -42.5 -61.5t-81.5 -23.5q-62 0 -98.5 33t-36.5 96q0 62 36 99t107 37q36 0 66.5 -11.5t52.5 -37t34 -65t12 -95.5q0 -112 -44.5 -163.5t-124.5 -51.5z M283 284q0 37 -25.5 64.5t-76.5 27.5q-44 0 -70.5 -24t-26.5 -70q0 -44 24.5 -68.5t73.5 -24.5q47 0 74 25t27 70z" />
<glyph unicode="&#x208a;" horiz-adv-x="309" d="M174 64h-38v98h-98v35h98v100h38v-100h98v-35h-98v-98z" />
<glyph unicode="&#x208b;" horiz-adv-x="309" d="M272 197v-35h-234v35h234z" />
<glyph unicode="&#x208c;" horiz-adv-x="309" d="M272 236v-36h-234v36h234zM272 160v-36h-234v36h234z" />
<glyph unicode="&#x208d;" horiz-adv-x="214" d="M180 -16l-4 -39q-140 18 -140 238q0 108 35 168t105 68l4 -38q-50 -8 -76.5 -54.5t-26.5 -143.5q0 -98 26.5 -144.5t76.5 -54.5z" />
<glyph unicode="&#x208e;" horiz-adv-x="214" d="M38 -55l-4 39q50 8 76.5 54.5t26.5 144.5q0 97 -26.5 143.5t-76.5 54.5l5 38q69 -8 104.5 -68t35.5 -168q0 -220 -141 -238z" />
<glyph unicode="&#x20ac;" horiz-adv-x="681" d="M382 -11q-62 0 -112 15.5t-86.5 49t-59.5 87t-30 129.5h-85v45h82q-1 3 -1 12v47h-81v45h84q6 79 28 134.5t58.5 90.5t87.5 51t115 16q88 0 148.5 -31t95.5 -103l-46 -31q-31 66 -80 92t-118 26q-49 0 -89 -12.5t-70 -41t-48.5 -75.5t-24.5 -116h337l-12 -45h-327v-47 q0 -9 1 -12h308l-12 -45h-292q6 -65 25 -109.5t48 -72t68.5 -39.5t87.5 -12q70 0 122 26.5t86 91.5l44 -28q-40 -75 -102.5 -106.5t-149.5 -31.5z" />
<glyph unicode="&#x2122;" horiz-adv-x="686" d="M28 700h245v-32h-104v-262h-36v262h-105v32zM310 406v294h42l113 -255l115 255h41v-294h-36v232l-104 -232h-31l-105 229l1 -229h-36z" />
<glyph unicode="&#x2153;" horiz-adv-x="804" d="M13 0zM612 -8q-53 0 -88 17t-58 54l34 26q19 -30 44.5 -43.5t63.5 -13.5q54 0 79.5 22t25.5 62q0 32 -19.5 54t-67.5 22h-58v40h58q33 0 54 18.5t21 53.5q0 72 -90 72q-38 0 -61 -14t-42 -46l-33 23q22 40 55 58.5t85 18.5q65 0 99.5 -28t34.5 -80q0 -33 -16.5 -57.5 t-45.5 -36.5q40 -11 56.5 -37t16.5 -60q0 -57 -36.5 -91t-111.5 -34zM135 293h-48v349l-56 -41l-18 38l91 62h31v-408zM526 701l-334 -701h-54l336 701h52z" />
<glyph unicode="&#x2154;" horiz-adv-x="935" d="M30 0zM743 -8q-53 0 -88 17t-58 54l34 26q19 -30 44.5 -43.5t63.5 -13.5q54 0 79.5 22t25.5 62q0 32 -19.5 54t-67.5 22h-58v40h58q33 0 54 18.5t21 53.5q0 72 -90 72q-38 0 -61 -14t-42 -46l-33 23q22 40 55 58.5t85 18.5q65 0 99.5 -28t34.5 -80q0 -33 -16.5 -57.5 t-45.5 -36.5q40 -11 56.5 -37t16.5 -60q0 -57 -36.5 -91t-111.5 -34zM31 293v40l150 142q22 21 37 38t24 31.5t13 27t4 25.5q0 37 -22 54t-64 17q-43 0 -67.5 -16.5t-42.5 -51.5l-33 25q23 43 57.5 63.5t89.5 20.5q63 0 96.5 -27.5t33.5 -78.5q0 -36 -21 -70.5t-72 -82.5 l-117 -115l230 2v-44h-296zM657 701l-334 -701h-54l336 701h52z" />
<glyph unicode="&#x2155;" horiz-adv-x="804" d="M13 0zM135 293h-48v349l-56 -41l-18 38l91 62h31v-408zM555 367l-15 -140q23 16 47.5 22t51.5 6q30 0 55 -7t43.5 -22t29 -39t10.5 -57q0 -62 -39 -100t-114 -38q-48 0 -85 16t-59 53l33 26q17 -27 43.5 -41t66.5 -14q53 0 79.5 27t26.5 70q0 90 -103 90q-31 0 -55.5 -9 t-46.5 -26l-28 13l21 210h239v-40h-201zM526 701l-334 -701h-54l336 701h52z" />
<glyph unicode="&#x2156;" horiz-adv-x="940" d="M30 0zM31 293v40l150 142q22 21 37 38t24 31.5t13 27t4 25.5q0 37 -22 54t-64 17q-43 0 -67.5 -16.5t-42.5 -51.5l-33 25q23 43 57.5 63.5t89.5 20.5q63 0 96.5 -27.5t33.5 -78.5q0 -36 -21 -70.5t-72 -82.5l-117 -115l230 2v-44h-296zM690 367l-15 -140q23 16 47.5 22 t51.5 6q30 0 55 -7t43.5 -22t29 -39t10.5 -57q0 -62 -39 -100t-114 -38q-48 0 -85 16t-59 53l33 26q17 -27 43.5 -41t66.5 -14q53 0 79.5 27t26.5 70q0 90 -103 90q-31 0 -55.5 -9t-46.5 -26l-28 13l21 210h239v-40h-201zM661 701l-334 -701h-54l336 701h52z" />
<glyph unicode="&#x2157;" horiz-adv-x="940" d="M29 0zM175 285q-53 0 -88 17t-58 54l34 26q19 -30 44.5 -43.5t63.5 -13.5q54 0 79.5 22t25.5 62q0 32 -19.5 54t-67.5 22h-58v40h58q33 0 54 18.5t21 53.5q0 72 -90 72q-38 0 -61 -14t-42 -46l-33 23q22 40 55 58.5t85 18.5q65 0 99.5 -28t34.5 -80q0 -33 -16.5 -57.5 t-45.5 -36.5q40 -11 56.5 -37t16.5 -60q0 -57 -36.5 -91t-111.5 -34zM690 367l-15 -140q23 16 47.5 22t51.5 6q30 0 55 -7t43.5 -22t29 -39t10.5 -57q0 -62 -39 -100t-114 -38q-48 0 -85 16t-59 53l33 26q17 -27 43.5 -41t66.5 -14q53 0 79.5 27t26.5 70q0 90 -103 90 q-31 0 -55.5 -9t-46.5 -26l-28 13l21 210h239v-40h-201zM661 701l-334 -701h-54l336 701h52z" />
<glyph unicode="&#x2158;" horiz-adv-x="965" d="M29 0zM715 367l-15 -140q23 16 47.5 22t51.5 6q30 0 55 -7t43.5 -22t29 -39t10.5 -57q0 -62 -39 -100t-114 -38q-48 0 -85 16t-59 53l33 26q17 -27 43.5 -41t66.5 -14q53 0 79.5 27t26.5 70q0 90 -103 90q-31 0 -55.5 -9t-46.5 -26l-28 13l21 210h239v-40h-201zM686 701 l-334 -701h-54l336 701h52zM29 397v35l139 268h48l-137 -261h180v187h44v-187h64v-42h-64v-104h-44v104h-230z" />
<glyph unicode="&#x2159;" horiz-adv-x="842" d="M13 0zM135 293h-48v349l-56 -41l-18 38l91 62h31v-408zM659 -8q-37 0 -67.5 11.5t-52.5 37t-34 65t-12 95.5q0 112 44 163.5t124 51.5q45 0 78.5 -16t51.5 -50l-33 -25q-14 27 -39 39t-58 12q-27 0 -49.5 -9t-38.5 -30t-24.5 -54.5t-8.5 -82.5v-15q0 -10 1 -18 q9 39 41.5 63t82.5 24q63 0 99 -32t36 -95q0 -61 -35.5 -98t-105.5 -37zM554 122q0 -18 6.5 -34t19 -29t31.5 -20.5t44 -7.5q45 0 72 23.5t27 71.5q0 42 -25.5 66t-74.5 24q-47 0 -73.5 -25t-26.5 -69zM526 701l-334 -701h-54l336 701h52z" />
<glyph unicode="&#x215a;" horiz-adv-x="967" d="M33 0zM108 660l-15 -140q23 16 47.5 22t51.5 6q30 0 55 -7t43.5 -22t29 -39t10.5 -57q0 -62 -39 -100t-114 -38q-48 0 -85 16t-59 53l33 26q17 -27 43.5 -41t66.5 -14q53 0 79.5 27t26.5 70q0 90 -103 90q-31 0 -55.5 -9t-46.5 -26l-28 13l21 210h239v-40h-201zM784 -8 q-37 0 -67.5 11.5t-52.5 37t-34 65t-12 95.5q0 112 44 163.5t124 51.5q45 0 78.5 -16t51.5 -50l-33 -25q-14 27 -39 39t-58 12q-27 0 -49.5 -9t-38.5 -30t-24.5 -54.5t-8.5 -82.5v-15q0 -10 1 -18q9 39 41.5 63t82.5 24q63 0 99 -32t36 -95q0 -61 -35.5 -98t-105.5 -37z M679 122q0 -18 6.5 -34t19 -29t31.5 -20.5t44 -7.5q45 0 72 23.5t27 71.5q0 42 -25.5 66t-74.5 24q-47 0 -73.5 -25t-26.5 -69zM661 701l-334 -701h-54l336 701h52z" />
<glyph unicode="&#x215b;" horiz-adv-x="835" d="M13 0zM135 293h-48v349l-56 -41l-18 38l91 62h31v-408zM640 -8q-72 0 -110.5 31t-38.5 88q0 43 23.5 69t61.5 35q-32 11 -50 34.5t-18 58.5q0 108 132 108t132 -107q0 -36 -18 -59.5t-50 -34.5q38 -9 61 -35.5t23 -68.5q0 -57 -38 -88t-110 -31zM729 307q0 70 -89 70 t-89 -70q0 -34 22 -53.5t67 -19.5q44 0 66.5 19.5t22.5 53.5zM741 112q0 38 -26.5 60t-74.5 22t-74.5 -22t-26.5 -60t25.5 -60.5t75.5 -22.5t75.5 22.5t25.5 60.5zM526 701l-334 -701h-54l336 701h52z" />
<glyph unicode="&#x215c;" horiz-adv-x="970" d="M29 0zM175 285q-53 0 -88 17t-58 54l34 26q19 -30 44.5 -43.5t63.5 -13.5q54 0 79.5 22t25.5 62q0 32 -19.5 54t-67.5 22h-58v40h58q33 0 54 18.5t21 53.5q0 72 -90 72q-38 0 -61 -14t-42 -46l-33 23q22 40 55 58.5t85 18.5q65 0 99.5 -28t34.5 -80q0 -33 -16.5 -57.5 t-45.5 -36.5q40 -11 56.5 -37t16.5 -60q0 -57 -36.5 -91t-111.5 -34zM775 -8q-72 0 -110.5 31t-38.5 88q0 43 23.5 69t61.5 35q-32 11 -50 34.5t-18 58.5q0 108 132 108t132 -107q0 -36 -18 -59.5t-50 -34.5q38 -9 61 -35.5t23 -68.5q0 -57 -38 -88t-110 -31zM864 307 q0 70 -89 70t-89 -70q0 -34 22 -53.5t67 -19.5q44 0 66.5 19.5t22.5 53.5zM876 112q0 38 -26.5 60t-74.5 22t-74.5 -22t-26.5 -60t25.5 -60.5t75.5 -22.5t75.5 22.5t25.5 60.5zM661 701l-334 -701h-54l336 701h52z" />
<glyph unicode="&#x215d;" horiz-adv-x="970" d="M33 0zM775 -8q-72 0 -110.5 31t-38.5 88q0 43 23.5 69t61.5 35q-32 11 -50 34.5t-18 58.5q0 108 132 108t132 -107q0 -36 -18 -59.5t-50 -34.5q38 -9 61 -35.5t23 -68.5q0 -57 -38 -88t-110 -31zM864 307q0 70 -89 70t-89 -70q0 -34 22 -53.5t67 -19.5q44 0 66.5 19.5 t22.5 53.5zM876 112q0 38 -26.5 60t-74.5 22t-74.5 -22t-26.5 -60t25.5 -60.5t75.5 -22.5t75.5 22.5t25.5 60.5zM108 660l-15 -140q23 16 47.5 22t51.5 6q30 0 55 -7t43.5 -22t29 -39t10.5 -57q0 -62 -39 -100t-114 -38q-48 0 -85 16t-59 53l33 26q17 -27 43.5 -41t66.5 -14 q53 0 79.5 27t26.5 70q0 90 -103 90q-31 0 -55.5 -9t-46.5 -26l-28 13l21 210h239v-40h-201zM661 701l-334 -701h-54l336 701h52z" />
<glyph unicode="&#x215e;" horiz-adv-x="900" d="M26 0zM705 -8q-72 0 -110.5 31t-38.5 88q0 43 23.5 69t61.5 35q-32 11 -50 34.5t-18 58.5q0 108 132 108t132 -107q0 -36 -18 -59.5t-50 -34.5q38 -9 61 -35.5t23 -68.5q0 -57 -38 -88t-110 -31zM794 307q0 70 -89 70t-89 -70q0 -34 22 -53.5t67 -19.5q44 0 66.5 19.5 t22.5 53.5zM806 112q0 38 -26.5 60t-74.5 22t-74.5 -22t-26.5 -60t25.5 -60.5t75.5 -22.5t75.5 22.5t25.5 60.5zM148 293h-50q0 51 10 102.5t29 99.5t46.5 90t61.5 73l-219 -1v43h275v-38q-35 -24 -63 -63.5t-48 -88t-31 -104.5t-11 -113zM591 701l-334 -701h-54l336 701h52 z" />
<glyph unicode="&#x215f;" horiz-adv-x="831" d="M13 0zM135 293h-48v349l-56 -41l-18 38l91 62h31v-408zM526 701l-334 -701h-54l336 701h52z" />
<glyph unicode="&#x2212;" horiz-adv-x="496" d="M446 330v-46h-396v46h396z" />
<glyph unicode="&#x2248;" horiz-adv-x="497" d="M338 374q24 0 55 7t54 24v-48q-21 -14 -53 -21.5t-60 -7.5q-27 0 -48 6t-40.5 13.5t-40.5 13.5t-46 6q-24 0 -54.5 -6.5t-54.5 -23.5v48q22 14 53 20.5t58 6.5q28 0 49.5 -6t42 -13t40.5 -13t45 -6zM338 245q24 0 55 6.5t54 23.5v-47q-21 -14 -53 -21t-60 -7q-27 0 -48 6 t-40.5 13t-40.5 13t-46 6q-24 0 -54.5 -6.5t-54.5 -23.5v47q22 14 53 21t58 7q28 0 49.5 -6t42 -13t40.5 -13t45 -6z" />
<glyph unicode="&#x2260;" horiz-adv-x="496" d="M50 349v46h238l86 107h50l-86 -107h108v-46h-142l-62 -79h204v-47h-239l-83 -103h-51l84 103h-107v47h140l64 79h-204z" />
<glyph unicode="&#x2264;" horiz-adv-x="476" d="M355 508l24 -37l-215 -147l216 -146l-25 -39l-260 171v26zM86 0v46h301v-46h-301z" />
<glyph unicode="&#x2265;" horiz-adv-x="476" d="M120 139l-24 37l216 147l-217 147l26 38l259 -171v-25zM387 46v-46h-301v46h301z" />
<glyph unicode="&#x25fc;" horiz-adv-x="480" d="M0 480h480v-480h-480v480z" />
<glyph unicode="&#xf6c3;" horiz-adv-x="600" d="M264 -255l-12 26q24 10 37 31.5t15 49.5q-26 -4 -38.5 9t-12.5 31q0 20 11 30t30 10q21 0 33.5 -14t12.5 -47q0 -43 -18.5 -78.5t-57.5 -47.5z" />
<glyph horiz-adv-x="406" d="M240 -65v831h51v-831h-51zM115 -65v831h51v-831h-51z" />
<glyph horiz-adv-x="211" d="M139 525q-40 14 -58.5 50.5t-18.5 81.5q0 35 12 48.5t33 13.5q19 0 30.5 -10.5t11.5 -30.5t-13 -33t-38 -7q2 -29 15.5 -52.5t37.5 -34.5z" />
<glyph horiz-adv-x="337" d="M138 525q-40 14 -58.5 50.5t-18.5 81.5q0 35 12 48.5t33 13.5q19 0 30.5 -10.5t11.5 -30.5t-13 -33t-38 -7q2 -29 15.5 -52.5t37.5 -34.5zM264 525q-40 14 -58.5 50.5t-18.5 81.5q0 35 12 48.5t33 13.5q19 0 30.5 -10.5t11.5 -30.5t-13 -33t-38 -7q2 -29 15.5 -52.5 t37.5 -34.5z" />
<glyph d="M455 13l-4 92q-24 -60 -71.5 -88t-110.5 -28q-100 0 -153 64.5t-53 187.5t54.5 187.5t158.5 64.5q61 0 107 -27t69 -84l6 100h47v-482q-41 -5 -69.5 -35t-28.5 -70q0 -33 17.5 -46t46.5 -13q18 0 34 4t32 14l9 -36q-35 -22 -79 -22q-20 0 -39 4.5t-33 15t-22.5 28.5 t-8.5 44q0 25 7.5 45t20.5 36t29 27t34 17zM450 245q0 52 -12.5 90t-35 63t-52.5 37t-66 12q-84 0 -124.5 -52t-40.5 -154q0 -206 164 -206q36 0 66.5 12.5t53 38t35 65t12.5 94.5z" />
<glyph d="M450 245q0 52 -12.5 90t-35 63t-53 37t-65.5 12q-84 0 -124.5 -52t-40.5 -154q0 -206 164 -206q36 0 66.5 12.5t53 38t35 65t12.5 94.5zM454 0l-4 106q-23 -60 -70.5 -88.5t-110.5 -28.5q-100 0 -153 65t-53 187t55 187t159 65q60 0 106 -27t69 -84l6 100h47v-482h-51z " />
<glyph d="M63 0zM450 245q0 52 -12.5 90t-35 63t-53 37t-65.5 12q-84 0 -124.5 -52t-40.5 -154q0 -206 164 -206q36 0 66.5 12.5t53 38t35 65t12.5 94.5zM454 0l-4 106q-23 -60 -70.5 -88.5t-110.5 -28.5q-100 0 -153 65t-53 187t55 187t159 65q60 0 106 -27t69 -84l6 100h47v-482 h-51zM262 569l-107 107v5h74l81 -109v-3h-48z" />
<glyph d="M63 0zM450 245q0 52 -12.5 90t-35 63t-53 37t-65.5 12q-84 0 -124.5 -52t-40.5 -154q0 -206 164 -206q36 0 66.5 12.5t53 38t35 65t12.5 94.5zM454 0l-4 106q-23 -60 -70.5 -88.5t-110.5 -28.5q-100 0 -153 65t-53 187t55 187t159 65q60 0 106 -27t69 -84l6 100h47v-482 h-51zM402 675l-107 -107h-47v3l80 109h74v-5z" />
<glyph d="M63 0zM281 646l-83 -78h-62v2l120 110h52l120 -110v-2h-65zM450 245q0 52 -12.5 90t-35 63t-53 37t-65.5 12q-84 0 -124.5 -52t-40.5 -154q0 -206 164 -206q36 0 66.5 12.5t53 38t35 65t12.5 94.5zM454 0l-4 106q-23 -60 -70.5 -88.5t-110.5 -28.5q-100 0 -153 65 t-53 187t55 187t159 65q60 0 106 -27t69 -84l6 100h47v-482h-51z" />
<glyph d="M63 0zM311 622q0 20 12 31t32 11t32 -11t12 -31t-12 -31t-32 -11t-32 11t-12 31zM159 622q0 20 11.5 31t31.5 11t32 -11t12 -31t-12 -31t-32 -11t-31.5 11t-11.5 31zM450 245q0 52 -12.5 90t-35 63t-53 37t-65.5 12q-84 0 -124.5 -52t-40.5 -154q0 -206 164 -206 q36 0 66.5 12.5t53 38t35 65t12.5 94.5zM454 0l-4 106q-23 -60 -70.5 -88.5t-110.5 -28.5q-100 0 -153 65t-53 187t55 187t159 65q60 0 106 -27t69 -84l6 100h47v-482h-51z" />
<glyph d="M63 0zM450 245q0 52 -12.5 90t-35 63t-53 37t-65.5 12q-84 0 -124.5 -52t-40.5 -154q0 -206 164 -206q36 0 66.5 12.5t53 38t35 65t12.5 94.5zM454 0l-4 106q-23 -60 -70.5 -88.5t-110.5 -28.5q-100 0 -153 65t-53 187t55 187t159 65q60 0 106 -27t69 -84l6 100h47v-482 h-51zM376 669h44q1 -26 -6 -43t-18 -26.5t-25 -13.5t-27 -4q-21 0 -37.5 7.5t-30.5 17t-27.5 17t-29.5 7.5t-25.5 -11t-9.5 -34h-44q-1 25 5.5 42t17.5 27t24.5 14t26.5 4q22 0 38.5 -7.5t31 -17t28 -17t29.5 -7.5q35 0 35 45z" />
<glyph d="M63 0zM450 245q0 52 -12.5 90t-35 63t-53 37t-65.5 12q-84 0 -124.5 -52t-40.5 -154q0 -206 164 -206q36 0 66.5 12.5t53 38t35 65t12.5 94.5zM454 0l-4 106q-23 -60 -70.5 -88.5t-110.5 -28.5q-100 0 -153 65t-53 187t55 187t159 65q60 0 106 -27t69 -84l6 100h47v-482 h-51zM190 634q0 41 25.5 65.5t65.5 24.5q38 0 63 -24.5t25 -65.5q0 -40 -25.5 -64.5t-64.5 -24.5q-38 0 -63.5 24.5t-25.5 64.5zM222 634q0 -26 16.5 -43.5t40.5 -17.5q25 0 41.5 17.5t16.5 43.5q0 27 -16.5 44t-39.5 17q-26 0 -42.5 -17t-16.5 -44z" />
<glyph d="M63 0zM450 245q0 52 -12.5 90t-35 63t-53 37t-65.5 12q-84 0 -124.5 -52t-40.5 -154q0 -206 164 -206q36 0 66.5 12.5t53 38t35 65t12.5 94.5zM454 0l-4 106q-23 -60 -70.5 -88.5t-110.5 -28.5q-100 0 -153 65t-53 187t55 187t159 65q60 0 106 -27t69 -84l6 100h47v-482 h-51zM400 641v-39h-239v39h239z" />
<glyph d="M63 0zM450 245q0 52 -12.5 90t-35 63t-53 37t-65.5 12q-84 0 -124.5 -52t-40.5 -154q0 -206 164 -206q36 0 66.5 12.5t53 38t35 65t12.5 94.5zM454 0l-4 106q-23 -60 -70.5 -88.5t-110.5 -28.5q-100 0 -153 65t-53 187t55 187t159 65q60 0 106 -27t69 -84l6 100h47v-482 h-51zM364 679h44q0 -32 -9 -54t-25.5 -35t-41 -18.5t-54.5 -5.5t-54 5.5t-40.5 18.5t-25.5 35t-9 54h43q0 -44 22 -60t64 -16t64 16t22 60z" />
<glyph d="M274 -210q-66 0 -118 23.5t-83 86.5l41 29q26 -53 66 -73t94 -20q39 0 71 9t55.5 29t36 52t12.5 78v98q-25 -53 -71.5 -78.5t-106.5 -25.5q-91 0 -135 50t-44 147v287h56v-278q0 -86 35.5 -123t98.5 -37q79 0 121 49.5t46 135.5v253h56v-477q0 -56 -17 -97t-47.5 -67 t-73 -38.5t-93.5 -12.5z" />
<glyph d="M73 0zM274 -210q-66 0 -118 23.5t-83 86.5l41 29q26 -53 66 -73t94 -20q39 0 71 9t55.5 29t36 52t12.5 78v98q-25 -53 -71.5 -78.5t-106.5 -25.5q-91 0 -135 50t-44 147v287h56v-278q0 -86 35.5 -123t98.5 -37q79 0 121 49.5t46 135.5v253h56v-477q0 -56 -17 -97 t-47.5 -67t-73 -38.5t-93.5 -12.5zM401 675l-107 -107h-47v3l80 109h74v-5z" />
<glyph d="M73 0zM304 646l-83 -78h-62v2l120 110h52l120 -110v-2h-65zM274 -210q-66 0 -118 23.5t-83 86.5l41 29q26 -53 66 -73t94 -20q39 0 71 9t55.5 29t36 52t12.5 78v98q-25 -53 -71.5 -78.5t-106.5 -25.5q-91 0 -135 50t-44 147v287h56v-278q0 -86 35.5 -123t98.5 -37 q79 0 121 49.5t46 135.5v253h56v-477q0 -56 -17 -97t-47.5 -67t-73 -38.5t-93.5 -12.5z" />
<glyph d="M73 0zM338 622q0 20 12 31t32 11t32 -11t12 -31t-12 -31t-32 -11t-32 11t-12 31zM186 622q0 20 11.5 31t31.5 11t32 -11t12 -31t-12 -31t-32 -11t-31.5 11t-11.5 31zM274 -210q-66 0 -118 23.5t-83 86.5l41 29q26 -53 66 -73t94 -20q39 0 71 9t55.5 29t36 52t12.5 78v98 q-25 -53 -71.5 -78.5t-106.5 -25.5q-91 0 -135 50t-44 147v287h56v-278q0 -86 35.5 -123t98.5 -37q79 0 121 49.5t46 135.5v253h56v-477q0 -56 -17 -97t-47.5 -67t-73 -38.5t-93.5 -12.5z" />
<glyph horiz-adv-x="391" d="M208 355q-78 0 -119 42t-41 136q0 92 41.5 135t119.5 43q52 0 84.5 -18.5t51.5 -53.5l-32 -23q-29 59 -104 59q-60 0 -88.5 -32.5t-28.5 -110.5q0 -75 29 -108t88 -33q41 0 66 14.5t41 49.5l34 -17q-19 -45 -54.5 -64t-87.5 -19z" />
<glyph horiz-adv-x="433" d="M318 535q0 72 -32 106t-81 34q-113 0 -113 -143q0 -141 112 -141q51 0 82.5 34.5t31.5 109.5zM322 363l-3 70q-17 -40 -49.5 -59t-77.5 -19q-70 0 -107.5 44.5t-37.5 132.5t39 133.5t112 45.5q42 0 73.5 -19t48.5 -58l5 68h37v-339h-40z" />
<glyph horiz-adv-x="600" d="M298 500h-39l7 200h57z" />
<glyph horiz-adv-x="220" d="M82 0l8 519h47l8 -519h-63zM157 663q0 -20 -12 -31t-32 -11t-31.5 11t-11.5 31t11.5 31.5t31.5 11.5t32 -11.5t12 -31.5z" />
<glyph horiz-adv-x="495" d="M272 522v-142h-31q-92 0 -139.5 -45.5t-47.5 -128.5q0 -81 50 -123t138 -42q69 0 114.5 27t77.5 94l42 -29q-35 -75 -93.5 -108t-146.5 -33q-54 0 -98.5 14.5t-75.5 41.5t-48 66t-17 88q0 97 56.5 153.5t162.5 60.5v106h56zM287 666q0 -20 -11.5 -31t-31.5 -11 q-43 0 -43 42q0 20 11.5 31.5t31.5 11.5t31.5 -11.5t11.5 -31.5z" />
<glyph horiz-adv-x="375" d="M327 273v-46h-277v46h277z" />
<glyph horiz-adv-x="694" d="M646 273v-46h-596v46h596z" />
<glyph horiz-adv-x="728" d="M375 -11q-71 0 -126 20.5t-92.5 64.5t-57.5 112.5t-20 163.5q0 99 20 167.5t58.5 111.5t95.5 62.5t131 19.5q91 0 153 -30.5t98 -97.5l-47 -32q-32 60 -82 86t-122 26q-58 0 -103.5 -14.5t-77.5 -50.5t-49 -96.5t-17 -151.5q0 -89 17 -149t48.5 -96.5t77 -52t102.5 -15.5 q50 0 90.5 13t69 42.5t43.5 76.5t13 116h-204v46h262v-42q0 -84 -20 -141.5t-56.5 -92.5t-88.5 -50.5t-116 -15.5z" />
<glyph horiz-adv-x="620" d="M543 0l-352 342v3l336 355h67l-333 -352l356 -348h-74zM114 0v700h59v-700h-59z" />
<glyph horiz-adv-x="510" d="M99 0v700h56v-700h-56zM424 0l-254 235v3l245 244h64l-242 -242l257 -240h-70z" />
<glyph horiz-adv-x="818" d="M75 10zM679 108q-45 -47 -110 -72.5t-150 -25.5q-81 0 -145 24.5t-108.5 68.5t-67.5 106.5t-23 139.5q0 76 23 138.5t67.5 106.5t108.5 68.5t145 24.5q78 0 138 -22t101.5 -62.5t62.5 -97t21 -125.5q0 -86 -36 -136.5t-107 -50.5q-36 0 -61.5 16.5t-31.5 59.5 q-33 -85 -133 -85q-51 0 -82 25t-31 75q0 48 37 75.5t112 27.5h94q-1 61 -26 83.5t-74 22.5q-42 0 -65.5 -12t-39.5 -34l-22 24q37 56 131 56q63 0 99.5 -31t36.5 -108v-91q0 -38 15 -57t49 -19q50 0 77.5 41.5t27.5 116.5q0 67 -20.5 119.5t-59 88t-92.5 54t-121 18.5 q-72 0 -129.5 -20.5t-98.5 -60.5t-63 -97.5t-22 -131.5t22 -132t63 -98t98.5 -60.5t129.5 -20.5q157 0 242 91zM381 217q56 0 87 36t35 96v8h-92q-54 0 -82.5 -17t-28.5 -55q0 -35 21 -51.5t60 -16.5z" />
<glyph horiz-adv-x="705" d="M82 350q0 97 17 165.5t50.5 112t84 63.5t118.5 20t118.5 -20t84.5 -63.5t50.5 -112t16.5 -165.5q0 -96 -17 -164.5t-50.5 -112t-84.5 -64t-118 -20.5q-68 0 -118.5 20t-84 63.5t-50.5 112t-17 165.5zM565 350q0 88 -14.5 148t-41.5 97t-66.5 53t-90.5 16 q-50 0 -89.5 -15.5t-66.5 -52.5t-41.5 -97t-14.5 -149q0 -90 14.5 -150t41.5 -96.5t66.5 -52t89.5 -15.5q51 0 90.5 15.5t66.5 52t41.5 96.5t14.5 150z" />
<glyph horiz-adv-x="309" d="M196 0h-57v627l-100 -77l-26 44l145 106h38v-700z" />
<glyph horiz-adv-x="584" d="M47 0v54l262 254q41 39 68 71t43 59t22.5 50t6.5 45q1 65 -40.5 98t-117.5 33q-78 0 -123.5 -31t-76.5 -93l-42 30q19 35 42 61.5t52.5 44t67 26.5t84.5 9q107 0 159 -47t52 -128q0 -29 -8.5 -58t-28 -60.5t-50.5 -67.5t-76 -79l-228 -224l429 1v-48h-497z" />
<glyph horiz-adv-x="608" d="M287 -11q-87 0 -145 28t-94 90l41 32q32 -54 79.5 -78.5t117.5 -24.5q99 0 147 42t48 120q0 31 -8.5 57.5t-27.5 46t-49.5 30.5t-73.5 11h-105v49h103q61 0 100 36.5t39 102.5q0 67 -43 100t-125 33q-68 0 -112 -26t-76 -84l-40 31q36 64 90.5 95t141.5 31 q108 0 164.5 -45.5t56.5 -133.5q0 -56 -28 -98.5t-80 -63.5q36 -8 61 -25t40.5 -39.5t22 -49t6.5 -53.5q0 -48 -15 -87.5t-46 -67.5t-78.5 -43.5t-111.5 -15.5z" />
<glyph horiz-adv-x="635" d="M44 190v40l244 470h60l-243 -461h334v343h56v-343h114v-49h-114v-190h-56v190h-395z" />
<glyph horiz-adv-x="593" d="M163 651l-27 -267q40 29 86 41.5t94 12.5q49 0 92 -12t74.5 -37.5t49.5 -66t18 -96.5q0 -52 -16.5 -95.5t-48.5 -75t-80.5 -49t-112.5 -17.5q-78 0 -139 27.5t-98 90.5l42 33q30 -51 78 -78t117 -27q51 0 89 14t62.5 39.5t37 60t12.5 75.5q0 85 -48.5 126.5t-139.5 41.5 q-62 0 -106.5 -18t-85.5 -50l-32 16l37 360h395v-49h-350z" />
<glyph horiz-adv-x="652" d="M357 -11q-60 0 -110 20t-86.5 63t-57 110.5t-20.5 162.5q0 96 19.5 165.5t55.5 114t87.5 65.5t115.5 21q75 0 129.5 -26.5t83.5 -83.5l-42 -30q-28 51 -73 72t-101 21q-47 0 -87.5 -16.5t-69.5 -54.5t-45.5 -100t-16.5 -153q0 -11 1 -31.5t3 -34.5q7 37 25.5 67t47 51.5 t65 33t79.5 11.5q107 0 170 -55.5t63 -163.5q0 -52 -15 -94t-45 -72t-74 -46.5t-102 -16.5zM164 207q0 -33 12 -64t36 -55t59.5 -38.5t82.5 -14.5q82 0 132 44.5t50 134.5q0 84 -47 130t-138 46q-42 0 -76.5 -13t-59 -36.5t-38 -57.5t-13.5 -76z" />
<glyph horiz-adv-x="494" d="M165 0q0 87 17.5 179t50.5 179t81 163t108 130h-383v49h459v-49q-63 -39 -113.5 -108.5t-86.5 -157.5t-56 -187.5t-21 -197.5h-56z" />
<glyph horiz-adv-x="639" d="M319 -11q-118 0 -182 54t-64 148q0 75 42.5 120.5t111.5 59.5q-59 14 -93 55t-34 106q0 88 55.5 133.5t163.5 45.5t164 -45t56 -133q0 -65 -34 -106t-93 -56q69 -14 111 -59.5t42 -120.5q0 -94 -63.5 -148t-182.5 -54zM484 532q0 65 -41.5 99.5t-123.5 34.5t-123.5 -34.5 t-41.5 -99.5q0 -63 41.5 -100t123.5 -37t123.5 37t41.5 100zM509 193q0 72 -49.5 113t-140.5 41q-90 0 -139.5 -41t-49.5 -113q0 -75 47.5 -116t141.5 -41t142 41t48 116z" />
<glyph horiz-adv-x="652" d="M490 493q0 33 -12 64t-36 55t-59.5 38.5t-83.5 14.5q-82 0 -132 -45t-50 -137q0 -84 47 -130.5t138 -46.5q42 0 76.5 13t59.5 37.5t38.5 59t13.5 77.5zM293 -11q-75 0 -130.5 26.5t-85.5 83.5l43 30q29 -51 74 -72t102 -21q47 0 87 16.5t69.5 54.5t46 100t16.5 153 q0 11 -1 30t-3 34q-15 -74 -72 -119t-145 -45q-108 0 -170.5 56.5t-62.5 165.5q0 52 15 94t45 72t74 46.5t102 16.5q59 0 109.5 -19.5t87 -62.5t57 -110.5t20.5 -163.5t-19.5 -165.5t-55.5 -114t-87.5 -65.5t-115.5 -21z" />
<glyph horiz-adv-x="625" d="M49 300q0 84 17.5 143t51 96.5t82.5 54.5t112 17t112 -17t82.5 -54.5t51 -96.5t17.5 -143q0 -83 -17.5 -142t-51 -96.5t-82.5 -55t-112 -17.5t-112 17.5t-82.5 55t-51 96.5t-17.5 142zM519 300q0 75 -14 125.5t-40 81.5t-65 44t-88 13t-87.5 -13t-65 -43.5t-40.5 -81 t-14 -126.5q0 -75 14 -126t40.5 -81.5t65 -43.5t87.5 -13t88 13t65 43.5t40 81t14 126.5z" />
<glyph horiz-adv-x="625" d="M110 0v51h170v476l-95 -77l-25 44l140 106h36v-549h179v-51h-405z" />
<glyph horiz-adv-x="625" d="M91 0v53l233 208q40 36 66 64t41 50.5t21 42t6 39.5q1 54 -35.5 80.5t-105.5 26.5t-110 -27t-69 -82l-41 29q34 62 85.5 94.5t137.5 32.5q100 0 147.5 -40t47.5 -110q0 -27 -7.5 -51.5t-25 -52t-47 -59t-73.5 -71.5l-200 -180l386 1v-48h-457z" />
<glyph horiz-adv-x="625" d="M307 -111q-88 0 -145.5 28t-94.5 90l41 32q32 -54 79.5 -78.5t118.5 -24.5q98 0 146 42t48 120q0 31 -8.5 57.5t-27 46t-49 30.5t-73.5 11h-105v49h103q60 0 99.5 36.5t39.5 102.5q0 67 -43.5 100t-125.5 33q-69 0 -112 -26t-75 -84l-41 31q36 64 90.5 95t141.5 31 q108 0 165 -45.5t57 -133.5q0 -56 -28.5 -98.5t-80.5 -63.5q36 -8 61 -25t40.5 -39.5t22.5 -49t7 -53.5q0 -48 -15.5 -87.5t-46.5 -67.5t-78 -43.5t-111 -15.5z" />
<glyph horiz-adv-x="625" d="M30 90v40l244 470h60l-243 -461h334v343h56v-343h114v-49h-114v-190h-56v190h-395z" />
<glyph horiz-adv-x="625" d="M173 551l-27 -267q40 29 86 41.5t94 12.5q49 0 92 -12t74.5 -37.5t49.5 -66t18 -96.5q0 -52 -16.5 -95.5t-49 -75t-80.5 -49t-112 -17.5q-78 0 -139 27.5t-98 90.5l42 33q30 -51 78 -78t117 -27q51 0 89 14t62.5 39.5t37 60t12.5 75.5q0 85 -49 127t-140 42 q-61 0 -105.5 -18.5t-85.5 -50.5l-32 16l37 360h395v-49h-350z" />
<glyph horiz-adv-x="625" d="M331 -11q-60 0 -110 20t-86.5 63t-57 110.5t-20.5 162.5q0 96 19.5 165.5t55.5 114t87.5 65.5t115.5 21q75 0 129.5 -26.5t84.5 -83.5l-43 -30q-28 51 -73 72t-101 21q-47 0 -87 -16.5t-69 -54.5t-45.5 -100t-16.5 -153q0 -11 0.5 -31.5t2.5 -34.5q15 74 72.5 118.5 t145.5 44.5q107 0 169.5 -55.5t62.5 -163.5q0 -52 -15 -94t-45 -72t-74 -46.5t-102 -16.5zM138 207q0 -33 12 -64t36 -55t59.5 -38.5t83.5 -14.5q81 0 131 44.5t50 134.5q0 84 -46.5 130t-137.5 46q-42 0 -77 -13t-59.5 -36.5t-38 -57.5t-13.5 -76z" />
<glyph horiz-adv-x="625" d="M208 -100q0 87 18 179t51 179t80.5 163t108.5 130h-383v49h459v-49q-63 -39 -113.5 -108.5t-86.5 -157.5t-56 -187.5t-21 -197.5h-57z" />
<glyph horiz-adv-x="625" d="M312 -11q-118 0 -182 54t-64 148q0 75 42.5 120.5t111.5 59.5q-59 14 -93.5 55t-34.5 106q0 88 56 133.5t164 45.5t164 -45t56 -133q0 -65 -34 -106t-93 -56q68 -14 110.5 -59.5t42.5 -120.5q0 -94 -63.5 -148t-182.5 -54zM477 532q0 65 -41.5 99.5t-123.5 34.5 t-123.5 -34.5t-41.5 -99.5q0 -63 41.5 -100t123.5 -37t123.5 37t41.5 100zM502 193q0 72 -49.5 113t-140.5 41q-90 0 -139.5 -41t-49.5 -113q0 -75 47.5 -116t141.5 -41t142 41t48 116z" />
<glyph horiz-adv-x="625" d="M486 393q0 33 -12 64t-35.5 55t-59 38.5t-83.5 14.5q-82 0 -132 -45t-50 -137q0 -84 47 -130.5t138 -46.5q42 0 76.5 13t59 37.5t38 59t13.5 77.5zM290 -111q-75 0 -130.5 26.5t-85.5 83.5l43 30q29 -51 74 -72t102 -21q47 0 87 16.5t69 54.5t45.5 100t16.5 153 q0 11 -0.5 30t-2.5 34q-15 -74 -72.5 -119t-145.5 -45q-107 0 -169.5 56.5t-62.5 165.5q0 52 15 94t44.5 72t73.5 46.5t102 16.5q60 0 110 -19.5t86.5 -62.5t57 -110.5t20.5 -163.5t-19 -165.5t-55 -114t-87.5 -65.5t-115.5 -21z" />
<glyph horiz-adv-x="634" d="M69 300q0 84 16.5 143t48 96.5t77.5 54.5t106 17t106 -17t77.5 -54.5t47.5 -96.5t16 -143q0 -83 -16 -142t-47.5 -96.5t-77.5 -55t-106 -17.5t-106 17.5t-77.5 55t-48 96.5t-16.5 142zM508 300q0 75 -13 125.5t-37.5 81.5t-60 44t-80.5 13t-80.5 -13t-60 -43.5t-37.5 -81 t-13 -126.5q0 -75 13 -126t37.5 -81.5t60 -43.5t80.5 -13t80.5 13t60 43.5t37.5 81t13 126.5z" />
<glyph horiz-adv-x="282" d="M188 0h-55v527l-96 -77l-24 44l140 106h35v-600z" />
<glyph horiz-adv-x="515" d="M53 0v46l225 217q36 35 59.5 63.5t37 51.5t18.5 43t5 39q1 54 -33.5 79.5t-97.5 25.5t-101.5 -27t-64.5 -80l-42 29q32 60 81 92t131 32q93 0 138 -39.5t45 -106.5q0 -26 -7.5 -51.5t-24 -53.5t-43.5 -60t-66 -70l-190 -185l353 1v-46h-423z" />
<glyph horiz-adv-x="577" d="M270 -111q-82 0 -137 28t-89 90l41 31q30 -54 74 -79t110 -25q94 0 141 43t47 120q0 31 -8 57.5t-26.5 46t-47.5 30.5t-71 11h-100v50h99q57 0 94.5 36t37.5 102q0 67 -41.5 101t-120.5 34q-64 0 -104 -26.5t-70 -84.5l-41 31q35 64 85.5 95t134.5 31q103 0 158 -46 t55 -134q0 -56 -27 -98.5t-78 -63.5q35 -8 59.5 -25t39.5 -39t21.5 -48.5t6.5 -54.5q0 -96 -59.5 -154.5t-183.5 -58.5z" />
<glyph horiz-adv-x="603" d="M42 90v39l232 471h56l-230 -465h317v347h55v-347h107v-45h-107v-190h-55v190h-375z" />
<glyph horiz-adv-x="563" d="M158 552l-27 -267q38 29 81 41t89 12q47 0 88 -12t71 -38t47.5 -66.5t17.5 -97.5q0 -51 -16 -94.5t-47 -74.5t-77 -48.5t-106 -17.5q-75 0 -134 27.5t-94 90.5l41 32q29 -51 74.5 -78t112.5 -27q47 0 82.5 14.5t59 40t35.5 60t12 74.5q0 85 -46 127t-135 42 q-56 0 -98.5 -18t-80.5 -50l-32 16l36 360h376v-48h-330z" />
<glyph horiz-adv-x="620" d="M341 -11q-57 0 -105.5 20t-83.5 63.5t-54.5 110.5t-19.5 162q0 96 18.5 165.5t53.5 114t84 65.5t111 21q72 0 123.5 -26.5t80.5 -83.5l-43 -30q-27 51 -69 72t-95 21q-45 0 -83 -16.5t-65.5 -54.5t-43.5 -100t-16 -153q0 -11 1 -31.5t3 -36.5q12 73 66.5 119t139.5 46 q103 0 162.5 -55.5t59.5 -163.5q0 -52 -14.5 -94t-42.5 -72t-70.5 -46.5t-97.5 -16.5zM158 207q0 -33 12 -64t34.5 -55t56 -38.5t77.5 -14.5q78 0 125 44.5t47 134.5q0 84 -44 130t-130 46q-40 0 -72.5 -13t-56 -36.5t-36.5 -57.5t-13 -76z" />
<glyph horiz-adv-x="470" d="M157 -100q0 87 16.5 179t48 179t77 163t103.5 130h-364v49h436v-49q-60 -39 -108 -108.5t-82.5 -157.5t-53.5 -187.5t-20 -197.5h-53z" />
<glyph horiz-adv-x="607" d="M304 -11q-113 0 -173.5 54t-60.5 148q0 75 40 120.5t105 59.5q-56 15 -88 55.5t-32 105.5q0 88 53 133.5t156 45.5t156 -45t53 -133q0 -65 -32.5 -106t-88.5 -56q65 -14 105 -59.5t40 -120.5q0 -94 -60.5 -148t-172.5 -54zM459 532q0 65 -38.5 99.5t-116.5 34.5 t-116.5 -34.5t-38.5 -99.5q0 -63 38.5 -100t116.5 -37t116.5 37t38.5 100zM483 193q0 72 -46.5 113t-132.5 41t-132.5 -41t-46.5 -113q0 -75 45 -116t134 -41q88 0 133.5 41t45.5 116z" />
<glyph horiz-adv-x="619" d="M465 393q0 33 -11.5 64t-34 55t-56 38.5t-78.5 14.5q-78 0 -125 -45t-47 -137q0 -84 44 -130.5t131 -46.5q39 0 72 13t56 37.5t36 59t13 77.5zM278 -111q-72 0 -124.5 26.5t-81.5 83.5l44 30q26 -51 68.5 -72t96.5 -21q45 0 83.5 16.5t66 54.5t43.5 100t16 153 q0 12 -1.5 32t-3.5 37q-5 -36 -21.5 -67t-43 -53.5t-62.5 -35.5t-79 -13q-102 0 -162 57t-60 165q0 52 14.5 94t43 72t70.5 46.5t97 16.5q57 0 105 -19.5t83.5 -62t55 -110.5t19.5 -164t-18.5 -165.5t-53.5 -114t-84.5 -65.5t-110.5 -21z" />
<glyph horiz-adv-x="421" d="M46 0zM46 4q0 113 40.5 162.5t123.5 49.5q82 0 122 -49.5t40 -162.5q0 -112 -40.5 -162t-121.5 -50q-83 0 -123.5 49.5t-40.5 162.5zM324 4q0 48 -7.5 81t-22.5 53.5t-36 29t-48 8.5q-28 0 -49.5 -8.5t-36.5 -28.5t-22.5 -53t-7.5 -82t7.5 -82t22.5 -53t36.5 -28.5 t48.5 -8.5t48.5 8.5t36.5 28.5t22.5 53t7.5 82z" />
<glyph horiz-adv-x="203" d="M13 0zM135 -200h-48v349l-56 -41l-18 38l91 62h31v-408z" />
<glyph horiz-adv-x="359" d="M30 0zM31 -200v40l150 142q22 21 37 38t24 31.5t13 27t4 25.5q0 37 -22 54t-64 17q-43 0 -67.5 -16.5t-42.5 -51.5l-33 25q23 43 57.5 63.5t89.5 20.5q63 0 96.5 -27.5t33.5 -78.5q0 -36 -21 -70.5t-72 -82.5l-117 -115l230 2v-44h-296z" />
<glyph horiz-adv-x="367" d="M29 0zM175 -208q-53 0 -88 17t-58 54l34 26q19 -30 44.5 -43.5t63.5 -13.5q54 0 79.5 22t25.5 62q0 32 -19.5 54t-67.5 22h-58v40h58q33 0 54 18.5t21 53.5q0 72 -90 72q-38 0 -61 -14t-42 -46l-33 23q22 40 55 58.5t85 18.5q65 0 99.5 -28t34.5 -80q0 -33 -16.5 -57.5 t-45.5 -36.5q40 -11 56.5 -37t16.5 -60q0 -57 -36.5 -91t-111.5 -34z" />
<glyph horiz-adv-x="387" d="M29 0zM29 -96v35l139 268h48l-137 -261h180v187h44v-187h64v-42h-64v-104h-44v104h-230z" />
<glyph horiz-adv-x="358" d="M33 0zM108 167l-15 -140q23 16 47.5 22t51.5 6q30 0 55 -7t43.5 -22t29 -39t10.5 -57q0 -62 -39 -100t-114 -38q-48 0 -85 16t-59 53l33 26q17 -27 43.5 -41t66.5 -14q53 0 79.5 27t26.5 70q0 90 -103 90q-31 0 -55.5 -9t-46.5 -26l-28 13l21 210h239v-40h-201z" />
<glyph horiz-adv-x="395" d="M46 0zM212 -208q-37 0 -67.5 11.5t-52.5 37t-34 65t-12 95.5q0 112 44 163.5t124 51.5q45 0 78.5 -16t51.5 -50l-33 -25q-14 27 -39 39t-58 12q-27 0 -49.5 -9t-38.5 -30t-24.5 -54.5t-8.5 -82.5v-15q0 -10 1 -18q9 39 41.5 63t82.5 24q63 0 99 -32t36 -95 q0 -61 -35.5 -98t-105.5 -37zM107 -78q0 -18 6.5 -34t19 -29t31.5 -20.5t44 -7.5q45 0 72 23.5t27 71.5q0 42 -25.5 66t-74.5 24q-47 0 -73.5 -25t-26.5 -69z" />
<glyph horiz-adv-x="305" d="M26 0zM148 -200h-50q0 51 10 102.5t29 99.5t46.5 90t61.5 73l-219 -1v43h275v-38q-35 -24 -63 -63.5t-48 -88t-31 -104.5t-11 -113z" />
<glyph horiz-adv-x="388" d="M44 0zM193 -208q-72 0 -110.5 31t-38.5 88q0 43 23.5 69t61.5 35q-32 11 -50 34.5t-18 58.5q0 108 132 108t132 -107q0 -36 -18 -59.5t-50 -34.5q38 -9 61 -35.5t23 -68.5q0 -57 -38 -88t-110 -31zM282 107q0 70 -89 70t-89 -70q0 -34 22 -53.5t67 -19.5q44 0 66.5 19.5 t22.5 53.5zM294 -88q0 38 -26.5 60t-74.5 22t-74.5 -22t-26.5 -60t25.5 -60.5t75.5 -22.5t75.5 22.5t25.5 60.5z" />
<glyph horiz-adv-x="395" d="M37 0zM176 -208q-45 0 -79 15.5t-52 47.5l33 26q15 -26 40.5 -37.5t57.5 -11.5q62 0 92 44.5t29 130.5v13q0 9 -1 16q-11 -38 -42.5 -61.5t-81.5 -23.5q-62 0 -98.5 33t-36.5 96q0 62 36 99t107 37q36 0 66.5 -11.5t52.5 -37t34 -65t12 -95.5q0 -112 -44.5 -163.5 t-124.5 -51.5zM283 84q0 37 -25.5 64.5t-76.5 27.5q-44 0 -70.5 -24t-26.5 -70q0 -44 24.5 -68.5t73.5 -24.5q47 0 74 25t27 70z" />
<glyph horiz-adv-x="309" d="M38 0zM174 -136h-38v98h-98v35h98v100h38v-100h98v-35h-98v-98z" />
<glyph horiz-adv-x="309" d="M38 -3zM272 -3v-35h-234v35h234z" />
<glyph horiz-adv-x="309" d="M38 0zM272 36v-36h-234v36h234zM272 -40v-36h-234v36h234z" />
<glyph horiz-adv-x="214" d="M36 0zM180 -216l-4 -39q-140 18 -140 238q0 108 35 168t105 68l4 -38q-50 -8 -76.5 -54.5t-26.5 -143.5q0 -98 26.5 -144.5t76.5 -54.5z" />
<glyph horiz-adv-x="214" d="M34 0zM38 -255l-4 39q50 8 76.5 54.5t26.5 144.5q0 97 -26.5 143.5t-76.5 54.5l5 38q69 -8 104.5 -68t35.5 -168q0 -220 -141 -238z" />
<glyph horiz-adv-x="258" d="M86 623q0 42 43 42t43 -42q0 -43 -43 -43t-43 43zM101 482h56v-482h-56v482z" />
<glyph horiz-adv-x="510" d="M99 0zM243 -255l-12 26q24 10 37 31.5t15 49.5q-26 -4 -38.5 9t-12.5 31q0 20 11 30t30 10q21 0 33.5 -14t12.5 -47q0 -43 -18.5 -78.5t-57.5 -47.5zM99 0v700h56v-700h-56zM424 0l-254 235v3l245 244h64l-242 -242l257 -240h-70z" />
<glyph horiz-adv-x="728" d="M468 897h45q0 -64 -35 -88.5t-95 -24.5q-62 0 -96 24.5t-34 88.5h43q0 -44 22 -60t64 -16t64 16t22 60zM375 -11q-71 0 -126 20.5t-92.5 64.5t-57.5 112.5t-20 163.5q0 99 20 167.5t58.5 111.5t95.5 62.5t131 19.5q91 0 153 -30.5t98 -97.5l-47 -32q-32 60 -82 86 t-122 26q-58 0 -103.5 -14.5t-77.5 -50.5t-49 -96.5t-17 -151.5q0 -89 17 -149t48.5 -96.5t77 -52t102.5 -15.5q50 0 90.5 13t69 42.5t43.5 76.5t13 116h-204v46h262v-42q0 -84 -20 -141.5t-56.5 -92.5t-88.5 -50.5t-116 -15.5z" />
<glyph horiz-adv-x="728" d="M385 865l-84 -79h-62v3l120 109h52l121 -109v-3h-66zM375 -11q-71 0 -126 20.5t-92.5 64.5t-57.5 112.5t-20 163.5q0 99 20 167.5t58.5 111.5t95.5 62.5t131 19.5q91 0 153 -30.5t98 -97.5l-47 -32q-32 60 -82 86t-122 26q-58 0 -103.5 -14.5t-77.5 -50.5t-49 -96.5 t-17 -151.5q0 -89 17 -149t48.5 -96.5t77 -52t102.5 -15.5q50 0 90.5 13t69 42.5t43.5 76.5t13 116h-204v46h262v-42q0 -84 -20 -141.5t-56.5 -92.5t-88.5 -50.5t-116 -15.5z" />
<glyph horiz-adv-x="728" d="M375 -11q-71 0 -126 20.5t-92.5 64.5t-57.5 112.5t-20 163.5q0 99 20 167.5t58.5 111.5t95.5 62.5t131 19.5q91 0 153 -30.5t98 -97.5l-47 -32q-32 60 -82 86t-122 26q-58 0 -103.5 -14.5t-77.5 -50.5t-49 -96.5t-17 -151.5q0 -89 17 -149t48.5 -96.5t77 -52t102.5 -15.5 q50 0 90.5 13t69 42.5t43.5 76.5t13 116h-204v46h262v-42q0 -84 -20 -141.5t-56.5 -92.5t-88.5 -50.5t-116 -15.5zM349 -255l-12 26q24 10 37 32t15 50q-2 -2 -5 -2h-3q-20 0 -32 10.5t-12 30.5t11.5 30t30.5 10q21 0 33 -14t12 -47q0 -43 -18 -78.5t-57 -47.5z" />
<glyph horiz-adv-x="728" d="M341 841q0 20 12 30.5t33 10.5q43 0 43 -41q0 -43 -43 -43q-21 0 -33 11t-12 32zM375 -11q-71 0 -126 20.5t-92.5 64.5t-57.5 112.5t-20 163.5q0 99 20 167.5t58.5 111.5t95.5 62.5t131 19.5q91 0 153 -30.5t98 -97.5l-47 -32q-32 60 -82 86t-122 26q-58 0 -103.5 -14.5 t-77.5 -50.5t-49 -96.5t-17 -151.5q0 -89 17 -149t48.5 -96.5t77 -52t102.5 -15.5q50 0 90.5 13t69 42.5t43.5 76.5t13 116h-204v46h262v-42q0 -84 -20 -141.5t-56.5 -92.5t-88.5 -50.5t-116 -15.5z" />
<glyph horiz-adv-x="620" d="M114 0zM317 -255l-12 26q24 10 37 31.5t15 49.5q-26 -4 -38.5 9t-12.5 31q0 20 11 30t30 10q21 0 33.5 -14t12.5 -47q0 -43 -18.5 -78.5t-57.5 -47.5zM543 0l-352 342v3l336 355h67l-333 -352l356 -348h-74zM114 0v700h59v-700h-59z" />
<glyph horiz-adv-x="414" d="M365 376v-46h-315v46h315z" />
<glyph horiz-adv-x="588" d="M539 376v-46h-489v46h489z" />
<glyph horiz-adv-x="788" d="M739 376v-46h-689v46h689z" />
<glyph horiz-adv-x="588" d="M538 376v-46h-488v46h488z" />
<glyph horiz-adv-x="255" d="M156 700v-700h-56v700h56z" />
<glyph d="M126 0v438h-94v44h94v74q0 84 36.5 120.5t101.5 36.5q21 0 41.5 -4t38.5 -12l-9 -47q-16 7 -31 10.5t-35 3.5q-42 0 -65.5 -24.5t-23.5 -88.5v-69h156v-44h-156v-438h-54zM504 700v-700h-56v700h56z" />
<glyph d="M0 0z" />
</font>
</defs>
</svg>
