<?xml version="1.0" standalone="no"?>
<!DOCTYPE svg PUBLIC "-//W3C//DTD SVG 1.1//EN" "http://www.w3.org/Graphics/SVG/1.1/DTD/svg11.dtd" >
<svg xmlns="http://www.w3.org/2000/svg">
<metadata></metadata>
<defs>
<font id="honeywell_sans_webbold" horiz-adv-x="625" >
<font-face units-per-em="1000" ascent="774" descent="-226" />
<missing-glyph horiz-adv-x="235" />
<glyph unicode="fi" horiz-adv-x="652" d="M439 640q0 33 18.5 49.5t52.5 16.5t52.5 -16.5t18.5 -49.5t-18.5 -49.5t-52.5 -16.5t-52.5 16.5t-18.5 49.5zM109 0v406h-87v85h87v51q0 96 45 138t122 42q23 0 49 -4.5t44 -13.5l-19 -84q-13 6 -26.5 9.5t-31.5 3.5q-35 0 -54 -20.5t-19 -74.5v-47h137v-85h-137v-406 h-110zM453 491h113v-491h-113v491z" />
<glyph unicode="fl" horiz-adv-x="652" d="M109 0v406h-87v85h87v51q0 96 45.5 138t122.5 42q26 0 50 -5.5t41 -13.5l-19 -84q-13 6 -26.5 9.5t-30.5 3.5q-35 0 -54 -20t-19 -74v-47h137v-85h-137v-406h-110zM574 0q-59 0 -92.5 27.5t-33.5 96.5v576h113v-567q0 -46 49 -46h41v-87h-77z" />
<glyph horiz-adv-x="176" />
<glyph horiz-adv-x="176" />
<glyph unicode="&#xd;" horiz-adv-x="176" />
<glyph unicode=" "  horiz-adv-x="235" />
<glyph unicode="&#x09;" horiz-adv-x="235" />
<glyph unicode="&#xa0;" horiz-adv-x="235" />
<glyph unicode="!" horiz-adv-x="238" d="M179 700l-17 -497h-87l-16 497h120zM50 60q0 34 18 50.5t51 16.5q32 0 51 -16.5t19 -50.5q0 -32 -19 -49t-51 -17q-33 0 -51 17t-18 49z" />
<glyph unicode="&#x22;" horiz-adv-x="341" d="M200 479l-8 234h100l-12 -234h-80zM145 479h-81l-11 234h99z" />
<glyph unicode="#" horiz-adv-x="741" d="M314 431l-46 -146h168l45 146h-167zM91 431l24 82h111l58 187h112l-58 -187h168l58 187h112l-58 -187h109l-23 -82h-111l-45 -146h117l-24 -82h-118l-62 -203h-113l62 203h-166l-62 -203h-113l63 203h-103l24 82h103l45 146h-110z" />
<glyph unicode="$" horiz-adv-x="593" d="M169 512q0 -36 22 -61t74 -39v184q-51 -5 -73.5 -26t-22.5 -58zM440 198q0 37 -23 58t-79 37v-189q53 6 77.5 29.5t24.5 64.5zM265 -62v77q-70 5 -127 34t-95 93l78 55q30 -44 63 -66t81 -27v206q-104 25 -151.5 75t-47.5 122q0 75 49 122.5t150 55.5v81h73v-82 q133 -12 192 -112l-81 -54q-21 33 -46.5 52t-64.5 25v-201q57 -14 96.5 -31t64.5 -39.5t36 -51.5t11 -66q0 -88 -54 -135.5t-154 -55.5v-77h-73z" />
<glyph unicode="%" horiz-adv-x="1055" d="M39 0zM657 204q0 111 42.5 163t135.5 52t135.5 -52t42.5 -163t-42.5 -163t-135.5 -52t-135.5 51.5t-42.5 163.5zM925 204q0 41 -6 68.5t-17.5 44t-28 23.5t-38.5 7t-38.5 -7t-28 -23.5t-17.5 -44.5t-6 -69t6 -68.5t17.5 -44t28 -23.5t38.5 -7t38.5 7t28 23.5t17.5 44.5 t6 69zM39 497q0 111 42.5 163t135.5 52t135.5 -52t42.5 -163t-42.5 -163t-135.5 -52t-135.5 51.5t-42.5 163.5zM307 497q0 41 -6 68.5t-17.5 44t-28 23.5t-38.5 7t-38.5 -7t-28 -23.5t-17.5 -44.5t-6 -69t6 -68.5t17.5 -44t28 -23.5t38.5 -7t38.5 7t28 23.5t17.5 44.5t6 69z M745 700l-341 -700h-103l342 700h102z" />
<glyph unicode="&#x26;" horiz-adv-x="716" d="M564 479h100q0 -105 -20.5 -189t-59.5 -146q29 -20 59 -40t65 -41l-52 -78q-33 21 -71 44.5t-65 42.5q-46 -42 -106 -63.5t-135 -21.5q-52 0 -97 11t-78 34t-51.5 58.5t-18.5 84.5q0 39 11 68t30 52.5t44 42t53 36.5q-42 57 -57 101t-15 76q0 78 49.5 120t146.5 42 q91 0 132.5 -36t41.5 -102q0 -35 -11 -64t-31 -54.5t-50 -49t-67 -47.5q66 -70 193 -162q30 51 46 121t14 160zM199 548q0 -23 11 -53.5t43 -71.5q31 20 54 37t37.5 33t21.5 32t7 36q0 70 -82 70q-47 0 -69.5 -22t-22.5 -61zM286 71q91 0 154 57q-71 52 -122.5 96.5 t-88.5 84.5q-20 -13 -36.5 -26t-28.5 -28t-18.5 -33t-6.5 -40q0 -51 37.5 -81t109.5 -30z" />
<glyph unicode="'" horiz-adv-x="201" d="M63 479l-10 234h99l-9 -234h-80z" />
<glyph unicode="(" horiz-adv-x="352" d="M317 -15l-8 -87q-138 12 -203 114.5t-65 299.5q0 196 65 298.5t202 114.5l9 -87q-43 -6 -76 -26t-55 -58.5t-33.5 -97.5t-11.5 -144t11.5 -144.5t33.5 -98t55 -58.5t76 -26z" />
<glyph unicode=")" horiz-adv-x="352" d="M35 -15q43 6 76 26t55 58.5t33.5 98t11.5 144.5t-11.5 144t-33.5 97.5t-55 58.5t-76 26l9 87q137 -12 202 -114.5t65 -298.5q0 -197 -65 -299.5t-203 -114.5z" />
<glyph unicode="*" horiz-adv-x="425" d="M130 340l-70 56l84 101l-119 31l23 84l119 -40l-7 141h97l-8 -141l121 40l23 -84l-119 -31l84 -101l-71 -56l-79 109z" />
<glyph unicode="+" horiz-adv-x="507" d="M297 110h-86v160h-161v79h161v162h86v-162h160v-79h-160v-160z" />
<glyph unicode="," horiz-adv-x="240" d="M72 -137l-22 48q30 10 48 32t23 54q-35 -3 -53 16t-18 48q0 33 18.5 49.5t49.5 16.5q34 0 53 -21t19 -70q0 -63 -29 -110.5t-89 -62.5z" />
<glyph unicode="-" horiz-adv-x="448" d="M400 305v-91h-351v91h351z" />
<glyph unicode="." horiz-adv-x="240" d="M50 60q0 34 19 50.5t52 16.5q32 0 50.5 -16.5t18.5 -50.5q0 -32 -18.5 -49t-50.5 -17q-33 0 -52 17t-19 49z" />
<glyph unicode="/" horiz-adv-x="525" d="M521 700l-395 -700h-122l394 700h123z" />
<glyph unicode="0" d="M31 350q0 96 17 164.5t51.5 112.5t87.5 65t124 21q144 0 213 -86t69 -277q0 -189 -69.5 -276t-212.5 -87q-71 0 -124 21t-87.5 65t-51.5 113t-17 164zM482 351q0 76 -11 128t-33 83.5t-53.5 45t-73.5 13.5q-41 0 -72.5 -13.5t-53 -45t-32.5 -83.5t-11 -130t11 -130 t32.5 -83.5t53 -44.5t72.5 -13q42 0 73.5 13.5t53.5 45t33 84t11 130.5z" />
<glyph unicode="1" d="M84 0v99h169v463l-89 -60l-46 91l174 109h72v-603h177v-99h-457z" />
<glyph unicode="2" d="M59 0v96l230 212q35 32 60.5 58.5t42.5 50.5t25.5 47.5t8.5 48.5q0 55 -33.5 81t-93.5 26q-65 0 -103.5 -28t-67.5 -86l-79 58q41 79 103.5 114t157.5 35q109 0 169 -47.5t60 -142.5q0 -35 -9.5 -66.5t-30 -65t-53 -70t-78.5 -79.5l-157 -148l360 2v-96h-512z" />
<glyph unicode="3" d="M309 -13q-91 0 -153 30t-100 96l79 58q28 -49 68.5 -71.5t100.5 -22.5q73 0 113 31t40 96q0 54 -31.5 83t-97.5 29h-92v92h90q52 0 82.5 28t30.5 79q0 56 -35 81.5t-100 25.5q-56 0 -91.5 -22.5t-64.5 -74.5l-80 53q38 71 97.5 103t150.5 32q110 0 172.5 -47t62.5 -142 q0 -51 -24 -92t-70 -66q54 -18 83 -58t29 -102q0 -48 -15.5 -88t-48 -69t-81.5 -45.5t-115 -16.5z" />
<glyph unicode="4" d="M21 171v79l236 450h110l-227 -431h256v272h111v-272h96v-98h-96v-171h-111v171h-375z" />
<glyph unicode="5" d="M205 605l-19 -192q31 17 69.5 26t79.5 9q49 0 92.5 -12.5t75.5 -39t50.5 -68t18.5 -99.5q0 -54 -17.5 -99t-51.5 -76.5t-84.5 -49t-116.5 -17.5q-83 0 -147 29.5t-102 92.5l79 61q29 -48 70 -71.5t98 -23.5q77 0 118.5 41t41.5 111q0 69 -40.5 102t-110.5 33 q-51 0 -89.5 -15t-70.5 -41l-68 34l34 360h423v-95h-333z" />
<glyph unicode="6" d="M332 -13q-65 0 -118 21t-90.5 65t-58 112t-20.5 163q0 187 75 276t215 89q85 0 144 -28t90 -87l-78 -61q-23 43 -61 64.5t-94 21.5q-40 0 -73.5 -13.5t-57.5 -46t-37 -86t-13 -133.5v-24q21 55 73.5 87t121.5 32q108 0 169 -56t61 -162q0 -52 -15.5 -95t-46.5 -74 t-77.5 -48t-108.5 -17zM179 211q0 -60 38.5 -98t107.5 -38q64 0 104 34t40 105q0 66 -35 103t-109 37q-66 0 -106 -38.5t-40 -104.5z" />
<glyph unicode="7" d="M195 0q0 84 15.5 168.5t45 163t71.5 148t95 122.5l-352 -2v100h485v-90q-56 -41 -100.5 -105t-75.5 -144t-48 -172t-17 -189h-119z" />
<glyph unicode="8" d="M312 -13q-125 0 -193 54.5t-68 151.5q0 72 36.5 114t93.5 57q-48 19 -76.5 58.5t-28.5 99.5q0 96 60.5 143.5t175.5 47.5q116 0 176.5 -47.5t60.5 -142.5q0 -60 -28.5 -100t-76.5 -59q57 -15 93 -57t36 -114q0 -97 -67 -151.5t-194 -54.5zM444 519q0 54 -34.5 81.5 t-97.5 27.5t-97 -27.5t-34 -81.5q0 -51 33 -81t98 -30q66 0 99 30t33 81zM462 196q0 59 -40 89.5t-109 30.5t-110 -30.5t-41 -89.5q0 -61 39.5 -92t110.5 -31t110.5 31t39.5 92z" />
<glyph unicode="9" d="M446 488q0 60 -38.5 98t-107.5 38q-64 0 -104 -35.5t-40 -107.5q0 -66 35 -103t110 -37q65 0 105 40t40 107zM290 -13q-84 0 -143.5 27.5t-91.5 85.5l77 61q25 -44 64.5 -64t93.5 -20q40 0 73 13.5t57 45.5t37 85.5t13 133.5v24q-20 -57 -72.5 -90t-120.5 -33 q-109 0 -170 57.5t-61 165.5q0 52 15.5 95t46.5 74t77.5 48t108.5 17q65 0 118 -21t90.5 -65t58 -112t20.5 -163q0 -188 -75.5 -276.5t-215.5 -88.5z" />
<glyph unicode=":" horiz-adv-x="240" d="M50 0zM50 60q0 34 19 50.5t52 16.5q32 0 50.5 -16.5t18.5 -50.5q0 -32 -18.5 -49t-50.5 -17q-33 0 -52 17t-19 49zM50 423q0 34 19 50.5t52 16.5q32 0 50.5 -16.5t18.5 -50.5q0 -32 -18.5 -49t-50.5 -17q-33 0 -52 17t-19 49z" />
<glyph unicode=";" horiz-adv-x="240" d="M50 0zM72 -137l-22 48q30 10 48 32t23 54q-35 -3 -53 16t-18 48q0 33 18.5 49.5t49.5 16.5q34 0 53 -21t19 -70q0 -63 -29 -110.5t-89 -62.5zM51 423q0 34 19 50.5t52 16.5q32 0 50.5 -16.5t18.5 -50.5q0 -32 -18.5 -49t-50.5 -17q-33 0 -52 17t-19 49z" />
<glyph unicode="&#x3c;" horiz-adv-x="494" d="M362 530l48 -64l-217 -156l219 -155l-51 -68l-280 198v47z" />
<glyph unicode="=" horiz-adv-x="507" d="M457 422v-79h-407v79h407zM457 276v-79h-407v79h407z" />
<glyph unicode="&#x3e;" horiz-adv-x="494" d="M133 87l-48 64l218 156l-220 156l51 67l280 -198v-46z" />
<glyph unicode="?" horiz-adv-x="511" d="M191 203l-2 162h49q147 0 147 135q0 60 -37.5 92t-108.5 32q-55 0 -93.5 -23t-67.5 -84l-75 52q36 76 97 111t152 35q112 0 176.5 -54.5t64.5 -153.5q0 -96 -52 -149t-148 -61l-2 -94h-100zM170 60q0 34 18.5 50.5t51.5 16.5q32 0 50.5 -16.5t18.5 -50.5q0 -32 -18.5 -49 t-50.5 -17q-33 0 -51.5 17t-18.5 49z" />
<glyph unicode="@" horiz-adv-x="817" d="M683 -3q-45 -48 -111 -74t-154 -26q-83 0 -147.5 25t-109.5 70t-68.5 108.5t-23.5 141.5q0 77 23.5 140.5t68.5 108.5t109.5 69.5t147.5 24.5q80 0 141.5 -23t103 -64.5t63 -100t21.5 -129.5q0 -88 -41 -138.5t-118 -50.5q-38 0 -64 14.5t-36 47.5q-16 -33 -46.5 -51 t-75.5 -18q-51 0 -83 25.5t-32 75.5t36.5 79.5t115.5 29.5h76q-2 47 -23.5 63t-61.5 16q-35 0 -58.5 -11t-37.5 -30l-35 44q43 59 141 59q33 0 60.5 -7.5t47.5 -24.5t31 -44t11 -67v-92q0 -32 12.5 -47.5t41.5 -15.5q41 0 66.5 35t25.5 107q0 69 -20.5 121t-58 86t-89 51 t-114.5 17q-67 0 -122.5 -19t-95 -56.5t-61.5 -93.5t-22 -131t22 -131.5t62 -94t95.5 -56.5t122.5 -19q74 0 133.5 21.5t101.5 66.5zM384 127q42 0 67.5 27t26.5 75v3h-74q-42 0 -61.5 -13t-19.5 -42q0 -50 61 -50z" />
<glyph unicode="A" horiz-adv-x="647" d="M320 590l-120 -366h242zM516 0l-44 131h-302l-43 -131h-118l242 700h144l242 -700h-121z" />
<glyph unicode="B" horiz-adv-x="698" d="M104 0v700h313q55 0 94.5 -13.5t64.5 -37.5t36.5 -57.5t11.5 -74.5q0 -56 -26.5 -95.5t-72.5 -57.5q30 -7 52.5 -23t36.5 -38.5t21 -49t7 -53.5q0 -99 -58.5 -149.5t-176.5 -50.5h-303zM405 608h-188v-206h184q58 0 83.5 30.5t25.5 73.5q0 53 -28 77.5t-77 24.5zM406 309 h-189v-218h185q125 0 125 113q0 50 -28.5 77.5t-92.5 27.5z" />
<glyph unicode="C" horiz-adv-x="703" d="M392 -13q-81 0 -141 20.5t-100.5 65t-60.5 113.5t-20 165q0 97 20.5 166t61 112.5t101 63.5t141.5 20q99 0 163.5 -32.5t100.5 -109.5l-93 -55q-27 58 -67.5 79.5t-103.5 21.5q-50 0 -88.5 -12t-64.5 -42.5t-40 -82t-14 -129.5t14 -130t40 -83t64.5 -44t88.5 -13 q63 0 108.5 25t75.5 86l91 -53q-42 -80 -109.5 -116t-167.5 -36z" />
<glyph unicode="D" horiz-adv-x="758" d="M377 0h-273v700h277q157 0 233 -82.5t76 -263.5q0 -180 -77.5 -267t-235.5 -87zM221 97h149q46 0 84 12.5t64 42.5t40.5 78.5t14.5 120.5q0 69 -13 117t-37.5 78t-60.5 43.5t-82 13.5h-159v-506z" />
<glyph unicode="E" horiz-adv-x="673" d="M104 0v700h517v-96h-403v-203h352v-97h-352v-208h413v-96h-527z" />
<glyph unicode="F" horiz-adv-x="619" d="M104 0v700h501v-97h-384v-208h341v-100h-341v-295h-117z" />
<glyph unicode="G" horiz-adv-x="746" d="M374 -13q-146 0 -225 88.5t-79 275.5q0 97 20.5 165.5t61 112t101 64t141.5 20.5q98 0 162 -32t99 -104l-93 -56q-27 52 -66.5 74t-101.5 22q-50 0 -88.5 -12t-65 -42t-40 -81.5t-13.5 -130.5q0 -78 13.5 -129.5t40 -83t64.5 -44.5t87 -13q31 0 62 8.5t56.5 28.5t41.5 53 t18 83v19h-174v89h281v-362h-90l-7 94q-29 -51 -83 -79t-123 -28z" />
<glyph unicode="H" horiz-adv-x="802" d="M582 0v301h-361v-301h-117v700h117v-298h361v298h117v-700h-117z" />
<glyph unicode="I" horiz-adv-x="324" d="M104 0v700h117v-700h-117z" />
<glyph unicode="J" horiz-adv-x="522" d="M179 -13q-45 0 -88.5 12.5t-80.5 41.5l50 85q26 -22 58 -32.5t65 -10.5q31 0 56 9.5t43 30t27.5 53t9.5 79.5v445h117v-441q0 -77 -19 -129t-53.5 -84t-81.5 -45.5t-103 -13.5z" />
<glyph unicode="K" horiz-adv-x="670" d="M104 0v700h117l-1 -366l298 366h138l-261 -312l271 -388h-140l-210 303l-95 -113v-190h-117z" />
<glyph unicode="L" horiz-adv-x="638" d="M221 98h390v-98h-507v700h117v-602z" />
<glyph unicode="M" horiz-adv-x="962" d="M436 0l-228 507l5 -507h-109v700h125l253 -567l250 567h127v-700h-112l5 511l-228 -511h-88z" />
<glyph unicode="N" horiz-adv-x="792" d="M578 0l-366 522l3 -522h-111v700h104l372 -531l-3 531h112v-700h-111z" />
<glyph unicode="O" horiz-adv-x="786" d="M393 -13q-167 0 -245 87t-78 277t80 276t243 86q85 0 146.5 -21t101 -65.5t58 -113t18.5 -162.5q0 -190 -80.5 -277t-243.5 -87zM393 618q-51 0 -89.5 -13t-64.5 -43.5t-39 -82t-13 -129.5q0 -76 13 -127.5t39 -82.5t64.5 -44.5t89.5 -13.5t89.5 13t64.5 44.5t39 83 t13 129.5q0 75 -13 126t-39 82t-64.5 44.5t-89.5 13.5z" />
<glyph unicode="P" horiz-adv-x="683" d="M104 0v700h297q122 0 182.5 -60.5t60.5 -169.5q0 -118 -66 -179t-190 -61h-167v-230h-117zM392 601h-171v-273h171q63 0 99 35t36 106q0 61 -33 96.5t-102 35.5z" />
<glyph unicode="Q" horiz-adv-x="783" d="M583 30l84 -121h-118l-61 87q-44 -9 -95 -9q-167 0 -245 87t-78 277t80 276t243 86q85 0 146.5 -21t101 -65.5t58 -113t18.5 -162.5q0 -123 -33.5 -201.5t-100.5 -119.5zM393 619q-51 0 -89.5 -13t-64.5 -44t-39 -83t-13 -130q0 -76 13 -127.5t39 -82.5t64.5 -44.5 t89.5 -13.5h18q9 0 17 1l-86 124h119l62 -90q38 29 57.5 85t19.5 150q0 76 -13.5 127.5t-39.5 82.5t-64.5 44.5t-89.5 13.5z" />
<glyph unicode="R" horiz-adv-x="690" d="M395 602h-175v-253h173q62 0 96.5 32t34.5 98q0 57 -31 90t-98 33zM104 0v700h301q119 0 177.5 -57t58.5 -160q0 -81 -34 -133.5t-97 -76.5l141 -273h-128l-129 252h-174v-252h-116z" />
<glyph unicode="S" horiz-adv-x="632" d="M561 586l-86 -57q-27 48 -64.5 71t-100.5 23q-38 0 -65 -8t-44 -22t-25 -32.5t-8 -39.5q0 -36 26 -64.5t98 -44.5l63 -14q117 -26 169.5 -74.5t52.5 -126.5q0 -99 -70.5 -154.5t-201.5 -55.5q-86 0 -157.5 30.5t-115.5 104.5l85 59q36 -58 79.5 -82t111.5 -24 q81 0 118.5 28.5t37.5 81.5q0 21 -6.5 37.5t-21.5 29t-40.5 22t-62.5 18.5l-64 15q-56 13 -96 33t-65 46t-36.5 57.5t-11.5 67.5q0 46 17 83t49.5 63.5t78.5 41t104 14.5q94 0 154.5 -30.5t97.5 -96.5z" />
<glyph unicode="T" horiz-adv-x="589" d="M13 700h564v-99h-224v-601h-117v601h-223v99z" />
<glyph unicode="U" horiz-adv-x="759" d="M556 273v427h117v-421q0 -148 -78 -220t-215 -72q-141 0 -217.5 72t-76.5 220v421h117v-427q0 -50 12.5 -86t35.5 -59t55.5 -34t73.5 -11q81 0 128.5 44.5t47.5 145.5z" />
<glyph unicode="V" horiz-adv-x="642" d="M7 700h123l192 -584l194 584h119l-243 -700h-142z" />
<glyph unicode="W" horiz-adv-x="932" d="M413 698h109l145 -533l145 535h114l-203 -700h-113l-145 534l-144 -534h-112l-202 700h119l142 -537z" />
<glyph unicode="X" horiz-adv-x="657" d="M508 0l-184 272l-184 -272h-128l247 357l-232 343h136l171 -261l169 261h128l-234 -341l249 -359h-138z" />
<glyph unicode="Y" horiz-adv-x="637" d="M260 273l-251 427h128l185 -328l183 328h123l-251 -429v-271h-117v273z" />
<glyph unicode="Z" horiz-adv-x="586" d="M20 0v80l401 525l-379 -2v97h520v-80l-402 -525l406 2v-97h-546z" />
<glyph unicode="[" horiz-adv-x="346" d="M69 -122v838h239v-83h-137v-672h140v-83h-242z" />
<glyph unicode="\" horiz-adv-x="530" d="M398 0l-394 700h120l394 -700h-120z" />
<glyph unicode="]" horiz-adv-x="346" d="M35 -122v83h140v672h-137v83h239v-838h-242z" />
<glyph unicode="^" horiz-adv-x="455" d="M174 700h108l148 -321v-2h-105l-98 226l-101 -226h-101v2z" />
<glyph unicode="_" horiz-adv-x="480" d="M485 0v-86h-490v86h490z" />
<glyph unicode="`" horiz-adv-x="600" d="M267 573l-120 117v6h134l78 -119v-4h-92z" />
<glyph unicode="a" horiz-adv-x="576" d="M251 68q61 0 98 39.5t38 112.5v5h-110q-63 0 -90.5 -20.5t-27.5 -64.5q0 -34 22 -53t70 -19zM221 -12q-75 0 -121.5 37.5t-46.5 108.5q0 36 12.5 66.5t39 52t67.5 34t98 12.5h117q-2 67 -33 92t-89 25q-52 0 -85.5 -17t-56.5 -45l-52 66q62 83 208 83q48 0 88.5 -10 t69.5 -34t45 -63.5t16 -97.5v-298h-96l-9 82q-23 -44 -66 -69t-106 -25z" />
<glyph unicode="b" horiz-adv-x="621" d="M197 700v-287q26 46 69.5 68t100.5 22q97 0 150 -63.5t53 -191.5q0 -125 -56.5 -193t-163.5 -68q-55 0 -97.5 21.5t-67.5 66.5l-7 -75h-94v700h113zM196 243q0 -89 37 -129t96 -40q66 0 98 41t32 129q0 91 -32.5 131.5t-95.5 40.5q-30 0 -54.5 -10t-42.5 -31t-28 -53.5 t-10 -78.5z" />
<glyph unicode="c" horiz-adv-x="535" d="M291 -13q-113 0 -176.5 61t-63.5 197q0 134 63.5 196t179.5 62q77 0 126.5 -27.5t78.5 -81.5l-79 -54q-36 74 -125 74q-68 0 -100.5 -37t-32.5 -133q0 -91 32 -130t100 -39q48 0 79 17.5t51 61.5l81 -45q-29 -63 -82.5 -92.5t-131.5 -29.5z" />
<glyph unicode="d" horiz-adv-x="621" d="M425 246q0 45 -10.5 77t-28.5 53t-42.5 30.5t-53.5 9.5q-65 0 -96.5 -41t-31.5 -131q0 -88 32 -128.5t96 -40.5q29 0 54 10t43 30.5t28 53t10 77.5zM437 0l-6 84q-49 -97 -173 -97q-99 0 -153 65.5t-54 191.5q0 128 57 193.5t160 65.5q104 0 156 -76v273h113v-700h-100z " />
<glyph unicode="e" horiz-adv-x="555" d="M291 -13q-113 0 -176.5 62.5t-63.5 194.5q0 126 61.5 192.5t178.5 66.5q57 0 98 -18.5t68 -50.5t39.5 -76.5t12.5 -95.5q0 -22 -3 -49h-346q5 -78 39.5 -110t97.5 -32q48 0 80 16t53 61l75 -43q-29 -62 -84 -90t-130 -28zM288 419q-56 0 -89 -30t-38 -101h241 q-3 69 -32 100t-82 31z" />
<glyph unicode="f" horiz-adv-x="368" d="M22 491h87v51q0 96 45.5 138t122.5 42q23 0 49 -4.5t44 -13.5l-19 -84q-13 6 -26.5 9.5t-31.5 3.5q-35 0 -54.5 -20.5t-19.5 -74.5v-47h137v-85h-137v-406h-110v406h-87v85z" />
<glyph unicode="g" horiz-adv-x="619" d="M423 255q0 85 -38.5 123.5t-96.5 38.5q-64 0 -95.5 -39t-31.5 -124t32 -124.5t95 -39.5q59 0 97 39t38 126zM535 491v-471q0 -62 -19 -107t-53 -74t-81.5 -43t-103.5 -14q-73 0 -129.5 25t-87.5 88l72 56q24 -46 59 -64.5t83 -18.5q66 0 107 33t41 109v82 q-48 -89 -165 -89q-96 0 -151.5 63t-55.5 187t55 187t156 63q59 0 102 -22t67 -67l10 77h94z" />
<glyph unicode="h" horiz-adv-x="636" d="M197 700v-302q27 55 75.5 80t105.5 25q93 0 136.5 -51t43.5 -145v-307h-113v273q0 73 -28 103t-80 30q-63 0 -100.5 -41.5t-39.5 -121.5v-243h-113v700h113z" />
<glyph unicode="i" horiz-adv-x="284" d="M71 640q0 33 18.5 49.5t52.5 16.5t52.5 -16.5t18.5 -49.5t-18.5 -49.5t-52.5 -16.5t-52.5 16.5t-18.5 49.5zM86 491h113v-491h-113v491z" />
<glyph unicode="j" horiz-adv-x="284" d="M71 640q0 33 18.5 49.5t52.5 16.5t52.5 -16.5t18.5 -49.5t-18.5 -49.5t-52.5 -16.5t-52.5 16.5t-18.5 49.5zM86 -28v519h113v-530q0 -93 -45.5 -136t-122.5 -43q-22 0 -43.5 3.5t-44.5 12.5l18 85q13 -5 25.5 -8t30.5 -3q16 0 29 4.5t22 16t13.5 31t4.5 48.5z" />
<glyph unicode="k" horiz-adv-x="546" d="M84 0v700h112l-2 -458l215 249h129l-196 -219l198 -272h-129l-142 197l-73 -78v-119h-112z" />
<glyph unicode="l" horiz-adv-x="294" d="M207 0q-59 0 -92.5 27.5t-33.5 96.5v576h113v-567q0 -46 49 -46h41v-87h-77z" />
<glyph unicode="m" horiz-adv-x="938" d="M84 0v491h95l11 -90q27 54 73 78t96 24q65 0 101.5 -33.5t49.5 -83.5q25 61 74.5 89t109.5 28q86 0 126 -50t40 -143v-310h-113v278q0 69 -23.5 98t-68.5 29q-57 0 -91 -38t-36 -115v-252h-113v275q0 71 -24 100.5t-72 29.5q-54 0 -87 -38t-35 -116v-251h-113z" />
<glyph unicode="n" horiz-adv-x="636" d="M84 491h96l11 -91q28 54 76.5 78.5t108.5 24.5q94 0 138 -51t44 -145v-307h-113v275q0 72 -27.5 101.5t-80.5 29.5q-63 0 -100.5 -41.5t-39.5 -121.5v-243h-113v491z" />
<glyph unicode="o" horiz-adv-x="593" d="M51 246q0 133 64.5 195t181.5 62q124 0 184.5 -61t60.5 -196q0 -132 -62 -195.5t-183 -63.5t-183.5 62t-62.5 197zM432 245q0 94 -32.5 132.5t-102.5 38.5q-72 0 -104 -38.5t-32 -132.5q0 -93 33 -132t103 -39q69 0 102 39t33 132z" />
<glyph unicode="p" horiz-adv-x="621" d="M196 244q0 -89 37 -129.5t95 -40.5q66 0 98.5 41.5t32.5 129.5q0 90 -32.5 130.5t-95.5 40.5q-59 0 -97 -40.5t-38 -131.5zM84 491h95l11 -88q26 50 71 75t105 25q100 0 152 -64.5t52 -189.5t-56 -193.5t-165 -68.5q-103 0 -152 72v-246h-113v678z" />
<glyph unicode="q" horiz-adv-x="621" d="M537 -186h-113v258q-52 -85 -166 -85q-98 0 -152.5 64t-54.5 192t57.5 194t160.5 66q55 0 97 -22t66 -67l10 77h95v-677zM425 246q0 45 -10 77.5t-28 53t-43 30t-54 9.5q-64 0 -96 -40t-32 -131q0 -88 32.5 -129t95.5 -41q59 0 97 40.5t38 130.5z" />
<glyph unicode="r" horiz-adv-x="392" d="M84 0v491h95l11 -102q26 59 73.5 87t109.5 25v-108q-88 8 -131 -38t-45 -135v-220h-113z" />
<glyph unicode="s" horiz-adv-x="511" d="M251 69q53 0 76 17t23 45q0 23 -17.5 36.5t-66.5 24.5l-43 9q-87 18 -125 58t-38 95q0 32 12 59t36 47t60.5 31.5t85.5 11.5q68 0 112.5 -20t77.5 -61l-67 -66q-25 31 -53 47t-73 16q-88 0 -88 -57q0 -22 17.5 -37.5t62.5 -25.5l55 -12q86 -19 121.5 -56t35.5 -89 q0 -33 -12 -61t-37.5 -49t-64.5 -33t-92 -12q-73 0 -127 22.5t-87 76.5l70 59q26 -41 61 -58.5t85 -17.5z" />
<glyph unicode="t" horiz-adv-x="380" d="M19 491h82v142h110v-142h138v-85h-138v-235q0 -57 21.5 -75.5t56.5 -18.5q18 0 31.5 3t27.5 8l17 -81q-27 -11 -49.5 -15.5t-48.5 -4.5q-37 0 -67.5 9.5t-52.5 31t-34 55t-12 81.5v242h-82v85z" />
<glyph unicode="u" horiz-adv-x="632" d="M453 0l-9 85q-28 -51 -75.5 -74.5t-101.5 -23.5q-98 0 -143.5 53.5t-45.5 146.5v304h113v-280q0 -132 109 -132q61 0 97 41t38 120v251h113v-491h-95z" />
<glyph unicode="v" horiz-adv-x="525" d="M7 491h118l140 -379l138 379h115l-195 -491h-120z" />
<glyph unicode="w" horiz-adv-x="752" d="M327 488h103l107 -359l104 362h105l-155 -491h-110l-105 362l-103 -362h-109l-157 491h108l106 -361z" />
<glyph unicode="x" horiz-adv-x="525" d="M18 491h129l120 -170l118 170h123l-181 -242l192 -249h-129l-131 177l-130 -177h-123l193 251z" />
<glyph unicode="y" horiz-adv-x="525" d="M187 -56l17 50l-199 497h118l140 -378l139 378h117l-234 -584q-29 -72 -76.5 -98t-109.5 -26q-25 0 -45 3.5t-44 11.5l15 87q17 -6 32 -9.5t35 -3.5q12 0 25.5 2.5t26 10t23.5 22t20 37.5z" />
<glyph unicode="z" horiz-adv-x="496" d="M37 0v74l280 330h-275v87h408v-77l-281 -328h289v-86h-421z" />
<glyph unicode="{" horiz-adv-x="359" d="M308 -103q-81 6 -126.5 42t-45.5 108q0 33 4.5 62.5t4.5 58.5q0 54 -26 78t-80 24h-31v83h31q54 0 80 24t26 78q0 29 -4.5 58.5t-4.5 62.5q0 72 45.5 108t126.5 42l10 -87q-41 -4 -62.5 -23t-21.5 -61q0 -30 4.5 -58.5t4.5 -58.5q0 -48 -21.5 -78.5t-64.5 -47.5 q86 -36 86 -127q0 -30 -4.5 -58.5t-4.5 -57.5q0 -42 21.5 -61.5t62.5 -23.5z" />
<glyph unicode="|" horiz-adv-x="304" d="M101 -65v831h102v-831h-102z" />
<glyph unicode="}" horiz-adv-x="359" d="M39 -16q41 4 62.5 23.5t21.5 61.5q0 29 -4.5 57.5t-4.5 58.5q0 91 86 127q-43 17 -64.5 47.5t-21.5 78.5q0 30 4.5 58.5t4.5 58.5q0 42 -21.5 61t-62.5 23l10 87q81 -6 126.5 -42t45.5 -108q0 -33 -4.5 -62.5t-4.5 -58.5q0 -54 26 -78t80 -24h31v-83h-31q-54 0 -80 -24 t-26 -78q0 -29 4.5 -58.5t4.5 -62.5q0 -72 -45.5 -108t-126.5 -42z" />
<glyph unicode="~" horiz-adv-x="543" d="M431 418l88 -12q-5 -71 -43 -106.5t-97 -35.5q-32 0 -62 11t-57 24q-23 11 -44.5 19.5t-43.5 8.5q-23 0 -39.5 -15t-18.5 -47l-88 13q5 72 43.5 107t98.5 35q34 0 63 -11t56 -24q23 -11 44.5 -19t41.5 -8q24 0 40 14t18 46z" />
<glyph unicode="&#xa1;" horiz-adv-x="238" d="M59 -199l17 497h87l16 -497h-120zM188 441q0 -34 -18 -50.5t-51 -16.5q-32 0 -51 16.5t-19 50.5q0 32 19 49t51 17q33 0 51 -17t18 -49z" />
<glyph unicode="&#xa2;" horiz-adv-x="549" d="M258 -62v74q-96 10 -147 68t-51 177q0 117 50.5 176t147.5 69v76h75v-75q60 -6 99.5 -32.5t64.5 -72.5l-75 -50q-28 55 -89 66v-316q34 5 56 21.5t39 51.5l79 -42q-26 -55 -70 -83t-104 -34v-74h-75zM166 256q0 -75 22.5 -111t69.5 -45v313q-48 -9 -70 -45t-22 -112z" />
<glyph unicode="&#xa3;" horiz-adv-x="589" d="M33 0v90h36q32 0 41 27t7 79l-4 101h-80v80h78l-3 108q-2 60 14 103t46.5 71t73 41t94.5 13q77 0 126 -30.5t81 -93.5l-82 -56q-20 42 -49.5 65t-74.5 23q-62 0 -90.5 -34.5t-26.5 -107.5l4 -102h177v-80h-173l2 -105q1 -32 -3 -59t-17 -43h166q45 0 76 14t59 46l56 -66 q-35 -47 -80 -65.5t-110 -18.5h-344z" />
<glyph unicode="&#xa5;" horiz-adv-x="637" d="M568 288v-73h-190v-215h-118v215h-190v73h182l-32 52h-150v73h108l-169 287h128l185 -328l183 328h123l-168 -287h108v-73h-151l-30 -52h181z" />
<glyph unicode="&#xa6;" horiz-adv-x="304" d="M101 386v380h102v-380h-102zM101 -65v380h102v-380h-102z" />
<glyph unicode="&#xa7;" horiz-adv-x="519" d="M257 -26q-67 0 -117.5 19.5t-82.5 70.5l68 53q23 -35 53.5 -50.5t77.5 -15.5q54 0 76 17.5t22 47.5q0 26 -19.5 42.5t-70.5 27.5l-41 9q-43 10 -72.5 25.5t-48 35t-26.5 42.5t-8 49q0 16 4 33t13 31.5t23.5 26.5t36.5 19q-34 21 -48.5 49.5t-14.5 61.5q0 28 9.5 54.5 t30.5 46.5t55 32t84 12q63 0 102 -18t69 -53l-62 -60q-23 26 -47.5 39.5t-62.5 13.5q-45 0 -64.5 -17t-19.5 -47q0 -21 17 -41t61 -30l53 -12q86 -20 122.5 -55.5t36.5 -92.5q0 -34 -17 -64t-62 -46q67 -36 67 -111q0 -27 -9.5 -53t-32 -46.5t-60.5 -33t-95 -12.5zM369 332 q1 24 -15 43t-63 30l-26 6q-18 4 -36.5 3.5t-33 -7t-24 -20t-10.5 -35.5t16.5 -43.5t61.5 -30.5l4 -1q5 -1 10 -1.5t9 -1.5t5 -1q47 -8 74 8t28 51z" />
<glyph unicode="&#xa8;" horiz-adv-x="600" d="M331 640q0 32 18 47.5t50 15.5t50 -15.5t18 -47.5t-18 -48t-50 -16t-50 16t-18 48zM144 640q0 32 18 47.5t50 15.5t50 -15.5t18 -47.5t-18 -48t-50 -16t-50 16t-18 48z" />
<glyph unicode="&#xa9;" horiz-adv-x="832" d="M69 350q0 77 23.5 140.5t68 108.5t109 69.5t147.5 24.5q82 0 146 -24.5t108.5 -69.5t68 -108.5t23.5 -140.5t-23.5 -140.5t-68 -108.5t-108.5 -70t-146 -25q-83 0 -147.5 25t-109 70t-68 108.5t-23.5 140.5zM117 350q0 -75 22 -131.5t61.5 -94t94.5 -56t122 -18.5 q66 0 121 18.5t94.5 56t61.5 94t22 131.5t-22 131t-61.5 93.5t-94.5 56.5t-121 19q-67 0 -122 -19t-94.5 -56.5t-61.5 -93.5t-22 -131zM421 171q-86 0 -131.5 44t-45.5 138q0 95 45 140t133 45q57 0 93 -20t57 -58l-60 -41q-26 53 -90 53q-50 0 -73.5 -28t-23.5 -91t24 -89 t73 -26q35 0 57 12t36 41l61 -33q-21 -45 -60.5 -66t-94.5 -21z" />
<glyph unicode="&#xaa;" horiz-adv-x="412" d="M183 408q42 0 67.5 26.5t25.5 74.5v4h-75q-82 0 -82 -57q0 -23 16 -35.5t48 -12.5zM158 345q-52 0 -85.5 27.5t-33.5 80.5q0 51 38.5 82t120.5 31h78q-2 47 -23.5 63.5t-61.5 16.5q-36 0 -60 -12t-40 -32l-39 51q45 60 150 60q35 0 64 -7.5t50 -25t32.5 -45.5t11.5 -69 v-210h-73l-6 55q-17 -31 -47.5 -48.5t-75.5 -17.5z" />
<glyph unicode="&#xab;" horiz-adv-x="650" d="M473 0l-200 246v3l194 242h121l-196 -241l204 -250h-123zM243 0l-193 244v3l192 244h120l-194 -243l198 -248h-123z" />
<glyph unicode="&#xad;" horiz-adv-x="410" d="M362 305v-91h-313v91h313z" />
<glyph unicode="&#xae;" horiz-adv-x="473" d="M46 525q0 85 50 136.5t141 51.5t141 -51.5t50 -136.5t-50 -137t-141 -52t-141 52t-50 137zM78 525q0 -80 44 -121t115 -41q70 0 114 41t44 121q0 79 -44 120t-114 41q-71 0 -115 -41t-44 -120zM242 588h-40v-60h35q18 0 27.5 7t9.5 24q0 29 -32 29zM162 436v186h83 q35 0 52.5 -16.5t17.5 -45.5q0 -23 -9.5 -37t-25.5 -22l35 -65h-45l-30 58h-38v-58h-40z" />
<glyph unicode="&#xaf;" horiz-adv-x="600" d="M434 666v-69h-267v69h267z" />
<glyph unicode="&#xb0;" horiz-adv-x="468" d="M235 350q-88 0 -135.5 50t-47.5 131q0 83 47.5 132.5t135.5 49.5q87 0 135 -49.5t48 -132.5q0 -41 -12.5 -74t-36 -57t-57.5 -37t-77 -13zM235 645q-48 0 -77 -28.5t-29 -85.5t29 -85t77 -28q47 0 76 28t29 85t-29 85.5t-76 28.5z" />
<glyph unicode="&#xb1;" horiz-adv-x="507" d="M297 140h-86v145h-161v79h161v147h86v-147h160v-79h-160v-145zM457 79v-79h-407v79h407z" />
<glyph unicode="&#xb2;" horiz-adv-x="375" d="M21 294zM31 294v68l135 118q37 33 54.5 56.5t17.5 49.5q0 29 -17.5 41t-47.5 12q-35 0 -55.5 -14t-36.5 -45l-60 43q26 49 65.5 69.5t96.5 20.5q63 0 104 -28t41 -89q0 -42 -23.5 -78t-74.5 -81l-76 -69l190 3v-77h-313z" />
<glyph unicode="&#xb3;" horiz-adv-x="376" d="M22 283zM180 283q-57 0 -95.5 18t-62.5 59l61 44q17 -27 38.5 -38.5t52.5 -11.5q37 0 57.5 14.5t20.5 44.5q0 55 -70 55h-49v67h49q28 0 43.5 13.5t15.5 39.5q0 52 -68 52q-30 0 -48.5 -11t-34.5 -40l-61 39q24 45 61 65t92 20q70 0 108.5 -29.5t38.5 -86.5 q0 -61 -55 -92q30 -12 47 -34.5t17 -58.5q0 -58 -39.5 -93.5t-118.5 -35.5z" />
<glyph unicode="&#xb4;" horiz-adv-x="600" d="M448 690l-120 -117h-91v4l78 119h133v-6z" />
<glyph unicode="&#xb6;" horiz-adv-x="668" d="M179 469q0 -71 35.5 -106t98.5 -37h19v278h-20q-67 -2 -100 -37.5t-33 -97.5zM501 604h-68v-279h68v279zM602 700v-700h-101v230h-68v-230h-101v231h-4q-122 2 -188.5 62.5t-66.5 176.5q0 108 62.5 168.5t184.5 61.5h282z" />
<glyph unicode="&#xb7;" horiz-adv-x="240" d="M50 271zM50 337q0 34 19 50.5t52 16.5q32 0 50.5 -16.5t18.5 -50.5q0 -32 -18.5 -49t-50.5 -17q-33 0 -52 17t-19 49z" />
<glyph unicode="&#xb8;" horiz-adv-x="600" d="M298 0h68l-17 -57h2q37 -1 65 -23t28 -64q0 -25 -10 -43.5t-27 -30.5t-39.5 -18t-47.5 -6q-41 0 -74 15t-53 48l47 45q14 -23 31 -35t45 -12q23 0 37.5 9t14.5 29q0 19 -14 29.5t-39 10.5q-6 0 -11.5 -0.5t-11.5 -1.5l-19 15z" />
<glyph unicode="&#xb9;" horiz-adv-x="240" d="M10 294zM180 294h-89v306l-48 -30l-33 68l113 66h57v-410z" />
<glyph unicode="&#xba;" horiz-adv-x="426" d="M38 530q0 95 46.5 139t130.5 44q88 0 132 -43t44 -140q0 -94 -45 -139.5t-131 -45.5t-131.5 44t-45.5 141zM308 530q0 63 -23 90t-71 27t-70 -27t-22 -90q0 -65 22.5 -92t69.5 -27q48 0 71 27t23 92z" />
<glyph unicode="&#xbb;" horiz-adv-x="650" d="M177 491l200 -246v-3l-194 -242h-121l196 241l-204 250h123zM407 491l193 -244v-3l-192 -244h-120l194 243l-198 248h123z" />
<glyph unicode="&#xbc;" horiz-adv-x="875" d="M10 0zM180 293h-89v306l-48 -30l-33 68l113 66h57v-410zM586 700l-341 -700h-103l342 700h102zM493 91v60l127 257h87l-123 -242h136v155h82v-155h53v-75h-53v-91h-82v91h-227z" />
<glyph unicode="&#xbd;" horiz-adv-x="860" d="M10 0zM515 0v68l135 118q37 33 54.5 56.5t17.5 49.5q0 29 -17.5 41t-47.5 12q-35 0 -55.5 -14t-36.5 -45l-60 43q26 49 65.5 69.5t96.5 20.5q63 0 104 -28t41 -89q0 -42 -23.5 -78t-74.5 -81l-76 -69l190 3v-77h-313zM180 293h-89v306l-48 -30l-33 68l113 66h57v-410z M586 700l-341 -700h-103l342 700h102z" />
<glyph unicode="&#xbe;" horiz-adv-x="970" d="M22 0zM180 282q-57 0 -95.5 18t-62.5 59l61 44q17 -27 38.5 -38.5t52.5 -11.5q37 0 57.5 14.5t20.5 44.5q0 55 -70 55h-49v67h49q28 0 43.5 13.5t15.5 39.5q0 52 -68 52q-30 0 -48.5 -11t-34.5 -40l-61 39q24 45 61 65t92 20q70 0 108.5 -29.5t38.5 -86.5q0 -61 -55 -92 q30 -12 47 -34.5t17 -58.5q0 -58 -39.5 -93.5t-118.5 -35.5zM702 700l-341 -700h-103l342 700h102zM588 91v60l127 257h87l-123 -242h136v155h82v-155h53v-75h-53v-91h-82v91h-227z" />
<glyph unicode="&#xbf;" horiz-adv-x="511" d="M314 298l2 -162h-49q-147 0 -147 -135q0 -60 37.5 -92t108.5 -32q55 0 93.5 23t67.5 84l75 -52q-36 -76 -97 -111t-152 -35q-112 0 -176.5 54.5t-64.5 153.5q0 96 52 149t148 61l2 94h100zM335 441q0 -34 -18.5 -50.5t-51.5 -16.5q-32 0 -50.5 16.5t-18.5 50.5 q0 32 18.5 49t50.5 17q33 0 51.5 -17t18.5 -49z" />
<glyph unicode="&#xc0;" horiz-adv-x="647" d="M9 0zM320 590l-120 -366h242zM516 0l-44 131h-302l-43 -131h-118l242 700h144l242 -700h-121zM289 784l-120 117v6h134l78 -119v-4h-92z" />
<glyph unicode="&#xc1;" horiz-adv-x="647" d="M9 0zM320 590l-120 -366h242zM516 0l-44 131h-302l-43 -131h-118l242 700h144l242 -700h-121zM485 900l-120 -117h-91v4l78 119h133v-6z" />
<glyph unicode="&#xc2;" horiz-adv-x="647" d="M9 0zM320 590l-120 -366h242zM516 0l-44 131h-302l-43 -131h-118l242 700h144l242 -700h-121zM326 848l-66 -65h-105v3l122 120h101l124 -120v-3h-111z" />
<glyph unicode="&#xc3;" horiz-adv-x="647" d="M9 0zM320 590l-120 -366h242zM516 0l-44 131h-302l-43 -131h-118l242 700h144l242 -700h-121zM416 900h76q3 -31 -5 -52t-21.5 -33.5t-31.5 -18t-35 -5.5q-22 0 -40.5 6t-34.5 13.5t-30.5 13.5t-28.5 6q-18 0 -23.5 -11t-5.5 -25h-76q-2 31 5.5 52t21 33.5t31 18 t34.5 5.5q22 0 41 -6t35.5 -13.5t31 -13.5t28.5 -6q18 0 23 11t5 25z" />
<glyph unicode="&#xc4;" horiz-adv-x="647" d="M9 0zM320 590l-120 -366h242zM516 0l-44 131h-302l-43 -131h-118l242 700h144l242 -700h-121zM351 850q0 32 18 47.5t50 15.5t50 -15.5t18 -47.5t-18 -48t-50 -16t-50 16t-18 48zM164 850q0 32 18 47.5t50 15.5t50 -15.5t18 -47.5t-18 -48t-50 -16t-50 16t-18 48z" />
<glyph unicode="&#xc5;" horiz-adv-x="647" d="M9 0zM320 590l-120 -366h242zM516 0l-44 131h-302l-43 -131h-118l242 700h144l242 -700h-121zM223 855q0 46 29.5 72t74.5 26t73.5 -26t28.5 -72t-29 -71.5t-74 -25.5t-74 25.5t-29 71.5zM279 855q0 -22 13 -36t34 -14q20 0 34 14t14 36q0 23 -13.5 36.5t-33.5 13.5 q-22 0 -35 -13.5t-13 -36.5z" />
<glyph unicode="&#xc6;" horiz-adv-x="956" d="M326 591l-124 -367h240zM512 0l-42 131h-300l-44 -131h-117l249 700h646v-96h-466l66 -203h348v-97h-316l68 -208h310v-96h-402z" />
<glyph unicode="&#xc7;" horiz-adv-x="703" d="M385 -242q-41 0 -74 15t-53 48l47 45q14 -23 31 -35t45 -12q23 0 37.5 9t14.5 29q0 19 -14 29.5t-39 10.5q-6 0 -11.5 -0.5t-11.5 -1.5l-19 15l22 78q-146 7 -218 93.5t-72 269.5q0 97 20.5 166t61 112.5t101 63.5t141.5 20q99 0 163.5 -32.5t100.5 -109.5l-93 -55 q-27 58 -67.5 79.5t-103.5 21.5q-50 0 -88.5 -12t-64.5 -42.5t-40 -82t-14 -129.5t14 -130t40 -83t64.5 -44t88.5 -13q63 0 108.5 25t75.5 86l91 -53q-38 -72 -97.5 -108.5t-144.5 -42.5l-13 -45h2q37 -1 65 -23t28 -64q0 -25 -10 -43.5t-27 -30.5t-39.5 -18t-47.5 -6z" />
<glyph unicode="&#xc8;" horiz-adv-x="673" d="M104 0zM104 0v700h517v-96h-403v-203h352v-97h-352v-208h413v-96h-527zM335 784l-120 117v6h134l78 -119v-4h-92z" />
<glyph unicode="&#xc9;" horiz-adv-x="673" d="M104 0zM532 900l-120 -117h-91v4l78 119h133v-6zM104 0v700h517v-96h-403v-203h352v-97h-352v-208h413v-96h-527z" />
<glyph unicode="&#xca;" horiz-adv-x="673" d="M104 0zM372 848l-66 -65h-105v3l122 120h101l124 -120v-3h-111zM104 0v700h517v-96h-403v-203h352v-97h-352v-208h413v-96h-527z" />
<glyph unicode="&#xcb;" horiz-adv-x="673" d="M104 0zM398 850q0 32 18 47.5t50 15.5t50 -15.5t18 -47.5t-18 -48t-50 -16t-50 16t-18 48zM211 850q0 32 18 47.5t50 15.5t50 -15.5t18 -47.5t-18 -48t-50 -16t-50 16t-18 48zM104 0v700h517v-96h-403v-203h352v-97h-352v-208h413v-96h-527z" />
<glyph unicode="&#xcc;" horiz-adv-x="324" d="M4 0zM104 0v700h117v-700h-117zM124 784l-120 117v6h134l78 -119v-4h-92z" />
<glyph unicode="&#xcd;" horiz-adv-x="324" d="M104 0zM104 0v700h117v-700h-117zM321 900l-120 -117h-91v4l78 119h133v-6z" />
<glyph unicode="&#xce;" horiz-adv-x="324" d="M0 0zM104 0v700h117v-700h-117zM161 848l-66 -65h-105v3l122 120h101l124 -120v-3h-111z" />
<glyph unicode="&#xcf;" horiz-adv-x="324" d="M0 0zM104 0v700h117v-700h-117zM187 850q0 32 18 47.5t50 15.5t50 -15.5t18 -47.5t-18 -48t-50 -16t-50 16t-18 48zM0 850q0 32 18 47.5t50 15.5t50 -15.5t18 -47.5t-18 -48t-50 -16t-50 16t-18 48z" />
<glyph unicode="&#xd0;" horiz-adv-x="777" d="M395 0h-273v310h-78v90h78v300h278q157 0 232.5 -82.5t75.5 -263.5q0 -180 -77.5 -267t-235.5 -87zM239 97h150q46 0 83.5 12.5t63.5 42.5t40.5 78.5t14.5 120.5q0 69 -12.5 117t-37.5 78t-61 43.5t-82 13.5h-159v-203h145v-90h-145v-213z" />
<glyph unicode="&#xd1;" horiz-adv-x="792" d="M104 0zM578 0l-366 522l3 -522h-111v700h104l372 -531l-3 531h112v-700h-111zM484 900h76q3 -31 -5 -52t-21.5 -33.5t-31.5 -18t-35 -5.5q-22 0 -40.5 6t-34.5 13.5t-30.5 13.5t-28.5 6q-18 0 -23.5 -11t-5.5 -25h-76q-2 31 5.5 52t21 33.5t31 18t34.5 5.5q22 0 41 -6 t35.5 -13.5t31 -13.5t28.5 -6q18 0 23 11t5 25z" />
<glyph unicode="&#xd2;" horiz-adv-x="786" d="M70 0zM393 -13q-167 0 -245 87t-78 277t80 276t243 86q85 0 146.5 -21t101 -65.5t58 -113t18.5 -162.5q0 -190 -80.5 -277t-243.5 -87zM393 618q-51 0 -89.5 -13t-64.5 -43.5t-39 -82t-13 -129.5q0 -76 13 -127.5t39 -82.5t64.5 -44.5t89.5 -13.5t89.5 13t64.5 44.5 t39 83t13 129.5q0 75 -13 126t-39 82t-64.5 44.5t-89.5 13.5zM355 785l-120 117v6h134l78 -119v-4h-92z" />
<glyph unicode="&#xd3;" horiz-adv-x="786" d="M70 0zM551 900l-120 -117h-91v4l78 119h133v-6zM393 -13q-167 0 -245 87t-78 277t80 276t243 86q85 0 146.5 -21t101 -65.5t58 -113t18.5 -162.5q0 -190 -80.5 -277t-243.5 -87zM393 618q-51 0 -89.5 -13t-64.5 -43.5t-39 -82t-13 -129.5q0 -76 13 -127.5t39 -82.5 t64.5 -44.5t89.5 -13.5t89.5 13t64.5 44.5t39 83t13 129.5q0 75 -13 126t-39 82t-64.5 44.5t-89.5 13.5z" />
<glyph unicode="&#xd4;" horiz-adv-x="786" d="M70 0zM392 848l-66 -65h-105v3l122 120h101l124 -120v-3h-111zM393 -13q-167 0 -245 87t-78 277t80 276t243 86q85 0 146.5 -21t101 -65.5t58 -113t18.5 -162.5q0 -190 -80.5 -277t-243.5 -87zM393 618q-51 0 -89.5 -13t-64.5 -43.5t-39 -82t-13 -129.5q0 -76 13 -127.5 t39 -82.5t64.5 -44.5t89.5 -13.5t89.5 13t64.5 44.5t39 83t13 129.5q0 75 -13 126t-39 82t-64.5 44.5t-89.5 13.5z" />
<glyph unicode="&#xd5;" horiz-adv-x="786" d="M70 0zM393 -13q-167 0 -245 87t-78 277t80 276t243 86q85 0 146.5 -21t101 -65.5t58 -113t18.5 -162.5q0 -190 -80.5 -277t-243.5 -87zM393 618q-51 0 -89.5 -13t-64.5 -43.5t-39 -82t-13 -129.5q0 -76 13 -127.5t39 -82.5t64.5 -44.5t89.5 -13.5t89.5 13t64.5 44.5 t39 83t13 129.5q0 75 -13 126t-39 82t-64.5 44.5t-89.5 13.5zM481 900h76q3 -31 -5 -52t-21.5 -33.5t-31.5 -18t-35 -5.5q-22 0 -40.5 6t-34.5 13.5t-30.5 13.5t-28.5 6q-18 0 -23.5 -11t-5.5 -25h-76q-2 31 5.5 52t21 33.5t31 18t34.5 5.5q22 0 41 -6t35.5 -13.5t31 -13.5 t28.5 -6q18 0 23 11t5 25z" />
<glyph unicode="&#xd6;" horiz-adv-x="786" d="M70 0zM418 850q0 32 18 47.5t50 15.5t50 -15.5t18 -47.5t-18 -48t-50 -16t-50 16t-18 48zM231 850q0 32 18 47.5t50 15.5t50 -15.5t18 -47.5t-18 -48t-50 -16t-50 16t-18 48zM393 -13q-167 0 -245 87t-78 277t80 276t243 86q85 0 146.5 -21t101 -65.5t58 -113 t18.5 -162.5q0 -190 -80.5 -277t-243.5 -87zM393 618q-51 0 -89.5 -13t-64.5 -43.5t-39 -82t-13 -129.5q0 -76 13 -127.5t39 -82.5t64.5 -44.5t89.5 -13.5t89.5 13t64.5 44.5t39 83t13 129.5q0 75 -13 126t-39 82t-64.5 44.5t-89.5 13.5z" />
<glyph unicode="&#xd7;" horiz-adv-x="497" d="M123 135l-55 55l123 122l-124 126l58 58l125 -125l124 124l54 -54l-124 -124l126 -126l-59 -58l-126 125z" />
<glyph unicode="&#xd8;" horiz-adv-x="796" d="M145 0h-102l89 102q-29 45 -43 106.5t-14 142.5q0 189 80 275.5t243 86.5q140 0 217 -61l42 48h102l-92 -105q55 -88 55 -244q0 -95 -20 -164t-60 -113.5t-101 -65.5t-142 -21q-137 0 -214 59zM543 569q-26 26 -62 37.5t-83 11.5q-51 0 -89.5 -13t-64.5 -43.5t-39 -82 t-13 -129.5q0 -99 23 -154zM256 127q26 -25 61 -35t81 -10q51 0 89.5 13t64.5 44t39 83t13 130q0 47 -5 83.5t-16 64.5z" />
<glyph unicode="&#xd9;" horiz-adv-x="759" d="M86 0zM556 273v427h117v-421q0 -148 -78 -220t-215 -72q-141 0 -217.5 72t-76.5 220v421h117v-427q0 -50 12.5 -86t35.5 -59t55.5 -34t73.5 -11q81 0 128.5 44.5t47.5 145.5zM344 785l-120 117v6h134l78 -119v-4h-92z" />
<glyph unicode="&#xda;" horiz-adv-x="759" d="M86 0zM539 900l-120 -117h-91v4l78 119h133v-6zM556 273v427h117v-421q0 -148 -78 -220t-215 -72q-141 0 -217.5 72t-76.5 220v421h117v-427q0 -50 12.5 -86t35.5 -59t55.5 -34t73.5 -11q81 0 128.5 44.5t47.5 145.5z" />
<glyph unicode="&#xdb;" horiz-adv-x="759" d="M86 0zM380 848l-66 -65h-105v3l122 120h101l124 -120v-3h-111zM556 273v427h117v-421q0 -148 -78 -220t-215 -72q-141 0 -217.5 72t-76.5 220v421h117v-427q0 -50 12.5 -86t35.5 -59t55.5 -34t73.5 -11q81 0 128.5 44.5t47.5 145.5z" />
<glyph unicode="&#xdc;" horiz-adv-x="759" d="M86 0zM406 850q0 32 18 47.5t50 15.5t50 -15.5t18 -47.5t-18 -48t-50 -16t-50 16t-18 48zM219 850q0 32 18 47.5t50 15.5t50 -15.5t18 -47.5t-18 -48t-50 -16t-50 16t-18 48zM556 273v427h117v-421q0 -148 -78 -220t-215 -72q-141 0 -217.5 72t-76.5 220v421h117v-427 q0 -50 12.5 -86t35.5 -59t55.5 -34t73.5 -11q81 0 128.5 44.5t47.5 145.5z" />
<glyph unicode="&#xdd;" horiz-adv-x="637" d="M9 0zM260 273l-251 427h128l185 -328l183 328h123l-251 -429v-271h-117v273zM478 900l-120 -117h-91v4l78 119h133v-6z" />
<glyph unicode="&#xde;" horiz-adv-x="667" d="M104 0v700h117v-122h177q117 0 173.5 -57.5t56.5 -159.5q0 -112 -64.5 -169t-179.5 -57h-163v-135h-117zM388 478h-167v-245h167q59 0 91.5 30.5t32.5 93.5q0 56 -29.5 88.5t-94.5 32.5z" />
<glyph unicode="&#xdf;" horiz-adv-x="636" d="M348 330h-51v87h48q53 0 76 30.5t23 74.5q0 56 -32 80.5t-89 24.5q-65 0 -98 -37.5t-33 -109.5v-480h-112v486q0 111 63.5 171t178.5 60t173 -51t58 -137q0 -51 -20 -87t-53 -58q59 -19 87.5 -65t28.5 -110q0 -49 -15.5 -89t-45 -68t-70.5 -43t-92 -15q-29 0 -53 3.5 t-49 13.5l16 85q17 -7 32 -10.5t35 -3.5q63 0 97.5 31.5t34.5 95.5q0 54 -31 87.5t-107 33.5z" />
<glyph unicode="&#xe0;" horiz-adv-x="576" d="M53 0zM251 68q61 0 98 39.5t38 112.5v5h-110q-63 0 -90.5 -20.5t-27.5 -64.5q0 -34 22 -53t70 -19zM221 -12q-75 0 -121.5 37.5t-46.5 108.5q0 36 12.5 66.5t39 52t67.5 34t98 12.5h117q-2 67 -33 92t-89 25q-52 0 -85.5 -17t-56.5 -45l-52 66q62 83 208 83 q48 0 88.5 -10t69.5 -34t45 -63.5t16 -97.5v-298h-96l-9 82q-23 -44 -66 -69t-106 -25zM239 573l-120 117v6h134l78 -119v-4h-92z" />
<glyph unicode="&#xe1;" horiz-adv-x="576" d="M53 0zM251 68q61 0 98 39.5t38 112.5v5h-110q-63 0 -90.5 -20.5t-27.5 -64.5q0 -34 22 -53t70 -19zM221 -12q-75 0 -121.5 37.5t-46.5 108.5q0 36 12.5 66.5t39 52t67.5 34t98 12.5h117q-2 67 -33 92t-89 25q-52 0 -85.5 -17t-56.5 -45l-52 66q62 83 208 83 q48 0 88.5 -10t69.5 -34t45 -63.5t16 -97.5v-298h-96l-9 82q-23 -44 -66 -69t-106 -25zM435 690l-120 -117h-91v4l78 119h133v-6z" />
<glyph unicode="&#xe2;" horiz-adv-x="576" d="M53 0zM251 68q61 0 98 39.5t38 112.5v5h-110q-63 0 -90.5 -20.5t-27.5 -64.5q0 -34 22 -53t70 -19zM221 -12q-75 0 -121.5 37.5t-46.5 108.5q0 36 12.5 66.5t39 52t67.5 34t98 12.5h117q-2 67 -33 92t-89 25q-52 0 -85.5 -17t-56.5 -45l-52 66q62 83 208 83 q48 0 88.5 -10t69.5 -34t45 -63.5t16 -97.5v-298h-96l-9 82q-23 -44 -66 -69t-106 -25zM276 638l-66 -65h-105v3l122 120h101l124 -120v-3h-111z" />
<glyph unicode="&#xe3;" horiz-adv-x="576" d="M53 0zM251 68q61 0 98 39.5t38 112.5v5h-110q-63 0 -90.5 -20.5t-27.5 -64.5q0 -34 22 -53t70 -19zM221 -12q-75 0 -121.5 37.5t-46.5 108.5q0 36 12.5 66.5t39 52t67.5 34t98 12.5h117q-2 67 -33 92t-89 25q-52 0 -85.5 -17t-56.5 -45l-52 66q62 83 208 83 q48 0 88.5 -10t69.5 -34t45 -63.5t16 -97.5v-298h-96l-9 82q-23 -44 -66 -69t-106 -25zM366 690h76q3 -31 -5 -52t-21.5 -33.5t-31.5 -18t-35 -5.5q-22 0 -40.5 6t-34.5 13.5t-30.5 13.5t-28.5 6q-18 0 -23.5 -11t-5.5 -25h-76q-2 31 5.5 52t21 33.5t31 18t34.5 5.5 q22 0 41 -6t35.5 -13.5t31 -13.5t28.5 -6q18 0 23 11t5 25z" />
<glyph unicode="&#xe4;" horiz-adv-x="576" d="M53 0zM251 68q61 0 98 39.5t38 112.5v5h-110q-63 0 -90.5 -20.5t-27.5 -64.5q0 -34 22 -53t70 -19zM221 -12q-75 0 -121.5 37.5t-46.5 108.5q0 36 12.5 66.5t39 52t67.5 34t98 12.5h117q-2 67 -33 92t-89 25q-52 0 -85.5 -17t-56.5 -45l-52 66q62 83 208 83 q48 0 88.5 -10t69.5 -34t45 -63.5t16 -97.5v-298h-96l-9 82q-23 -44 -66 -69t-106 -25zM301 640q0 32 18 47.5t50 15.5t50 -15.5t18 -47.5t-18 -48t-50 -16t-50 16t-18 48zM114 640q0 32 18 47.5t50 15.5t50 -15.5t18 -47.5t-18 -48t-50 -16t-50 16t-18 48z" />
<glyph unicode="&#xe5;" horiz-adv-x="576" d="M53 0zM251 68q61 0 98 39.5t38 112.5v5h-110q-63 0 -90.5 -20.5t-27.5 -64.5q0 -34 22 -53t70 -19zM221 -12q-75 0 -121.5 37.5t-46.5 108.5q0 36 12.5 66.5t39 52t67.5 34t98 12.5h117q-2 67 -33 92t-89 25q-52 0 -85.5 -17t-56.5 -45l-52 66q62 83 208 83 q48 0 88.5 -10t69.5 -34t45 -63.5t16 -97.5v-298h-96l-9 82q-23 -44 -66 -69t-106 -25zM173 645q0 46 29.5 72t74.5 26t73.5 -26t28.5 -72t-29 -71.5t-74 -25.5t-74 25.5t-29 71.5zM229 645q0 -22 13 -36t34 -14q20 0 34 14t14 36q0 23 -13.5 36.5t-33.5 13.5 q-22 0 -35 -13.5t-13 -36.5z" />
<glyph unicode="&#xe6;" horiz-adv-x="893" d="M225 -12q-76 0 -124 37.5t-48 108.5q0 35 12.5 64.5t39 51t67.5 33.5t98 12h117q-1 35 -9 58.5t-23.5 37.5t-38 19.5t-51.5 5.5q-51 0 -85 -16.5t-57 -45.5l-52 66q62 83 207 83q57 0 101.5 -17t70.5 -59q59 76 179 76q56 0 97 -18t67.5 -50t39 -75t12.5 -92 q0 -12 -0.5 -23.5t-2.5 -24.5h-346q3 -81 38 -115t100 -34q48 0 80 16t52 61l76 -43q-30 -61 -84.5 -89.5t-129.5 -28.5q-70 0 -120 25.5t-78 79.5q-26 -48 -77.5 -76t-127.5 -28zM625 419q-54 0 -87 -28.5t-40 -95.5h240q-4 68 -32.5 96t-80.5 28zM251 68q60 0 98 40 t38 112h-110q-63 0 -90.5 -20t-27.5 -64q0 -32 22 -50t70 -18z" />
<glyph unicode="&#xe7;" horiz-adv-x="535" d="M285 -242q-41 0 -74 15t-53 48l47 45q14 -23 31 -35t45 -12q23 0 37.5 9t14.5 29q0 19 -14 29.5t-39 10.5q-6 0 -11.5 -0.5t-11.5 -1.5l-19 15l22 78q-99 7 -154 69t-55 188q0 134 63.5 196t179.5 62q77 0 126.5 -27.5t78.5 -81.5l-79 -54q-36 74 -125 74 q-68 0 -100.5 -37t-32.5 -133q0 -91 32 -130t100 -39q48 0 79 17.5t51 61.5l81 -45q-26 -56 -70 -85t-107 -35l-14 -46h2q37 -1 65 -23t28 -64q0 -25 -10 -43.5t-27 -30.5t-39.5 -18t-47.5 -6z" />
<glyph unicode="&#xe8;" horiz-adv-x="555" d="M51 0zM291 -13q-113 0 -176.5 62.5t-63.5 194.5q0 126 61.5 192.5t178.5 66.5q57 0 98 -18.5t68 -50.5t39.5 -76.5t12.5 -95.5q0 -22 -3 -49h-346q5 -78 39.5 -110t97.5 -32q48 0 80 16t53 61l75 -43q-29 -62 -84 -90t-130 -28zM288 419q-56 0 -89 -30t-38 -101h241 q-3 69 -32 100t-82 31zM248 573l-120 117v6h134l78 -119v-4h-92z" />
<glyph unicode="&#xe9;" horiz-adv-x="555" d="M51 0zM444 690l-120 -117h-91v4l78 119h133v-6zM291 -13q-113 0 -176.5 62.5t-63.5 194.5q0 126 61.5 192.5t178.5 66.5q57 0 98 -18.5t68 -50.5t39.5 -76.5t12.5 -95.5q0 -22 -3 -49h-346q5 -78 39.5 -110t97.5 -32q48 0 80 16t53 61l75 -43q-29 -62 -84 -90t-130 -28z M288 419q-56 0 -89 -30t-38 -101h241q-3 69 -32 100t-82 31z" />
<glyph unicode="&#xea;" horiz-adv-x="555" d="M51 0zM285 638l-66 -65h-105v3l122 120h101l124 -120v-3h-111zM291 -13q-113 0 -176.5 62.5t-63.5 194.5q0 126 61.5 192.5t178.5 66.5q57 0 98 -18.5t68 -50.5t39.5 -76.5t12.5 -95.5q0 -22 -3 -49h-346q5 -78 39.5 -110t97.5 -32q48 0 80 16t53 61l75 -43 q-29 -62 -84 -90t-130 -28zM288 419q-56 0 -89 -30t-38 -101h241q-3 69 -32 100t-82 31z" />
<glyph unicode="&#xeb;" horiz-adv-x="555" d="M51 0zM309 640q0 32 18 47.5t50 15.5t50 -15.5t18 -47.5t-18 -48t-50 -16t-50 16t-18 48zM122 640q0 32 18 47.5t50 15.5t50 -15.5t18 -47.5t-18 -48t-50 -16t-50 16t-18 48zM291 -13q-113 0 -176.5 62.5t-63.5 194.5q0 126 61.5 192.5t178.5 66.5q57 0 98 -18.5 t68 -50.5t39.5 -76.5t12.5 -95.5q0 -22 -3 -49h-346q5 -78 39.5 -110t97.5 -32q48 0 80 16t53 61l75 -43q-29 -62 -84 -90t-130 -28zM288 419q-56 0 -89 -30t-38 -101h241q-3 69 -32 100t-82 31z" />
<glyph unicode="&#xec;" horiz-adv-x="284" d="M0 0zM86 491h113v-491h-113v491zM105 573l-120 117v6h134l78 -119v-4h-92z" />
<glyph unicode="&#xed;" horiz-adv-x="284" d="M86 0zM301 690l-120 -117h-91v4l78 119h133v-6zM86 491h113v-491h-113v491z" />
<glyph unicode="&#xee;" horiz-adv-x="284" d="M0 0zM141 638l-66 -65h-105v3l122 120h101l124 -120v-3h-111zM86 491h113v-491h-113v491z" />
<glyph unicode="&#xef;" horiz-adv-x="284" d="M0 0zM167 640q0 32 18 47.5t50 15.5t50 -15.5t18 -47.5t-18 -48t-50 -16t-50 16t-18 48zM-20 640q0 32 18 47.5t50 15.5t50 -15.5t18 -47.5t-18 -48t-50 -16t-50 16t-18 48zM86 491h113v-491h-113v491z" />
<glyph unicode="&#xf0;" horiz-adv-x="597" d="M480 724l34 -49l-76 -48q56 -64 80.5 -155t24.5 -207v-17q0 -136 -62 -198.5t-183 -62.5q-120 0 -183.5 61t-63.5 194q0 132 64 193t177 61q80 0 127 -43q-18 71 -63 122l-81 -52l-33 49l68 44q-52 37 -123 54l31 74q106 -21 176 -76zM433 241q0 92 -32.5 131t-102.5 39 q-71 0 -104 -39t-33 -131q0 -91 34 -129.5t103 -38.5t102 38.5t33 129.5z" />
<glyph unicode="&#xf1;" horiz-adv-x="636" d="M84 0zM84 491h96l11 -91q28 54 76.5 78.5t108.5 24.5q94 0 138 -51t44 -145v-307h-113v275q0 72 -27.5 101.5t-80.5 29.5q-63 0 -100.5 -41.5t-39.5 -121.5v-243h-113v491zM425 690h76q3 -31 -5 -52t-21.5 -33.5t-31.5 -18t-35 -5.5q-22 0 -40.5 6t-34.5 13.5t-30.5 13.5 t-28.5 6q-18 0 -23.5 -11t-5.5 -25h-76q-2 31 5.5 52t21 33.5t31 18t34.5 5.5q22 0 41 -6t35.5 -13.5t31 -13.5t28.5 -6q18 0 23 11t5 25z" />
<glyph unicode="&#xf2;" horiz-adv-x="593" d="M51 0zM51 246q0 133 64.5 195t181.5 62q124 0 184.5 -61t60.5 -196q0 -132 -62 -195.5t-183 -63.5t-183.5 62t-62.5 197zM432 245q0 94 -32.5 132.5t-102.5 38.5q-72 0 -104 -38.5t-32 -132.5q0 -93 33 -132t103 -39q69 0 102 39t33 132zM260 573l-120 117v6h134l78 -119 v-4h-92z" />
<glyph unicode="&#xf3;" horiz-adv-x="593" d="M51 0zM456 690l-120 -117h-91v4l78 119h133v-6zM51 246q0 133 64.5 195t181.5 62q124 0 184.5 -61t60.5 -196q0 -132 -62 -195.5t-183 -63.5t-183.5 62t-62.5 197zM432 245q0 94 -32.5 132.5t-102.5 38.5q-72 0 -104 -38.5t-32 -132.5q0 -93 33 -132t103 -39q69 0 102 39 t33 132z" />
<glyph unicode="&#xf4;" horiz-adv-x="593" d="M51 0zM295 638l-66 -65h-105v3l122 120h101l124 -120v-3h-111zM51 246q0 133 64.5 195t181.5 62q124 0 184.5 -61t60.5 -196q0 -132 -62 -195.5t-183 -63.5t-183.5 62t-62.5 197zM432 245q0 94 -32.5 132.5t-102.5 38.5q-72 0 -104 -38.5t-32 -132.5q0 -93 33 -132 t103 -39q69 0 102 39t33 132z" />
<glyph unicode="&#xf5;" horiz-adv-x="593" d="M51 0zM51 246q0 133 64.5 195t181.5 62q124 0 184.5 -61t60.5 -196q0 -132 -62 -195.5t-183 -63.5t-183.5 62t-62.5 197zM432 245q0 94 -32.5 132.5t-102.5 38.5q-72 0 -104 -38.5t-32 -132.5q0 -93 33 -132t103 -39q69 0 102 39t33 132zM385 690h76q3 -31 -5 -52 t-21.5 -33.5t-31.5 -18t-35 -5.5q-22 0 -40.5 6t-34.5 13.5t-30.5 13.5t-28.5 6q-18 0 -23.5 -11t-5.5 -25h-76q-2 31 5.5 52t21 33.5t31 18t34.5 5.5q22 0 41 -6t35.5 -13.5t31 -13.5t28.5 -6q18 0 23 11t5 25z" />
<glyph unicode="&#xf6;" horiz-adv-x="593" d="M51 0zM321 640q0 32 18 47.5t50 15.5t50 -15.5t18 -47.5t-18 -48t-50 -16t-50 16t-18 48zM134 640q0 32 18 47.5t50 15.5t50 -15.5t18 -47.5t-18 -48t-50 -16t-50 16t-18 48zM51 246q0 133 64.5 195t181.5 62q124 0 184.5 -61t60.5 -196q0 -132 -62 -195.5t-183 -63.5 t-183.5 62t-62.5 197zM432 245q0 94 -32.5 132.5t-102.5 38.5q-72 0 -104 -38.5t-32 -132.5q0 -93 33 -132t103 -39q69 0 102 39t33 132z" />
<glyph unicode="&#xf7;" horiz-adv-x="507" d="M188 480q0 30 17.5 46.5t47.5 16.5t48 -16.5t18 -46.5q0 -29 -18 -46t-48 -17t-47.5 17t-17.5 46zM457 349v-79h-407v79h407zM188 142q0 31 17.5 47t47.5 16t48 -16t18 -47q0 -29 -18 -46t-48 -17t-47.5 17t-17.5 46z" />
<glyph unicode="&#xf8;" horiz-adv-x="603" d="M588 491l-79 -82q38 -61 38 -163q0 -132 -62 -195.5t-183 -63.5q-100 0 -160 45l-31 -32h-92l77 80q-40 59 -40 166q0 133 64.5 195t181.5 62q103 0 163 -45l32 33h91zM175 160l221 228q-17 16 -40.5 23t-53.5 7q-72 0 -104.5 -39.5t-32.5 -133.5q0 -26 2.5 -47t7.5 -38z M438 245q0 49 -9 82l-220 -227q17 -15 39.5 -21.5t53.5 -6.5q70 0 103 39.5t33 133.5z" />
<glyph unicode="&#xf9;" horiz-adv-x="632" d="M78 0zM453 0l-9 85q-28 -51 -75.5 -74.5t-101.5 -23.5q-98 0 -143.5 53.5t-45.5 146.5v304h113v-280q0 -132 109 -132q61 0 97 41t38 120v251h113v-491h-95zM275 573l-120 117v6h134l78 -119v-4h-92z" />
<glyph unicode="&#xfa;" horiz-adv-x="632" d="M78 0zM471 690l-120 -117h-91v4l78 119h133v-6zM453 0l-9 85q-28 -51 -75.5 -74.5t-101.5 -23.5q-98 0 -143.5 53.5t-45.5 146.5v304h113v-280q0 -132 109 -132q61 0 97 41t38 120v251h113v-491h-95z" />
<glyph unicode="&#xfb;" horiz-adv-x="632" d="M78 0zM311 638l-66 -65h-105v3l122 120h101l124 -120v-3h-111zM453 0l-9 85q-28 -51 -75.5 -74.5t-101.5 -23.5q-98 0 -143.5 53.5t-45.5 146.5v304h113v-280q0 -132 109 -132q61 0 97 41t38 120v251h113v-491h-95z" />
<glyph unicode="&#xfc;" horiz-adv-x="632" d="M78 0zM337 640q0 32 18 47.5t50 15.5t50 -15.5t18 -47.5t-18 -48t-50 -16t-50 16t-18 48zM150 640q0 32 18 47.5t50 15.5t50 -15.5t18 -47.5t-18 -48t-50 -16t-50 16t-18 48zM453 0l-9 85q-28 -51 -75.5 -74.5t-101.5 -23.5q-98 0 -143.5 53.5t-45.5 146.5v304h113v-280 q0 -132 109 -132q61 0 97 41t38 120v251h113v-491h-95z" />
<glyph unicode="&#xfd;" horiz-adv-x="525" d="M5 0zM187 -56l17 50l-199 497h118l140 -378l139 378h117l-234 -584q-29 -72 -76.5 -98t-109.5 -26q-25 0 -45 3.5t-44 11.5l15 87q17 -6 32 -9.5t35 -3.5q12 0 25.5 2.5t26 10t23.5 22t20 37.5zM421 690l-120 -117h-91v4l78 119h133v-6z" />
<glyph unicode="&#xfe;" horiz-adv-x="622" d="M196 244q0 -89 37 -129.5t95 -40.5q66 0 98.5 41.5t32.5 129.5q0 90 -32.5 130.5t-95.5 40.5q-59 0 -97 -40.5t-38 -131.5zM197 700v-286q25 45 68.5 67t100.5 22q100 0 152 -64.5t52 -189.5t-56 -193.5t-165 -68.5q-51 0 -89.5 18.5t-62.5 55.5v-248h-113v887h113z" />
<glyph unicode="&#xff;" horiz-adv-x="525" d="M5 0zM187 -56l17 50l-199 497h118l140 -378l139 378h117l-234 -584q-29 -72 -76.5 -98t-109.5 -26q-25 0 -45 3.5t-44 11.5l15 87q17 -6 32 -9.5t35 -3.5q12 0 25.5 2.5t26 10t23.5 22t20 37.5zM287 640q0 32 18 47.5t50 15.5t50 -15.5t18 -47.5t-18 -48t-50 -16t-50 16 t-18 48zM100 640q0 32 18 47.5t50 15.5t50 -15.5t18 -47.5t-18 -48t-50 -16t-50 16t-18 48z" />
<glyph unicode="&#x100;" horiz-adv-x="647" d="M9 0zM320 590l-120 -366h242zM516 0l-44 131h-302l-43 -131h-118l242 700h144l242 -700h-121zM460 876v-69h-267v69h267z" />
<glyph unicode="&#x101;" horiz-adv-x="576" d="M53 0zM251 68q61 0 98 39.5t38 112.5v5h-110q-63 0 -90.5 -20.5t-27.5 -64.5q0 -34 22 -53t70 -19zM221 -12q-75 0 -121.5 37.5t-46.5 108.5q0 36 12.5 66.5t39 52t67.5 34t98 12.5h117q-2 67 -33 92t-89 25q-52 0 -85.5 -17t-56.5 -45l-52 66q62 83 208 83 q48 0 88.5 -10t69.5 -34t45 -63.5t16 -97.5v-298h-96l-9 82q-23 -44 -66 -69t-106 -25zM410 666v-69h-267v69h267z" />
<glyph unicode="&#x102;" horiz-adv-x="647" d="M9 0zM320 590l-120 -366h242zM516 0l-44 131h-302l-43 -131h-118l242 700h144l242 -700h-121zM401 906h78q0 -37 -10.5 -62t-30.5 -40t-48 -21t-64 -6q-72 0 -112.5 27.5t-40.5 101.5h77q0 -38 18.5 -52t56.5 -14t57 14t19 52z" />
<glyph unicode="&#x103;" horiz-adv-x="576" d="M53 0zM251 68q61 0 98 39.5t38 112.5v5h-110q-63 0 -90.5 -20.5t-27.5 -64.5q0 -34 22 -53t70 -19zM221 -12q-75 0 -121.5 37.5t-46.5 108.5q0 36 12.5 66.5t39 52t67.5 34t98 12.5h117q-2 67 -33 92t-89 25q-52 0 -85.5 -17t-56.5 -45l-52 66q62 83 208 83 q48 0 88.5 -10t69.5 -34t45 -63.5t16 -97.5v-298h-96l-9 82q-23 -44 -66 -69t-106 -25zM351 696h78q0 -37 -10.5 -62t-30.5 -40t-48 -21t-64 -6q-72 0 -112.5 27.5t-40.5 101.5h77q0 -38 18.5 -52t56.5 -14t57 14t19 52z" />
<glyph unicode="&#x104;" horiz-adv-x="647" d="M507 21l-35 110h-302l-43 -131h-118l242 700h144l242 -700h-43q-47 -4 -71 -33.5t-24 -63.5q0 -28 16.5 -39t43.5 -11q18 0 35 4t32 13l16 -64q-39 -24 -91 -24q-24 0 -47 5t-40.5 18t-28.5 33.5t-11 52.5q0 48 24.5 80.5t58.5 49.5zM320 590l-120 -366h242z" />
<glyph unicode="&#x105;" horiz-adv-x="576" d="M541 -194q-41 -24 -92 -24q-24 0 -46.5 5t-40.5 18t-28.5 33.5t-10.5 52.5q0 45 22 77.5t55 50.5l-7 63q-23 -44 -66 -69t-106 -25q-75 0 -121.5 37.5t-46.5 108.5q0 36 12.5 66.5t39 52t67.5 34t98 12.5h117q-2 67 -33 92t-89 25q-52 0 -85.5 -17t-56.5 -45l-52 66 q62 83 208 83q48 0 88.5 -10t69.5 -34t45 -63.5t16 -97.5v-298h-6q-48 -4 -71 -33.5t-23 -63.5q0 -28 16 -39t44 -11q38 0 66 17zM251 68q61 0 98 39.5t38 112.5v5h-110q-63 0 -90.5 -20.5t-27.5 -64.5q0 -34 22 -53t70 -19z" />
<glyph unicode="&#x106;" horiz-adv-x="703" d="M70 0zM553 901l-120 -117h-91v4l78 119h133v-6zM392 -13q-81 0 -141 20.5t-100.5 65t-60.5 113.5t-20 165q0 97 20.5 166t61 112.5t101 63.5t141.5 20q99 0 163.5 -32.5t100.5 -109.5l-93 -55q-27 58 -67.5 79.5t-103.5 21.5q-50 0 -88.5 -12t-64.5 -42.5t-40 -82 t-14 -129.5t14 -130t40 -83t64.5 -44t88.5 -13q63 0 108.5 25t75.5 86l91 -53q-42 -80 -109.5 -116t-167.5 -36z" />
<glyph unicode="&#x107;" horiz-adv-x="535" d="M51 0zM452 690l-120 -117h-91v4l78 119h133v-6zM291 -13q-113 0 -176.5 61t-63.5 197q0 134 63.5 196t179.5 62q77 0 126.5 -27.5t78.5 -81.5l-79 -54q-36 74 -125 74q-68 0 -100.5 -37t-32.5 -133q0 -91 32 -130t100 -39q48 0 79 17.5t51 61.5l81 -45 q-29 -63 -82.5 -92.5t-131.5 -29.5z" />
<glyph unicode="&#x108;" horiz-adv-x="703" d="M70 0zM395 849l-66 -65h-105v3l122 120h101l124 -120v-3h-111zM392 -13q-81 0 -141 20.5t-100.5 65t-60.5 113.5t-20 165q0 97 20.5 166t61 112.5t101 63.5t141.5 20q99 0 163.5 -32.5t100.5 -109.5l-93 -55q-27 58 -67.5 79.5t-103.5 21.5q-50 0 -88.5 -12t-64.5 -42.5 t-40 -82t-14 -129.5t14 -130t40 -83t64.5 -44t88.5 -13q63 0 108.5 25t75.5 86l91 -53q-42 -80 -109.5 -116t-167.5 -36z" />
<glyph unicode="&#x109;" horiz-adv-x="535" d="M51 0zM293 638l-66 -65h-105v3l122 120h101l124 -120v-3h-111zM291 -13q-113 0 -176.5 61t-63.5 197q0 134 63.5 196t179.5 62q77 0 126.5 -27.5t78.5 -81.5l-79 -54q-36 74 -125 74q-68 0 -100.5 -37t-32.5 -133q0 -91 32 -130t100 -39q48 0 79 17.5t51 61.5l81 -45 q-29 -63 -82.5 -92.5t-131.5 -29.5z" />
<glyph unicode="&#x10a;" horiz-adv-x="703" d="M70 0zM392 -13q-81 0 -141 20.5t-100.5 65t-60.5 113.5t-20 165q0 97 20.5 166t61 112.5t101 63.5t141.5 20q99 0 163.5 -32.5t100.5 -109.5l-93 -55q-27 58 -67.5 79.5t-103.5 21.5q-50 0 -88.5 -12t-64.5 -42.5t-40 -82t-14 -129.5t14 -130t40 -83t64.5 -44t88.5 -13 q63 0 108.5 25t75.5 86l91 -53q-42 -80 -109.5 -116t-167.5 -36zM325 851q0 32 19 47.5t52 15.5q32 0 50.5 -15.5t18.5 -47.5t-18.5 -48t-50.5 -16q-33 0 -52 16t-19 48z" />
<glyph unicode="&#x10b;" horiz-adv-x="535" d="M51 0zM291 -13q-113 0 -176.5 61t-63.5 197q0 134 63.5 196t179.5 62q77 0 126.5 -27.5t78.5 -81.5l-79 -54q-36 74 -125 74q-68 0 -100.5 -37t-32.5 -133q0 -91 32 -130t100 -39q48 0 79 17.5t51 61.5l81 -45q-29 -63 -82.5 -92.5t-131.5 -29.5zM225 640q0 32 19 47.5 t52 15.5q32 0 50.5 -15.5t18.5 -47.5t-18.5 -48t-50.5 -16q-33 0 -52 16t-19 48z" />
<glyph unicode="&#x10c;" horiz-adv-x="703" d="M70 0zM396 844l68 63h105v-2l-124 -121h-101l-122 121v2h109zM392 -13q-81 0 -141 20.5t-100.5 65t-60.5 113.5t-20 165q0 97 20.5 166t61 112.5t101 63.5t141.5 20q99 0 163.5 -32.5t100.5 -109.5l-93 -55q-27 58 -67.5 79.5t-103.5 21.5q-50 0 -88.5 -12t-64.5 -42.5 t-40 -82t-14 -129.5t14 -130t40 -83t64.5 -44t88.5 -13q63 0 108.5 25t75.5 86l91 -53q-42 -80 -109.5 -116t-167.5 -36z" />
<glyph unicode="&#x10d;" horiz-adv-x="535" d="M51 0zM295 633l68 63h105v-2l-124 -121h-101l-122 121v2h109zM291 -13q-113 0 -176.5 61t-63.5 197q0 134 63.5 196t179.5 62q77 0 126.5 -27.5t78.5 -81.5l-79 -54q-36 74 -125 74q-68 0 -100.5 -37t-32.5 -133q0 -91 32 -130t100 -39q48 0 79 17.5t51 61.5l81 -45 q-29 -63 -82.5 -92.5t-131.5 -29.5z" />
<glyph unicode="&#x10e;" horiz-adv-x="758" d="M104 0zM391 843l68 63h105v-2l-124 -121h-101l-122 121v2h109zM377 0h-273v700h277q157 0 233 -82.5t76 -263.5q0 -180 -77.5 -267t-235.5 -87zM221 97h149q46 0 84 12.5t64 42.5t40.5 78.5t14.5 120.5q0 69 -13 117t-37.5 78t-60.5 43.5t-82 13.5h-159v-506z" />
<glyph unicode="&#x10f;" horiz-adv-x="695" d="M51 0zM691 465h-75l7 235h100zM425 246q0 45 -10.5 77t-28.5 53t-42.5 30.5t-53.5 9.5q-65 0 -96.5 -41t-31.5 -131q0 -88 32 -128.5t96 -40.5q29 0 54 10t43 30.5t28 53t10 77.5zM437 0l-6 84q-49 -97 -173 -97q-99 0 -153 65.5t-54 191.5q0 128 57 193.5t160 65.5 q104 0 156 -76v273h113v-700h-100z" />
<glyph unicode="&#x110;" horiz-adv-x="777" d="M395 0h-273v310h-78v90h78v300h278q157 0 232.5 -82.5t75.5 -263.5q0 -180 -77.5 -267t-235.5 -87zM239 97h150q46 0 83.5 12.5t63.5 42.5t40.5 78.5t14.5 120.5q0 69 -12.5 117t-37.5 78t-61 43.5t-82 13.5h-159v-203h145v-90h-145v-213z" />
<glyph unicode="&#x111;" horiz-adv-x="636" d="M425 246q0 89 -38 129.5t-96 40.5q-65 0 -97 -42t-32 -130q0 -87 32 -128t96 -41q29 0 54 10t43 31t28 53t10 77zM610 620v-67h-73v-553h-100l-6 85q-24 -48 -68 -73t-105 -25q-99 0 -153 65.5t-54 190.5q0 128 57 193t160 65q106 0 156 -75v127h-148v67h148v80h113v-80 h73z" />
<glyph unicode="&#x112;" horiz-adv-x="673" d="M104 0zM104 0v700h517v-96h-403v-203h352v-97h-352v-208h413v-96h-527zM506 876v-69h-267v69h267z" />
<glyph unicode="&#x113;" horiz-adv-x="555" d="M51 0zM291 -13q-113 0 -176.5 62.5t-63.5 194.5q0 126 61.5 192.5t178.5 66.5q57 0 98 -18.5t68 -50.5t39.5 -76.5t12.5 -95.5q0 -22 -3 -49h-346q5 -78 39.5 -110t97.5 -32q48 0 80 16t53 61l75 -43q-29 -62 -84 -90t-130 -28zM288 419q-56 0 -89 -30t-38 -101h241 q-3 69 -32 100t-82 31zM419 666v-69h-267v69h267z" />
<glyph unicode="&#x114;" horiz-adv-x="673" d="M104 0zM104 0v700h517v-96h-403v-203h352v-97h-352v-208h413v-96h-527zM448 906h78q0 -37 -10.5 -62t-30.5 -40t-48 -21t-64 -6q-72 0 -112.5 27.5t-40.5 101.5h77q0 -38 18.5 -52t56.5 -14t57 14t19 52z" />
<glyph unicode="&#x115;" horiz-adv-x="555" d="M51 0zM291 -13q-113 0 -176.5 62.5t-63.5 194.5q0 126 61.5 192.5t178.5 66.5q57 0 98 -18.5t68 -50.5t39.5 -76.5t12.5 -95.5q0 -22 -3 -49h-346q5 -78 39.5 -110t97.5 -32q48 0 80 16t53 61l75 -43q-29 -62 -84 -90t-130 -28zM288 419q-56 0 -89 -30t-38 -101h241 q-3 69 -32 100t-82 31zM360 696h78q0 -37 -10.5 -62t-30.5 -40t-48 -21t-64 -6q-72 0 -112.5 27.5t-40.5 101.5h77q0 -38 18.5 -52t56.5 -14t57 14t19 52z" />
<glyph unicode="&#x116;" horiz-adv-x="673" d="M104 0zM104 0v700h517v-96h-403v-203h352v-97h-352v-208h413v-96h-527zM304 850q0 32 19 47.5t52 15.5q32 0 50.5 -15.5t18.5 -47.5t-18.5 -48t-50.5 -16q-33 0 -52 16t-19 48z" />
<glyph unicode="&#x117;" horiz-adv-x="555" d="M51 0zM291 -13q-113 0 -176.5 62.5t-63.5 194.5q0 126 61.5 192.5t178.5 66.5q57 0 98 -18.5t68 -50.5t39.5 -76.5t12.5 -95.5q0 -22 -3 -49h-346q5 -78 39.5 -110t97.5 -32q48 0 80 16t53 61l75 -43q-29 -62 -84 -90t-130 -28zM288 419q-56 0 -89 -30t-38 -101h241 q-3 69 -32 100t-82 31zM216 640q0 32 19 47.5t52 15.5q32 0 50.5 -15.5t18.5 -47.5t-18.5 -48t-50.5 -16q-33 0 -52 16t-19 48z" />
<glyph unicode="&#x118;" horiz-adv-x="673" d="M104 0v700h517v-95h-403v-204h352v-97h-352v-209h413v-95q-54 -4 -79.5 -33.5t-25.5 -63.5q0 -28 17 -39t43 -11q18 0 35 4t32 13l16 -64q-39 -24 -91 -24q-24 0 -46.5 5t-40.5 18t-28.5 33.5t-10.5 52.5q0 35 13.5 63t36.5 46h-398z" />
<glyph unicode="&#x119;" horiz-adv-x="555" d="M226 -109q0 30 10 55t27 43q-101 7 -156.5 69t-55.5 186q0 126 61.5 192.5t178.5 66.5q57 0 98 -18.5t68 -50.5t39.5 -76.5t12.5 -95.5q0 -22 -3 -49h-347q5 -78 40 -110t98 -32q48 0 80 16t53 61l75 -43q-21 -44 -55 -70.5t-79 -37.5q-33 -11 -51 -37t-18 -56 q0 -29 16 -40t44 -11q17 0 34 4t32 13l16 -64q-39 -24 -91 -24q-24 0 -47 5t-40.5 18t-28.5 33.5t-11 52.5zM288 419q-57 0 -89.5 -30t-38.5 -101h242q-3 69 -32.5 100t-81.5 31z" />
<glyph unicode="&#x11a;" horiz-adv-x="673" d="M104 0zM374 843l68 63h105v-2l-124 -121h-101l-122 121v2h109zM104 0v700h517v-96h-403v-203h352v-97h-352v-208h413v-96h-527z" />
<glyph unicode="&#x11b;" horiz-adv-x="555" d="M51 0zM287 633l68 63h105v-2l-124 -121h-101l-122 121v2h109zM291 -13q-113 0 -176.5 62.5t-63.5 194.5q0 126 61.5 192.5t178.5 66.5q57 0 98 -18.5t68 -50.5t39.5 -76.5t12.5 -95.5q0 -22 -3 -49h-346q5 -78 39.5 -110t97.5 -32q48 0 80 16t53 61l75 -43 q-29 -62 -84 -90t-130 -28zM288 419q-56 0 -89 -30t-38 -101h241q-3 69 -32 100t-82 31z" />
<glyph unicode="&#x11c;" horiz-adv-x="746" d="M70 0zM392 848l-66 -65h-105v3l122 120h101l124 -120v-3h-111zM374 -13q-146 0 -225 88.5t-79 275.5q0 97 20.5 165.5t61 112t101 64t141.5 20.5q98 0 162 -32t99 -104l-93 -56q-27 52 -66.5 74t-101.5 22q-50 0 -88.5 -12t-65 -42t-40 -81.5t-13.5 -130.5 q0 -78 13.5 -129.5t40 -83t64.5 -44.5t87 -13q31 0 62 8.5t56.5 28.5t41.5 53t18 83v19h-174v89h281v-362h-90l-7 94q-29 -51 -83 -79t-123 -28z" />
<glyph unicode="&#x11d;" horiz-adv-x="619" d="M51 0zM283 638l-66 -65h-105v3l122 120h101l124 -120v-3h-111zM423 255q0 85 -38.5 123.5t-96.5 38.5q-64 0 -95.5 -39t-31.5 -124t32 -124.5t95 -39.5q59 0 97 39t38 126zM535 491v-471q0 -62 -19 -107t-53 -74t-81.5 -43t-103.5 -14q-73 0 -129.5 25t-87.5 88l72 56 q24 -46 59 -64.5t83 -18.5q66 0 107 33t41 109v82q-48 -89 -165 -89q-96 0 -151.5 63t-55.5 187t55 187t156 63q59 0 102 -22t67 -67l10 77h94z" />
<glyph unicode="&#x11e;" horiz-adv-x="746" d="M70 0zM374 -13q-146 0 -225 88.5t-79 275.5q0 97 20.5 165.5t61 112t101 64t141.5 20.5q98 0 162 -32t99 -104l-93 -56q-27 52 -66.5 74t-101.5 22q-50 0 -88.5 -12t-65 -42t-40 -81.5t-13.5 -130.5q0 -78 13.5 -129.5t40 -83t64.5 -44.5t87 -13q31 0 62 8.5t56.5 28.5 t41.5 53t18 83v19h-174v89h281v-362h-90l-7 94q-29 -51 -83 -79t-123 -28zM466 906h78q0 -37 -10.5 -62t-30.5 -40t-48 -21t-64 -6q-72 0 -112.5 27.5t-40.5 101.5h77q0 -38 18.5 -52t56.5 -14t57 14t19 52z" />
<glyph unicode="&#x11f;" horiz-adv-x="619" d="M51 0zM423 255q0 85 -38.5 123.5t-96.5 38.5q-64 0 -95.5 -39t-31.5 -124t32 -124.5t95 -39.5q59 0 97 39t38 126zM535 491v-471q0 -62 -19 -107t-53 -74t-81.5 -43t-103.5 -14q-73 0 -129.5 25t-87.5 88l72 56q24 -46 59 -64.5t83 -18.5q66 0 107 33t41 109v82 q-48 -89 -165 -89q-96 0 -151.5 63t-55.5 187t55 187t156 63q59 0 102 -22t67 -67l10 77h94zM357 696h78q0 -37 -10.5 -62t-30.5 -40t-48 -21t-64 -6q-72 0 -112.5 27.5t-40.5 101.5h77q0 -38 18.5 -52t56.5 -14t57 14t19 52z" />
<glyph unicode="&#x120;" horiz-adv-x="746" d="M70 0zM374 -13q-146 0 -225 88.5t-79 275.5q0 97 20.5 165.5t61 112t101 64t141.5 20.5q98 0 162 -32t99 -104l-93 -56q-27 52 -66.5 74t-101.5 22q-50 0 -88.5 -12t-65 -42t-40 -81.5t-13.5 -130.5q0 -78 13.5 -129.5t40 -83t64.5 -44.5t87 -13q31 0 62 8.5t56.5 28.5 t41.5 53t18 83v19h-174v89h281v-362h-90l-7 94q-29 -51 -83 -79t-123 -28zM322 850q0 32 19 47.5t52 15.5q32 0 50.5 -15.5t18.5 -47.5t-18.5 -48t-50.5 -16q-33 0 -52 16t-19 48z" />
<glyph unicode="&#x121;" horiz-adv-x="619" d="M51 0zM423 255q0 85 -38.5 123.5t-96.5 38.5q-64 0 -95.5 -39t-31.5 -124t32 -124.5t95 -39.5q59 0 97 39t38 126zM535 491v-471q0 -62 -19 -107t-53 -74t-81.5 -43t-103.5 -14q-73 0 -129.5 25t-87.5 88l72 56q24 -46 59 -64.5t83 -18.5q66 0 107 33t41 109v82 q-48 -89 -165 -89q-96 0 -151.5 63t-55.5 187t55 187t156 63q59 0 102 -22t67 -67l10 77h94zM213 640q0 32 19 47.5t52 15.5q32 0 50.5 -15.5t18.5 -47.5t-18.5 -48t-50.5 -16q-33 0 -52 16t-19 48z" />
<glyph unicode="&#x122;" horiz-adv-x="746" d="M70 0zM340 -307l-21 46q30 8 47.5 28.5t22.5 49.5q-35 -1 -53.5 15t-18.5 46q0 31 17.5 46t48.5 15q33 0 52 -20.5t19 -66.5q0 -58 -29 -102t-85 -57zM374 -13q-146 0 -225 88.5t-79 275.5q0 97 20.5 165.5t61 112t101 64t141.5 20.5q98 0 162 -32t99 -104l-93 -56 q-27 52 -66.5 74t-101.5 22q-50 0 -88.5 -12t-65 -42t-40 -81.5t-13.5 -130.5q0 -78 13.5 -129.5t40 -83t64.5 -44.5t87 -13q31 0 62 8.5t56.5 28.5t41.5 53t18 83v19h-174v89h281v-362h-90l-7 94q-29 -51 -83 -79t-123 -28z" />
<glyph unicode="&#x123;" horiz-adv-x="619" d="M328 809l21 -46q-30 -8 -47.5 -28.5t-22.5 -49.5q35 1 53.5 -15t18.5 -46q0 -31 -17.5 -46t-48.5 -15q-33 0 -52 20.5t-19 66.5q0 58 29 102t85 57zM423 255q0 85 -38.5 123.5t-96.5 38.5q-64 0 -95.5 -39t-31.5 -124t32 -124.5t95 -39.5q59 0 97 39t38 126zM535 491 v-471q0 -62 -19 -107t-53 -74t-81.5 -43t-103.5 -14q-73 0 -129.5 25t-87.5 88l72 56q24 -46 59 -64.5t83 -18.5q66 0 107 33t41 109v82q-48 -89 -165 -89q-96 0 -151.5 63t-55.5 187t55 187t156 63q59 0 102 -22t67 -67l10 77h94z" />
<glyph unicode="&#x124;" horiz-adv-x="802" d="M104 0zM401 849l-66 -65h-105v3l122 120h101l124 -120v-3h-111zM582 0v301h-361v-301h-117v700h117v-298h361v298h117v-700h-117z" />
<glyph unicode="&#x125;" horiz-adv-x="636" d="M0 0zM144 820l-66 -65h-105v3l122 120h101l124 -120v-3h-111zM197 700v-302q27 55 75.5 80t105.5 25q93 0 136.5 -51t43.5 -145v-307h-113v273q0 73 -28 103t-80 30q-63 0 -100.5 -41.5t-39.5 -121.5v-243h-113v700h113z" />
<glyph unicode="&#x126;" horiz-adv-x="822" d="M231 402h361v92h-361v-92zM592 0v301h-361v-301h-117v494h-70v70h70v136h117v-136h361v136h117v-136h69v-70h-69v-494h-117z" />
<glyph unicode="&#x127;" horiz-adv-x="650" d="M26 553v67h72v80h113v-80h148v-67h-148v-158q27 56 76 81.5t105 25.5q180 0 180 -197v-305h-113v270q0 73 -28 103t-79 30q-64 0 -101.5 -41.5t-39.5 -121.5v-240h-113v553h-72z" />
<glyph unicode="&#x128;" horiz-adv-x="324" d="M0 0zM104 0v700h117v-700h-117zM252 900h76q3 -31 -5 -52t-21.5 -33.5t-31.5 -18t-35 -5.5q-22 0 -40.5 6t-34.5 13.5t-30.5 13.5t-28.5 6q-18 0 -23.5 -11t-5.5 -25h-76q-2 31 5.5 52t21 33.5t31 18t34.5 5.5q22 0 41 -6t35.5 -13.5t31 -13.5t28.5 -6q18 0 23 11t5 25z " />
<glyph unicode="&#x129;" horiz-adv-x="284" d="M0 0zM86 491h113v-491h-113v491zM231 690h76q3 -31 -5 -52t-21.5 -33.5t-31.5 -18t-35 -5.5q-22 0 -40.5 6t-34.5 13.5t-30.5 13.5t-28.5 6q-18 0 -23.5 -11t-5.5 -25h-76q-2 31 5.5 52t21 33.5t31 18t34.5 5.5q22 0 41 -6t35.5 -13.5t31 -13.5t28.5 -6q18 0 23 11t5 25z " />
<glyph unicode="&#x12a;" horiz-adv-x="324" d="M29 0zM104 0v700h117v-700h-117zM296 876v-69h-267v69h267z" />
<glyph unicode="&#x12b;" horiz-adv-x="284" d="M9 0zM86 491h113v-491h-113v491zM276 666v-69h-267v69h267z" />
<glyph unicode="&#x12c;" horiz-adv-x="324" d="M9 0zM104 0v700h117v-700h-117zM237 906h78q0 -37 -10.5 -62t-30.5 -40t-48 -21t-64 -6q-72 0 -112.5 27.5t-40.5 101.5h77q0 -38 18.5 -52t56.5 -14t57 14t19 52z" />
<glyph unicode="&#x12d;" horiz-adv-x="284" d="M0 0zM86 491h113v-491h-113v491zM217 696h78q0 -37 -10.5 -62t-30.5 -40t-48 -21t-64 -6q-72 0 -112.5 27.5t-40.5 101.5h77q0 -38 18.5 -52t56.5 -14t57 14t19 52z" />
<glyph unicode="&#x12e;" horiz-adv-x="324" d="M122 -218q-24 0 -46.5 5t-40.5 18t-28.5 33.5t-10.5 52.5q0 28 9 51t24 41t34.5 30t40.5 19v668h117v-700h-56q-47 -4 -70.5 -33.5t-23.5 -63.5q0 -28 16.5 -39t43.5 -11q38 0 66 17l17 -64q-20 -12 -42.5 -18t-49.5 -6z" />
<glyph unicode="&#x12f;" horiz-adv-x="284" d="M71 641q0 33 18.5 49t52.5 16t52.5 -16t18.5 -49t-18.5 -49.5t-52.5 -16.5t-52.5 16.5t-18.5 49.5zM105 -218q-24 0 -46.5 5t-40 18t-28.5 33.5t-11 52.5q0 56 32 91.5t75 49.5v459h113v-491h-51q-47 -4 -70.5 -33.5t-23.5 -63.5q0 -28 16.5 -39t43.5 -11q17 0 34 4 t32 13l17 -64q-39 -24 -92 -24z" />
<glyph unicode="&#x130;" horiz-adv-x="324" d="M93 0zM104 0v700h117v-700h-117zM93 850q0 32 19 47.5t52 15.5q32 0 50.5 -15.5t18.5 -47.5t-18.5 -48t-50.5 -16q-33 0 -52 16t-19 48z" />
<glyph unicode="&#x131;" horiz-adv-x="284" d="M86 491h113v-491h-113v491z" />
<glyph unicode="&#x132;" horiz-adv-x="850" d="M104 0zM104 0v700h117v-700h-117zM507 -13q-45 0 -88.5 12.5t-80.5 41.5l50 85q26 -22 58 -32.5t65 -10.5q31 0 56 9.5t43 30t27.5 53t9.5 79.5v445h117v-441q0 -77 -19 -129t-53.5 -84t-81.5 -45.5t-103 -13.5z" />
<glyph unicode="&#x133;" horiz-adv-x="568" d="M71 0zM71 640q0 33 18.5 49.5t52.5 16.5t52.5 -16.5t18.5 -49.5t-18.5 -49.5t-52.5 -16.5t-52.5 16.5t-18.5 49.5zM86 491h113v-491h-113v491zM355 640q0 33 18.5 49.5t52.5 16.5t52.5 -16.5t18.5 -49.5t-18.5 -49.5t-52.5 -16.5t-52.5 16.5t-18.5 49.5zM370 -28v519h113 v-530q0 -93 -45.5 -136t-122.5 -43q-22 0 -43.5 3.5t-44.5 12.5l18 85q13 -5 25.5 -8t30.5 -3q16 0 29 4.5t22 16t13.5 31t4.5 48.5z" />
<glyph unicode="&#x134;" horiz-adv-x="522" d="M10 0zM379 848l-66 -65h-105v3l122 120h101l124 -120v-3h-111zM179 -13q-45 0 -88.5 12.5t-80.5 41.5l50 85q26 -22 58 -32.5t65 -10.5q31 0 56 9.5t43 30t27.5 53t9.5 79.5v445h117v-441q0 -77 -19 -129t-53.5 -84t-81.5 -45.5t-103 -13.5z" />
<glyph unicode="&#x135;" horiz-adv-x="284" d="M0 0zM86 -28v519h113v-530q0 -93 -45.5 -136t-122.5 -43q-22 0 -43.5 3.5t-44.5 12.5l18 85q13 -5 25.5 -8t30.5 -3q16 0 29 4.5t22 16t13.5 31t4.5 48.5zM141 638l-66 -65h-105v3l122 120h101l124 -120v-3h-111z" />
<glyph unicode="&#x136;" horiz-adv-x="670" d="M104 0zM315 -307l-21 46q30 8 47.5 28.5t22.5 49.5q-35 -1 -53.5 15t-18.5 46q0 31 17.5 46t48.5 15q33 0 52 -20.5t19 -66.5q0 -58 -29 -102t-85 -57zM104 0v700h117l-1 -366l298 366h138l-261 -312l271 -388h-140l-210 303l-95 -113v-190h-117z" />
<glyph unicode="&#x137;" horiz-adv-x="546" d="M84 0zM249 -307l-21 46q30 8 47.5 28.5t22.5 49.5q-35 -1 -53.5 15t-18.5 46q0 31 17.5 46t48.5 15q33 0 52 -20.5t19 -66.5q0 -58 -29 -102t-85 -57zM84 0v700h112l-2 -458l215 249h129l-196 -219l198 -272h-129l-142 197l-73 -78v-119h-112z" />
<glyph unicode="&#x138;" horiz-adv-x="546" d="M84 0v491h112l-1 -249l214 249h129l-196 -219l198 -272h-129l-141 197l-74 -78v-119h-112z" />
<glyph unicode="&#x139;" horiz-adv-x="638" d="M104 0zM320 900l-120 -117h-91v4l78 119h133v-6zM221 98h390v-98h-507v700h117v-602z" />
<glyph unicode="&#x13a;" horiz-adv-x="294" d="M81 0zM293 901l-120 -117h-91v4l78 119h133v-6zM207 0q-59 0 -92.5 27.5t-33.5 96.5v576h113v-567q0 -46 49 -46h41v-87h-77z" />
<glyph unicode="&#x13b;" horiz-adv-x="638" d="M104 0zM315 -307l-21 46q30 8 47.5 28.5t22.5 49.5q-35 -1 -53.5 15t-18.5 46q0 31 17.5 46t48.5 15q33 0 52 -20.5t19 -66.5q0 -58 -29 -102t-85 -57zM221 98h390v-98h-507v700h117v-602z" />
<glyph unicode="&#x13c;" horiz-adv-x="294" d="M81 0zM207 0q-59 0 -92.5 27.5t-33.5 96.5v576h113v-567q0 -46 49 -46h41v-87h-77zM137 -307l-21 46q30 8 47.5 28.5t22.5 49.5q-35 -1 -53.5 15t-18.5 46q0 31 17.5 46t48.5 15q33 0 52 -20.5t19 -66.5q0 -58 -29 -102t-85 -57z" />
<glyph unicode="&#x13d;" horiz-adv-x="638" d="M104 0zM472 466h-75l7 235h100zM221 98h390v-98h-507v700h117v-602z" />
<glyph unicode="&#x13e;" horiz-adv-x="355" d="M81 0zM352 465h-75l7 235h100zM207 0q-59 0 -92.5 27.5t-33.5 96.5v576h113v-567q0 -46 49 -46h41v-87h-77z" />
<glyph unicode="&#x13f;" horiz-adv-x="638" d="M104 0zM221 98h390v-98h-507v700h117v-602zM396 360q0 32 19 47.5t52 15.5q32 0 50.5 -15.5t18.5 -47.5t-18.5 -48t-50.5 -16q-33 0 -52 16t-19 48z" />
<glyph unicode="&#x140;" horiz-adv-x="388" d="M81 0zM207 0q-59 0 -92.5 27.5t-33.5 96.5v576h113v-567q0 -46 49 -46h41v-87h-77zM260 305q0 32 19 47.5t52 15.5q32 0 50.5 -15.5t18.5 -47.5t-18.5 -48t-50.5 -16q-33 0 -52 16t-19 48z" />
<glyph unicode="&#x141;" horiz-adv-x="657" d="M240 98h390v-98h-507v239l-99 -60v98l99 60v363h117v-297l173 103v-99l-173 -103v-206z" />
<glyph unicode="&#x142;" horiz-adv-x="314" d="M304 0h-77q-59 0 -92.5 27.5t-33.5 96.5v124l-91 -68v98l91 69v353h113v-273l99 75v-99l-99 -74v-196q0 -46 49 -46h41v-87z" />
<glyph unicode="&#x143;" horiz-adv-x="792" d="M104 0zM554 900l-120 -117h-91v4l78 119h133v-6zM578 0l-366 522l3 -522h-111v700h104l372 -531l-3 531h112v-700h-111z" />
<glyph unicode="&#x144;" horiz-adv-x="636" d="M84 0zM495 690l-120 -117h-91v4l78 119h133v-6zM84 491h96l11 -91q28 54 76.5 78.5t108.5 24.5q94 0 138 -51t44 -145v-307h-113v275q0 72 -27.5 101.5t-80.5 29.5q-63 0 -100.5 -41.5t-39.5 -121.5v-243h-113v491z" />
<glyph unicode="&#x145;" horiz-adv-x="792" d="M104 0zM354 -307l-21 46q30 8 47.5 28.5t22.5 49.5q-35 -1 -53.5 15t-18.5 46q0 31 17.5 46t48.5 15q33 0 52 -20.5t19 -66.5q0 -58 -29 -102t-85 -57zM578 0l-366 522l3 -522h-111v700h104l372 -531l-3 531h112v-700h-111z" />
<glyph unicode="&#x146;" horiz-adv-x="636" d="M84 0zM283 -307l-21 46q30 8 47.5 28.5t22.5 49.5q-35 -1 -53.5 15t-18.5 46q0 31 17.5 46t48.5 15q33 0 52 -20.5t19 -66.5q0 -58 -29 -102t-85 -57zM84 491h96l11 -91q28 54 76.5 78.5t108.5 24.5q94 0 138 -51t44 -145v-307h-113v275q0 72 -27.5 101.5t-80.5 29.5 q-63 0 -100.5 -41.5t-39.5 -121.5v-243h-113v491z" />
<glyph unicode="&#x147;" horiz-adv-x="792" d="M104 0zM397 843l68 63h105v-2l-124 -121h-101l-122 121v2h109zM578 0l-366 522l3 -522h-111v700h104l372 -531l-3 531h112v-700h-111z" />
<glyph unicode="&#x148;" horiz-adv-x="636" d="M84 0zM337 633l68 63h105v-2l-124 -121h-101l-122 121v2h109zM84 491h96l11 -91q28 54 76.5 78.5t108.5 24.5q94 0 138 -51t44 -145v-307h-113v275q0 72 -27.5 101.5t-80.5 29.5q-63 0 -100.5 -41.5t-39.5 -121.5v-243h-113v491z" />
<glyph unicode="&#x14a;" horiz-adv-x="792" d="M575 -28v29l-363 521l3 -522h-111v700h104l372 -531l-3 531h112v-739q0 -93 -45.5 -136t-122.5 -43q-22 0 -43.5 3.5t-44.5 12.5l18 85q14 -5 26.5 -8t29.5 -3q16 0 29 4.5t21.5 16t13 31t4.5 48.5z" />
<glyph unicode="&#x14b;" horiz-adv-x="636" d="M445 -28v303q0 72 -27.5 101.5t-80.5 29.5q-63 0 -100.5 -41.5t-39.5 -121.5v-243h-113v491h96l11 -91q28 55 76.5 79t108.5 24q94 0 138 -51t44 -145v-346q0 -93 -45 -136t-122 -43q-22 0 -43 3.5t-45 12.5l18 85q13 -5 25.5 -8t30.5 -3q16 0 29 4.5t21.5 16t13 31 t4.5 48.5z" />
<glyph unicode="&#x14c;" horiz-adv-x="786" d="M70 0zM526 876v-69h-267v69h267zM393 -13q-167 0 -245 87t-78 277t80 276t243 86q85 0 146.5 -21t101 -65.5t58 -113t18.5 -162.5q0 -190 -80.5 -277t-243.5 -87zM393 618q-51 0 -89.5 -13t-64.5 -43.5t-39 -82t-13 -129.5q0 -76 13 -127.5t39 -82.5t64.5 -44.5 t89.5 -13.5t89.5 13t64.5 44.5t39 83t13 129.5q0 75 -13 126t-39 82t-64.5 44.5t-89.5 13.5z" />
<glyph unicode="&#x14d;" horiz-adv-x="593" d="M51 0zM430 666v-69h-267v69h267zM51 246q0 133 64.5 195t181.5 62q124 0 184.5 -61t60.5 -196q0 -132 -62 -195.5t-183 -63.5t-183.5 62t-62.5 197zM432 245q0 94 -32.5 132.5t-102.5 38.5q-72 0 -104 -38.5t-32 -132.5q0 -93 33 -132t103 -39q69 0 102 39t33 132z" />
<glyph unicode="&#x14e;" horiz-adv-x="786" d="M70 0zM393 -13q-167 0 -245 87t-78 277t80 276t243 86q85 0 146.5 -21t101 -65.5t58 -113t18.5 -162.5q0 -190 -80.5 -277t-243.5 -87zM393 618q-51 0 -89.5 -13t-64.5 -43.5t-39 -82t-13 -129.5q0 -76 13 -127.5t39 -82.5t64.5 -44.5t89.5 -13.5t89.5 13t64.5 44.5 t39 83t13 129.5q0 75 -13 126t-39 82t-64.5 44.5t-89.5 13.5zM467 906h78q0 -37 -10.5 -62t-30.5 -40t-48 -21t-64 -6q-72 0 -112.5 27.5t-40.5 101.5h77q0 -38 18.5 -52t56.5 -14t57 14t19 52z" />
<glyph unicode="&#x14f;" horiz-adv-x="593" d="M51 0zM51 246q0 133 64.5 195t181.5 62q124 0 184.5 -61t60.5 -196q0 -132 -62 -195.5t-183 -63.5t-183.5 62t-62.5 197zM432 245q0 94 -32.5 132.5t-102.5 38.5q-72 0 -104 -38.5t-32 -132.5q0 -93 33 -132t103 -39q69 0 102 39t33 132zM371 696h78q0 -37 -10.5 -62 t-30.5 -40t-48 -21t-64 -6q-72 0 -112.5 27.5t-40.5 101.5h77q0 -38 18.5 -52t56.5 -14t57 14t19 52z" />
<glyph unicode="&#x150;" horiz-adv-x="786" d="M70 0zM624 900l-124 -117h-87v4l78 119h133v-6zM449 900l-99 -117h-84v4l64 119h119v-6zM393 -13q-167 0 -245 87t-78 277t80 276t243 86q85 0 146.5 -21t101 -65.5t58 -113t18.5 -162.5q0 -190 -80.5 -277t-243.5 -87zM393 618q-51 0 -89.5 -13t-64.5 -43.5t-39 -82 t-13 -129.5q0 -76 13 -127.5t39 -82.5t64.5 -44.5t89.5 -13.5t89.5 13t64.5 44.5t39 83t13 129.5q0 75 -13 126t-39 82t-64.5 44.5t-89.5 13.5z" />
<glyph unicode="&#x151;" horiz-adv-x="593" d="M51 0zM526 690l-124 -117h-87v4l78 119h133v-6zM351 690l-99 -117h-84v4l64 119h119v-6zM51 246q0 133 64.5 195t181.5 62q124 0 184.5 -61t60.5 -196q0 -132 -62 -195.5t-183 -63.5t-183.5 62t-62.5 197zM432 245q0 94 -32.5 132.5t-102.5 38.5q-72 0 -104 -38.5 t-32 -132.5q0 -93 33 -132t103 -39q69 0 102 39t33 132z" />
<glyph unicode="&#x152;" horiz-adv-x="1102" d="M1060 0h-676q-159 0 -237 86t-78 267q0 180 77.5 263.5t239.5 83.5h664v-96h-396v-203h345v-97h-345v-208h406v-96zM386 97h152v506h-153q-48 0 -85 -13t-62.5 -43t-38.5 -78t-13 -118q0 -71 13.5 -119.5t39 -78.5t63 -43t84.5 -13z" />
<glyph unicode="&#x153;" horiz-adv-x="940" d="M51 246q0 133 64.5 195t181.5 62q136 0 192 -79q61 79 186 79q57 0 98 -18.5t68 -50.5t39.5 -76.5t12.5 -95.5q0 -22 -3 -49h-347q5 -78 40 -110t98 -32q49 0 80.5 16t52.5 61l75 -43q-29 -62 -84 -90t-129 -28q-63 0 -111 19.5t-78 60.5q-59 -80 -190 -80 q-121 0 -183.5 62t-62.5 197zM672 419q-56 0 -89.5 -30t-38.5 -101h242q-3 69 -32 100t-82 31zM432 245q0 94 -32.5 132.5t-103.5 38.5t-103 -38.5t-32 -132.5q0 -93 33 -132t102 -39q70 0 103 39t33 132z" />
<glyph unicode="&#x154;" horiz-adv-x="690" d="M104 0zM529 900l-120 -117h-91v4l78 119h133v-6zM395 602h-175v-253h173q62 0 96.5 32t34.5 98q0 57 -31 90t-98 33zM104 0v700h301q119 0 177.5 -57t58.5 -160q0 -81 -34 -133.5t-97 -76.5l141 -273h-128l-129 252h-174v-252h-116z" />
<glyph unicode="&#x155;" horiz-adv-x="392" d="M84 0zM378 690l-120 -117h-91v4l78 119h133v-6zM84 0v491h95l11 -102q26 59 73.5 87t109.5 25v-108q-88 8 -131 -38t-45 -135v-220h-113z" />
<glyph unicode="&#x156;" horiz-adv-x="690" d="M104 0zM311 -307l-21 46q30 8 47.5 28.5t22.5 49.5q-35 -1 -53.5 15t-18.5 46q0 31 17.5 46t48.5 15q33 0 52 -20.5t19 -66.5q0 -58 -29 -102t-85 -57zM395 602h-175v-253h173q62 0 96.5 32t34.5 98q0 57 -31 90t-98 33zM104 0v700h301q119 0 177.5 -57t58.5 -160 q0 -81 -34 -133.5t-97 -76.5l141 -273h-128l-129 252h-174v-252h-116z" />
<glyph unicode="&#x157;" horiz-adv-x="392" d="M74 0zM97 -307l-21 46q30 8 47.5 28.5t22.5 49.5q-35 -1 -53.5 15t-18.5 46q0 31 17.5 46t48.5 15q33 0 52 -20.5t19 -66.5q0 -58 -29 -102t-85 -57zM84 0v491h95l11 -102q26 59 73.5 87t109.5 25v-108q-88 8 -131 -38t-45 -135v-220h-113z" />
<glyph unicode="&#x158;" horiz-adv-x="690" d="M104 0zM372 843l68 63h105v-2l-124 -121h-101l-122 121v2h109zM395 602h-175v-253h173q62 0 96.5 32t34.5 98q0 57 -31 90t-98 33zM104 0v700h301q119 0 177.5 -57t58.5 -160q0 -81 -34 -133.5t-97 -76.5l141 -273h-128l-129 252h-174v-252h-116z" />
<glyph unicode="&#x159;" horiz-adv-x="392" d="M57 0zM231 633l68 63h105v-2l-124 -121h-101l-122 121v2h109zM84 0v491h95l11 -102q26 59 73.5 87t109.5 25v-108q-88 8 -131 -38t-45 -135v-220h-113z" />
<glyph unicode="&#x15a;" horiz-adv-x="632" d="M32 0zM470 900l-120 -117h-91v4l78 119h133v-6zM561 586l-86 -57q-27 48 -64.5 71t-100.5 23q-38 0 -65 -8t-44 -22t-25 -32.5t-8 -39.5q0 -36 26 -64.5t98 -44.5l63 -14q117 -26 169.5 -74.5t52.5 -126.5q0 -99 -70.5 -154.5t-201.5 -55.5q-86 0 -157.5 30.5 t-115.5 104.5l85 59q36 -58 79.5 -82t111.5 -24q81 0 118.5 28.5t37.5 81.5q0 21 -6.5 37.5t-21.5 29t-40.5 22t-62.5 18.5l-64 15q-56 13 -96 33t-65 46t-36.5 57.5t-11.5 67.5q0 46 17 83t49.5 63.5t78.5 41t104 14.5q94 0 154.5 -30.5t97.5 -96.5z" />
<glyph unicode="&#x15b;" horiz-adv-x="511" d="M35 0zM404 690l-120 -117h-91v4l78 119h133v-6zM251 69q53 0 76 17t23 45q0 23 -17.5 36.5t-66.5 24.5l-43 9q-87 18 -125 58t-38 95q0 32 12 59t36 47t60.5 31.5t85.5 11.5q68 0 112.5 -20t77.5 -61l-67 -66q-25 31 -53 47t-73 16q-88 0 -88 -57q0 -22 17.5 -37.5 t62.5 -25.5l55 -12q86 -19 121.5 -56t35.5 -89q0 -33 -12 -61t-37.5 -49t-64.5 -33t-92 -12q-73 0 -127 22.5t-87 76.5l70 59q26 -41 61 -58.5t85 -17.5z" />
<glyph unicode="&#x15c;" horiz-adv-x="632" d="M32 0zM310 848l-66 -65h-105v3l122 120h101l124 -120v-3h-111zM561 586l-86 -57q-27 48 -64.5 71t-100.5 23q-38 0 -65 -8t-44 -22t-25 -32.5t-8 -39.5q0 -36 26 -64.5t98 -44.5l63 -14q117 -26 169.5 -74.5t52.5 -126.5q0 -99 -70.5 -154.5t-201.5 -55.5 q-86 0 -157.5 30.5t-115.5 104.5l85 59q36 -58 79.5 -82t111.5 -24q81 0 118.5 28.5t37.5 81.5q0 21 -6.5 37.5t-21.5 29t-40.5 22t-62.5 18.5l-64 15q-56 13 -96 33t-65 46t-36.5 57.5t-11.5 67.5q0 46 17 83t49.5 63.5t78.5 41t104 14.5q94 0 154.5 -30.5t97.5 -96.5z" />
<glyph unicode="&#x15d;" horiz-adv-x="511" d="M35 0zM244 638l-66 -65h-105v3l122 120h101l124 -120v-3h-111zM251 69q53 0 76 17t23 45q0 23 -17.5 36.5t-66.5 24.5l-43 9q-87 18 -125 58t-38 95q0 32 12 59t36 47t60.5 31.5t85.5 11.5q68 0 112.5 -20t77.5 -61l-67 -66q-25 31 -53 47t-73 16q-88 0 -88 -57 q0 -22 17.5 -37.5t62.5 -25.5l55 -12q86 -19 121.5 -56t35.5 -89q0 -33 -12 -61t-37.5 -49t-64.5 -33t-92 -12q-73 0 -127 22.5t-87 76.5l70 59q26 -41 61 -58.5t85 -17.5z" />
<glyph unicode="&#x15e;" horiz-adv-x="632" d="M304 -242q-41 0 -74 15t-53 48l47 45q14 -23 31 -35t45 -12q23 0 37.5 9t14.5 29q0 19 -14 29.5t-39 10.5q-6 0 -11.5 -0.5t-11.5 -1.5l-19 15l22 78q-78 4 -142 34.5t-105 99.5l85 59q36 -58 79.5 -82t111.5 -24q81 0 118.5 28.5t37.5 81.5q0 21 -6.5 37.5t-21.5 29 t-40.5 22t-62.5 18.5l-64 15q-56 13 -96 33t-65 46t-36.5 57.5t-11.5 67.5q0 46 17 83t49.5 63.5t78.5 41t104 14.5q94 0 154.5 -30.5t97.5 -96.5l-86 -57q-27 48 -64.5 71t-100.5 23q-38 0 -65 -8t-44 -22t-25 -32.5t-8 -39.5q0 -36 26 -64.5t98 -44.5l63 -14 q117 -26 169.5 -74.5t52.5 -126.5q0 -91 -59 -145.5t-171 -62.5l-14 -46h2q37 -1 65 -23t28 -64q0 -25 -10 -43.5t-27 -30.5t-39.5 -18t-47.5 -6z" />
<glyph unicode="&#x15f;" horiz-adv-x="511" d="M237 -242q-41 0 -74 15t-53 48l47 45q14 -23 31 -35t45 -12q23 0 37.5 9t14.5 29q0 19 -14 29.5t-39 10.5q-6 0 -11.5 -0.5t-11.5 -1.5l-19 15l22 79q-60 5 -104 27.5t-73 69.5l70 59q26 -41 61 -58.5t85 -17.5q53 0 76 17t23 45q0 23 -17.5 36.5t-66.5 24.5l-43 9 q-87 18 -125 58t-38 95q0 32 12 59t36 47t60.5 31.5t85.5 11.5q68 0 112.5 -20t77.5 -61l-67 -66q-25 31 -53 47t-73 16q-88 0 -88 -57q0 -22 17.5 -37.5t62.5 -25.5l55 -12q86 -19 121.5 -56t35.5 -89q0 -61 -42.5 -104t-133.5 -50l-13 -45h2q37 -1 65 -23t28 -64 q0 -25 -10 -43.5t-27 -30.5t-39.5 -18t-47.5 -6z" />
<glyph unicode="&#x160;" horiz-adv-x="632" d="M32 0zM313 843l68 63h105v-2l-124 -121h-101l-122 121v2h109zM561 586l-86 -57q-27 48 -64.5 71t-100.5 23q-38 0 -65 -8t-44 -22t-25 -32.5t-8 -39.5q0 -36 26 -64.5t98 -44.5l63 -14q117 -26 169.5 -74.5t52.5 -126.5q0 -99 -70.5 -154.5t-201.5 -55.5 q-86 0 -157.5 30.5t-115.5 104.5l85 59q36 -58 79.5 -82t111.5 -24q81 0 118.5 28.5t37.5 81.5q0 21 -6.5 37.5t-21.5 29t-40.5 22t-62.5 18.5l-64 15q-56 13 -96 33t-65 46t-36.5 57.5t-11.5 67.5q0 46 17 83t49.5 63.5t78.5 41t104 14.5q94 0 154.5 -30.5t97.5 -96.5z" />
<glyph unicode="&#x161;" horiz-adv-x="511" d="M35 0zM246 633l68 63h105v-2l-124 -121h-101l-122 121v2h109zM251 69q53 0 76 17t23 45q0 23 -17.5 36.5t-66.5 24.5l-43 9q-87 18 -125 58t-38 95q0 32 12 59t36 47t60.5 31.5t85.5 11.5q68 0 112.5 -20t77.5 -61l-67 -66q-25 31 -53 47t-73 16q-88 0 -88 -57 q0 -22 17.5 -37.5t62.5 -25.5l55 -12q86 -19 121.5 -56t35.5 -89q0 -33 -12 -61t-37.5 -49t-64.5 -33t-92 -12q-73 0 -127 22.5t-87 76.5l70 59q26 -41 61 -58.5t85 -17.5z" />
<glyph unicode="&#x162;" horiz-adv-x="589" d="M13 0zM250 -307l-21 46q30 8 47.5 28.5t22.5 49.5q-35 -1 -53.5 15t-18.5 46q0 31 17.5 46t48.5 15q33 0 52 -20.5t19 -66.5q0 -58 -29 -102t-85 -57zM13 700h564v-99h-224v-601h-117v601h-223v99z" />
<glyph unicode="&#x163;" horiz-adv-x="374" d="M19 0zM217 -307l-21 46q30 8 47.5 28.5t22.5 49.5q-35 -1 -53.5 15t-18.5 46q0 31 17.5 46t48.5 15q33 0 52 -20.5t19 -66.5q0 -58 -29 -102t-85 -57zM19 491h82v142h110v-142h138v-85h-138v-235q0 -57 21.5 -75.5t56.5 -18.5q18 0 31.5 3t27.5 8l17 -81 q-27 -11 -49.5 -15.5t-48.5 -4.5q-37 0 -67.5 9.5t-52.5 31t-34 55t-12 81.5v242h-82v85z" />
<glyph unicode="&#x164;" horiz-adv-x="589" d="M13 0zM295 843l68 63h105v-2l-124 -121h-101l-122 121v2h109zM13 700h564v-99h-224v-601h-117v601h-223v99z" />
<glyph unicode="&#x165;" horiz-adv-x="390" d="M347 555h-75l7 196h100zM19 491h82v142h110v-142h138v-85h-138v-235q0 -57 21.5 -75.5t56.5 -18.5q18 0 31.5 3t27.5 8l17 -81q-27 -11 -49.5 -15.5t-48.5 -4.5q-37 0 -67.5 9.5t-52.5 31t-34 55t-12 81.5v242h-82v85z" />
<glyph unicode="&#x166;" horiz-adv-x="590" d="M13 700h564v-99h-223v-215h174v-80h-174v-306h-118v306h-174v80h174v215h-223v99z" />
<glyph unicode="&#x167;" horiz-adv-x="374" d="M349 491v-85h-138v-82h138v-68h-138v-87q0 -28 5.5 -45.5t16 -28t25 -14.5t31.5 -4q18 0 31.5 3t27.5 8l17 -81q-27 -11 -49.5 -15.5t-48.5 -4.5q-37 0 -67.5 9.5t-52.5 31t-34 55t-12 81.5v92h-82v68h82v82h-82v85h82v142h110v-142h138z" />
<glyph unicode="&#x168;" horiz-adv-x="759" d="M86 0zM556 273v427h117v-421q0 -148 -78 -220t-215 -72q-141 0 -217.5 72t-76.5 220v421h117v-427q0 -50 12.5 -86t35.5 -59t55.5 -34t73.5 -11q81 0 128.5 44.5t47.5 145.5zM470 900h76q3 -31 -5 -52t-21.5 -33.5t-31.5 -18t-35 -5.5q-22 0 -40.5 6t-34.5 13.5 t-30.5 13.5t-28.5 6q-18 0 -23.5 -11t-5.5 -25h-76q-2 31 5.5 52t21 33.5t31 18t34.5 5.5q22 0 41 -6t35.5 -13.5t31 -13.5t28.5 -6q18 0 23 11t5 25z" />
<glyph unicode="&#x169;" horiz-adv-x="632" d="M78 0zM453 0l-9 85q-28 -51 -75.5 -74.5t-101.5 -23.5q-98 0 -143.5 53.5t-45.5 146.5v304h113v-280q0 -132 109 -132q61 0 97 41t38 120v251h113v-491h-95zM401 690h76q3 -31 -5 -52t-21.5 -33.5t-31.5 -18t-35 -5.5q-22 0 -40.5 6t-34.5 13.5t-30.5 13.5t-28.5 6 q-18 0 -23.5 -11t-5.5 -25h-76q-2 31 5.5 52t21 33.5t31 18t34.5 5.5q22 0 41 -6t35.5 -13.5t31 -13.5t28.5 -6q18 0 23 11t5 25z" />
<glyph unicode="&#x16a;" horiz-adv-x="759" d="M86 0zM556 273v427h117v-421q0 -148 -78 -220t-215 -72q-141 0 -217.5 72t-76.5 220v421h117v-427q0 -50 12.5 -86t35.5 -59t55.5 -34t73.5 -11q81 0 128.5 44.5t47.5 145.5zM514 876v-69h-267v69h267z" />
<glyph unicode="&#x16b;" horiz-adv-x="632" d="M78 0zM453 0l-9 85q-28 -51 -75.5 -74.5t-101.5 -23.5q-98 0 -143.5 53.5t-45.5 146.5v304h113v-280q0 -132 109 -132q61 0 97 41t38 120v251h113v-491h-95zM445 666v-69h-267v69h267z" />
<glyph unicode="&#x16c;" horiz-adv-x="759" d="M86 0zM556 273v427h117v-421q0 -148 -78 -220t-215 -72q-141 0 -217.5 72t-76.5 220v421h117v-427q0 -50 12.5 -86t35.5 -59t55.5 -34t73.5 -11q81 0 128.5 44.5t47.5 145.5zM455 906h78q0 -37 -10.5 -62t-30.5 -40t-48 -21t-64 -6q-72 0 -112.5 27.5t-40.5 101.5h77 q0 -38 18.5 -52t56.5 -14t57 14t19 52z" />
<glyph unicode="&#x16d;" horiz-adv-x="632" d="M78 0zM453 0l-9 85q-28 -51 -75.5 -74.5t-101.5 -23.5q-98 0 -143.5 53.5t-45.5 146.5v304h113v-280q0 -132 109 -132q61 0 97 41t38 120v251h113v-491h-95zM387 696h78q0 -37 -10.5 -62t-30.5 -40t-48 -21t-64 -6q-72 0 -112.5 27.5t-40.5 101.5h77q0 -38 18.5 -52 t56.5 -14t57 14t19 52z" />
<glyph unicode="&#x16e;" horiz-adv-x="759" d="M86 0zM277 855q0 46 29.5 72t74.5 26t73.5 -26t28.5 -72t-29 -71.5t-74 -25.5t-74 25.5t-29 71.5zM333 855q0 -22 13 -36t34 -14q20 0 34 14t14 36q0 23 -13.5 36.5t-33.5 13.5q-22 0 -35 -13.5t-13 -36.5zM556 273v427h117v-421q0 -148 -78 -220t-215 -72 q-141 0 -217.5 72t-76.5 220v421h117v-427q0 -50 12.5 -86t35.5 -59t55.5 -34t73.5 -11q81 0 128.5 44.5t47.5 145.5z" />
<glyph unicode="&#x16f;" horiz-adv-x="632" d="M78 0zM209 645q0 46 29.5 72t74.5 26t73.5 -26t28.5 -72t-29 -71.5t-74 -25.5t-74 25.5t-29 71.5zM265 645q0 -22 13 -36t34 -14q20 0 34 14t14 36q0 23 -13.5 36.5t-33.5 13.5q-22 0 -35 -13.5t-13 -36.5zM453 0l-9 85q-28 -51 -75.5 -74.5t-101.5 -23.5 q-98 0 -143.5 53.5t-45.5 146.5v304h113v-280q0 -132 109 -132q61 0 97 41t38 120v251h113v-491h-95z" />
<glyph unicode="&#x170;" horiz-adv-x="759" d="M86 0zM556 273v427h117v-421q0 -148 -78 -220t-215 -72q-141 0 -217.5 72t-76.5 220v421h117v-427q0 -50 12.5 -86t35.5 -59t55.5 -34t73.5 -11q81 0 128.5 44.5t47.5 145.5zM611 900l-124 -117h-87v4l78 119h133v-6zM436 900l-99 -117h-84v4l64 119h119v-6z" />
<glyph unicode="&#x171;" horiz-adv-x="632" d="M78 0zM453 0l-9 85q-28 -51 -75.5 -74.5t-101.5 -23.5q-98 0 -143.5 53.5t-45.5 146.5v304h113v-280q0 -132 109 -132q61 0 97 41t38 120v251h113v-491h-95zM536 690l-124 -117h-87v4l78 119h133v-6zM361 690l-99 -117h-84v4l64 119h119v-6z" />
<glyph unicode="&#x172;" horiz-adv-x="760" d="M346 -99q0 26 8.5 48t22.5 39h-5q-136 3 -210.5 74.5t-74.5 216.5v421h117v-427q0 -50 12.5 -86t35.5 -59t55.5 -33.5t72.5 -10.5q41 0 73.5 10.5t55.5 33.5t35.5 59t12.5 86v427h117v-421q0 -117 -50 -184.5t-139 -94.5q-32 -11 -48 -35t-16 -50q0 -35 17 -48.5 t43 -13.5q35 0 67 18l16 -65q-20 -12 -42.5 -18t-49.5 -6q-24 0 -46.5 6t-40 19.5t-28.5 36.5t-11 57z" />
<glyph unicode="&#x173;" horiz-adv-x="632" d="M498 -218q-24 0 -46.5 5t-40 18t-28.5 33.5t-11 52.5q0 47 23 79t56 49l-8 66q-27 -52 -74.5 -75t-101.5 -23q-98 0 -143.5 53.5t-45.5 146.5v304h113v-280q0 -132 109 -132q61 0 97 41t38 120v251h113v-491q-26 -2 -45 -11t-31.5 -22.5t-18.5 -30t-6 -33.5 q0 -28 16.5 -39t43.5 -11q17 0 34 4t32 13l17 -64q-39 -24 -92 -24z" />
<glyph unicode="&#x174;" horiz-adv-x="932" d="M7 0zM466 848l-66 -65h-105v3l122 120h101l124 -120v-3h-111zM413 698h109l145 -533l145 535h114l-203 -700h-113l-145 534l-144 -534h-112l-202 700h119l142 -537z" />
<glyph unicode="&#x175;" horiz-adv-x="752" d="M7 0zM376 638l-66 -65h-105v3l122 120h101l124 -120v-3h-111zM327 488h103l107 -359l104 362h105l-155 -491h-110l-105 362l-103 -362h-109l-157 491h108l106 -361z" />
<glyph unicode="&#x176;" horiz-adv-x="637" d="M9 0zM260 273l-251 427h128l185 -328l183 328h123l-251 -429v-271h-117v273zM319 848l-66 -65h-105v3l122 120h101l124 -120v-3h-111z" />
<glyph unicode="&#x177;" horiz-adv-x="525" d="M5 0zM187 -56l17 50l-199 497h118l140 -378l139 378h117l-234 -584q-29 -72 -76.5 -98t-109.5 -26q-25 0 -45 3.5t-44 11.5l15 87q17 -6 32 -9.5t35 -3.5q12 0 25.5 2.5t26 10t23.5 22t20 37.5zM261 638l-66 -65h-105v3l122 120h101l124 -120v-3h-111z" />
<glyph unicode="&#x178;" horiz-adv-x="637" d="M9 0zM260 273l-251 427h128l185 -328l183 328h123l-251 -429v-271h-117v273zM344 850q0 32 18 47.5t50 15.5t50 -15.5t18 -47.5t-18 -48t-50 -16t-50 16t-18 48zM157 850q0 32 18 47.5t50 15.5t50 -15.5t18 -47.5t-18 -48t-50 -16t-50 16t-18 48z" />
<glyph unicode="&#x179;" horiz-adv-x="586" d="M20 0zM452 900l-120 -117h-91v4l78 119h133v-6zM20 0v80l401 525l-379 -2v97h520v-80l-402 -525l406 2v-97h-546z" />
<glyph unicode="&#x17a;" horiz-adv-x="496" d="M37 0zM406 690l-120 -117h-91v4l78 119h133v-6zM37 0v74l280 330h-275v87h408v-77l-281 -328h289v-86h-421z" />
<glyph unicode="&#x17b;" horiz-adv-x="586" d="M20 0zM20 0v80l401 525l-379 -2v97h520v-80l-402 -525l406 2v-97h-546zM224 850q0 32 19 47.5t52 15.5q32 0 50.5 -15.5t18.5 -47.5t-18.5 -48t-50.5 -16q-33 0 -52 16t-19 48z" />
<glyph unicode="&#x17c;" horiz-adv-x="496" d="M37 0zM37 0v74l280 330h-275v87h408v-77l-281 -328h289v-86h-421zM178 640q0 32 19 47.5t52 15.5q32 0 50.5 -15.5t18.5 -47.5t-18.5 -48t-50.5 -16q-33 0 -52 16t-19 48z" />
<glyph unicode="&#x17d;" horiz-adv-x="586" d="M20 0zM294 843l68 63h105v-2l-124 -121h-101l-122 121v2h109zM20 0v80l401 525l-379 -2v97h520v-80l-402 -525l406 2v-97h-546z" />
<glyph unicode="&#x17e;" horiz-adv-x="496" d="M37 0zM249 633l68 63h105v-2l-124 -121h-101l-122 121v2h109zM37 0v74l280 330h-275v87h408v-77l-281 -328h289v-86h-421z" />
<glyph unicode="&#x192;" horiz-adv-x="393" d="M59 -32l51 321h-83l13 84h83l11 68q15 96 65 138.5t126 42.5q23 0 49 -4.5t43 -14.5l-31 -84q-12 6 -25 9t-30 3q-34 0 -56.5 -20t-31.5 -74l-10 -64h135l-13 -84h-135l-51 -328q-14 -92 -63 -135.5t-126 -43.5q-21 0 -44.5 4t-41.5 12l29 85q13 -5 24.5 -8t28.5 -3 q32 0 53 20t30 76z" />
<glyph unicode="&#x218;" horiz-adv-x="632" d="M32 0zM264 -307l-21 46q30 8 47.5 28.5t22.5 49.5q-35 -1 -53.5 15t-18.5 46q0 31 17.5 46t48.5 15q33 0 52 -20.5t19 -66.5q0 -58 -29 -102t-85 -57zM561 586l-86 -57q-27 48 -64.5 71t-100.5 23q-38 0 -65 -8t-44 -22t-25 -32.5t-8 -39.5q0 -36 26 -64.5t98 -44.5 l63 -14q117 -26 169.5 -74.5t52.5 -126.5q0 -99 -70.5 -154.5t-201.5 -55.5q-86 0 -157.5 30.5t-115.5 104.5l85 59q36 -58 79.5 -82t111.5 -24q81 0 118.5 28.5t37.5 81.5q0 21 -6.5 37.5t-21.5 29t-40.5 22t-62.5 18.5l-64 15q-56 13 -96 33t-65 46t-36.5 57.5t-11.5 67.5 q0 46 17 83t49.5 63.5t78.5 41t104 14.5q94 0 154.5 -30.5t97.5 -96.5z" />
<glyph unicode="&#x219;" horiz-adv-x="511" d="M35 0zM202 -307l-21 46q30 8 47.5 28.5t22.5 49.5q-35 -1 -53.5 15t-18.5 46q0 31 17.5 46t48.5 15q33 0 52 -20.5t19 -66.5q0 -58 -29 -102t-85 -57zM251 69q53 0 76 17t23 45q0 23 -17.5 36.5t-66.5 24.5l-43 9q-87 18 -125 58t-38 95q0 32 12 59t36 47t60.5 31.5 t85.5 11.5q68 0 112.5 -20t77.5 -61l-67 -66q-25 31 -53 47t-73 16q-88 0 -88 -57q0 -22 17.5 -37.5t62.5 -25.5l55 -12q86 -19 121.5 -56t35.5 -89q0 -33 -12 -61t-37.5 -49t-64.5 -33t-92 -12q-73 0 -127 22.5t-87 76.5l70 59q26 -41 61 -58.5t85 -17.5z" />
<glyph unicode="&#x237;" horiz-adv-x="284" d="M86 -28v519h113v-530q0 -93 -45.5 -136t-122.5 -43q-22 0 -43.5 3.5t-44.5 12.5l18 85q13 -5 25.5 -8t30.5 -3q16 0 29 4.5t22 16t13.5 31t4.5 48.5z" />
<glyph unicode="&#x2c6;" horiz-adv-x="600" d="M298 638l-66 -65h-105v3l122 120h101l124 -120v-3h-111z" />
<glyph unicode="&#x2c7;" horiz-adv-x="600" d="M300 633l68 63h105v-2l-124 -121h-101l-122 121v2h109z" />
<glyph unicode="&#x2d8;" horiz-adv-x="600" d="M375 696h78q0 -37 -10.5 -62t-30.5 -40t-48 -21t-64 -6q-72 0 -112.5 27.5t-40.5 101.5h77q0 -38 18.5 -52t56.5 -14t57 14t19 52z" />
<glyph unicode="&#x2d9;" horiz-adv-x="600" d="M231 640q0 32 19 47.5t52 15.5q32 0 50.5 -15.5t18.5 -47.5t-18.5 -48t-50.5 -16q-33 0 -52 16t-19 48z" />
<glyph unicode="&#x2da;" horiz-adv-x="600" d="M199 645q0 46 29.5 72t74.5 26t73.5 -26t28.5 -72t-29 -71.5t-74 -25.5t-74 25.5t-29 71.5zM255 645q0 -22 13 -36t34 -14q20 0 34 14t14 36q0 23 -13.5 36.5t-33.5 13.5q-22 0 -35 -13.5t-13 -36.5z" />
<glyph unicode="&#x2db;" horiz-adv-x="600" d="M313 -218q-24 0 -46.5 5t-40.5 18t-28.5 33.5t-10.5 52.5q0 37 15 65.5t39 48t53.5 29t58.5 8.5l3 -42q-48 -4 -71 -33.5t-23 -63.5q0 -28 16 -39t44 -11q38 0 66 17l17 -64q-41 -24 -92 -24z" />
<glyph unicode="&#x2dc;" horiz-adv-x="600" d="M396 690h76q3 -31 -5 -52t-21.5 -33.5t-31.5 -18t-35 -5.5q-22 0 -40.5 6t-34.5 13.5t-30.5 13.5t-28.5 6q-18 0 -23.5 -11t-5.5 -25h-76q-2 31 5.5 52t21 33.5t31 18t34.5 5.5q22 0 41 -6t35.5 -13.5t31 -13.5t28.5 -6q18 0 23 11t5 25z" />
<glyph unicode="&#x2dd;" horiz-adv-x="600" d="M530 690l-124 -117h-87v4l78 119h133v-6zM355 690l-99 -117h-84v4l64 119h119v-6z" />
<glyph unicode="&#x1e80;" horiz-adv-x="932" d="M7 0zM413 698h109l145 -533l145 535h114l-203 -700h-113l-145 534l-144 -534h-112l-202 700h119l142 -537zM429 784l-120 117v6h134l78 -119v-4h-92z" />
<glyph unicode="&#x1e81;" horiz-adv-x="752" d="M7 0zM327 488h103l107 -359l104 362h105l-155 -491h-110l-105 362l-103 -362h-109l-157 491h108l106 -361zM338 575l-120 117v6h134l78 -119v-4h-92z" />
<glyph unicode="&#x1e82;" horiz-adv-x="932" d="M7 0zM625 899l-120 -117h-91v4l78 119h133v-6zM413 698h109l145 -533l145 535h114l-203 -700h-113l-145 534l-144 -534h-112l-202 700h119l142 -537z" />
<glyph unicode="&#x1e83;" horiz-adv-x="752" d="M7 0zM534 690l-120 -117h-91v4l78 119h133v-6zM327 488h103l107 -359l104 362h105l-155 -491h-110l-105 362l-103 -362h-109l-157 491h108l106 -361z" />
<glyph unicode="&#x1e84;" horiz-adv-x="932" d="M7 0zM491 849q0 32 18 47.5t50 15.5t50 -15.5t18 -47.5t-18 -48t-50 -16t-50 16t-18 48zM304 849q0 32 18 47.5t50 15.5t50 -15.5t18 -47.5t-18 -48t-50 -16t-50 16t-18 48zM413 698h109l145 -533l145 535h114l-203 -700h-113l-145 534l-144 -534h-112l-202 700h119 l142 -537z" />
<glyph unicode="&#x1e85;" horiz-adv-x="752" d="M7 0zM402 640q0 32 18 47.5t50 15.5t50 -15.5t18 -47.5t-18 -48t-50 -16t-50 16t-18 48zM215 640q0 32 18 47.5t50 15.5t50 -15.5t18 -47.5t-18 -48t-50 -16t-50 16t-18 48zM327 488h103l107 -359l104 362h105l-155 -491h-110l-105 362l-103 -362h-109l-157 491h108 l106 -361z" />
<glyph unicode="&#x2000;" horiz-adv-x="476" />
<glyph unicode="&#x2001;" horiz-adv-x="953" />
<glyph unicode="&#x2002;" horiz-adv-x="500" />
<glyph unicode="&#x2003;" horiz-adv-x="1000" />
<glyph unicode="&#x2004;" horiz-adv-x="333" />
<glyph unicode="&#x2005;" horiz-adv-x="250" />
<glyph unicode="&#x2006;" horiz-adv-x="167" />
<glyph unicode="&#x2007;" />
<glyph unicode="&#x2008;" horiz-adv-x="240" />
<glyph unicode="&#x2009;" horiz-adv-x="200" />
<glyph unicode="&#x200a;" horiz-adv-x="100" />
<glyph unicode="&#x200b;" horiz-adv-x="0" />
<glyph unicode="&#x2010;" horiz-adv-x="448" d="M400 305v-91h-351v91h351z" />
<glyph unicode="&#x2011;" horiz-adv-x="448" d="M400 305v-91h-351v91h351z" />
<glyph unicode="&#x2012;" horiz-adv-x="586" d="M537 305v-91h-488v91h488z" />
<glyph unicode="&#x2013;" horiz-adv-x="588" d="M540 305v-91h-491v91h491z" />
<glyph unicode="&#x2014;" horiz-adv-x="788" d="M740 305v-91h-691v91h691z" />
<glyph unicode="&#x2015;" horiz-adv-x="1085" d="M1037 305v-91h-988v91h988z" />
<glyph unicode="&#x2018;" horiz-adv-x="235" d="M165 740l22 -47q-30 -10 -47.5 -32t-22.5 -53q34 3 52 -16t18 -47q0 -32 -18.5 -48.5t-48.5 -16.5q-34 0 -52.5 20.5t-18.5 69.5q0 62 28.5 108.5t87.5 61.5z" />
<glyph unicode="&#x2019;" horiz-adv-x="235" d="M72 471l-22 47q30 10 47.5 32t22.5 53q-34 -3 -52 16t-18 47q0 32 18.5 48.5t48.5 16.5q34 0 52.5 -21t18.5 -69q0 -62 -28.5 -108.5t-87.5 -61.5z" />
<glyph unicode="&#x201a;" horiz-adv-x="233" d="M71 -132l-22 47q29 9 46.5 30.5t22.5 52.5q-33 -3 -51 15.5t-18 46.5q0 32 18.5 48t47.5 16q33 0 51.5 -20t18.5 -68q0 -61 -28.5 -107t-85.5 -61z" />
<glyph unicode="&#x201c;" horiz-adv-x="408" d="M165 740l22 -47q-30 -10 -47.5 -32t-22.5 -53q34 3 52 -16t18 -47q0 -32 -18.5 -48.5t-48.5 -16.5q-34 0 -52.5 20.5t-18.5 69.5q0 62 28.5 108.5t87.5 61.5zM338 740l22 -47q-30 -10 -47.5 -32t-22.5 -53q34 3 52 -16t18 -47q0 -32 -18.5 -48.5t-48.5 -16.5 q-34 0 -52.5 20.5t-18.5 69.5q0 62 28.5 108.5t87.5 61.5z" />
<glyph unicode="&#x201d;" horiz-adv-x="408" d="M70 470l-22 47q30 10 47.5 32t22.5 53q-34 -3 -52 16t-18 47q0 32 18.5 48.5t48.5 16.5q34 0 52.5 -21t18.5 -69q0 -62 -28.5 -108.5t-87.5 -61.5zM244 470l-22 47q30 10 47.5 32t22.5 53q-34 -3 -52 16t-18 47q0 32 18.5 48.5t48.5 16.5q34 0 52.5 -21t18.5 -69 q0 -62 -28.5 -108.5t-87.5 -61.5z" />
<glyph unicode="&#x201e;" horiz-adv-x="406" d="M71 -133l-22 47q29 9 46.5 30.5t22.5 52.5q-33 -3 -51 15.5t-18 46.5q0 32 18.5 48t47.5 16q33 0 51.5 -20t18.5 -68q0 -61 -28.5 -107t-85.5 -61zM244 -133l-22 47q29 9 46.5 30.5t22.5 52.5q-33 -3 -51 15.5t-18 46.5q0 32 18.5 48t47.5 16q33 0 51.5 -20t18.5 -68 q0 -61 -28.5 -107t-85.5 -61z" />
<glyph unicode="&#x2020;" horiz-adv-x="311" d="M269 513h-67l-2 -228h-91v228h-68v81h67l-3 119h101l-3 -119h66v-81z" />
<glyph unicode="&#x2021;" horiz-adv-x="311" d="M41 474h69v54h-69v81h67l-3 104h101l-4 -104h67v-81h-68v-54h68v-81h-67l4 -108h-101l3 108h-67v81z" />
<glyph unicode="&#x2022;" horiz-adv-x="431" d="M56 327q0 71 42.5 114t117.5 43t117 -43t42 -114q0 -72 -42 -114.5t-117 -42.5t-117.5 42.5t-42.5 114.5z" />
<glyph unicode="&#x2026;" horiz-adv-x="721" d="M531 60q0 34 19 50.5t51 16.5q33 0 51 -16.5t18 -50.5q0 -32 -18 -49t-51 -17q-32 0 -51 17t-19 49zM290 60q0 34 19 50.5t52 16.5t51 -16.5t18 -50.5q0 -32 -18 -49t-51 -17t-52 17t-19 49zM50 60q0 34 19 50.5t52 16.5q32 0 50.5 -16.5t18.5 -50.5q0 -32 -18.5 -49 t-50.5 -17q-33 0 -52 17t-19 49z" />
<glyph unicode="&#x202f;" horiz-adv-x="190" />
<glyph unicode="&#x2030;" horiz-adv-x="1484" d="M39 0zM657 204q0 111 42.5 163t135.5 52t135.5 -52t42.5 -163t-42.5 -163t-135.5 -52t-135.5 51.5t-42.5 163.5zM925 204q0 41 -6 68.5t-17.5 44t-28 23.5t-38.5 7t-38.5 -7t-28 -23.5t-17.5 -44.5t-6 -69t6 -68.5t17.5 -44t28 -23.5t38.5 -7t38.5 7t28 23.5t17.5 44.5 t6 69zM39 497q0 111 42.5 163t135.5 52t135.5 -52t42.5 -163t-42.5 -163t-135.5 -52t-135.5 51.5t-42.5 163.5zM307 497q0 41 -6 68.5t-17.5 44t-28 23.5t-38.5 7t-38.5 -7t-28 -23.5t-17.5 -44.5t-6 -69t6 -68.5t17.5 -44t28 -23.5t38.5 -7t38.5 7t28 23.5t17.5 44.5t6 69z M1086 204q0 111 42.5 163t135.5 52t135.5 -52t42.5 -163t-42.5 -163t-135.5 -52t-135.5 51.5t-42.5 163.5zM1354 204q0 41 -6 68.5t-17.5 44t-28 23.5t-38.5 7t-38.5 -7t-28 -23.5t-17.5 -44.5t-6 -69t6 -68.5t17.5 -44t28 -23.5t38.5 -7t38.5 7t28 23.5t17.5 44.5t6 69z M745 700l-341 -700h-103l342 700h102z" />
<glyph unicode="&#x2039;" horiz-adv-x="419" d="M242 0l-192 244v3l192 244h120l-194 -243l197 -248h-123z" />
<glyph unicode="&#x203a;" horiz-adv-x="419" d="M177 491l192 -244v-3l-192 -244h-120l194 243l-197 248h123z" />
<glyph unicode="&#x2044;" horiz-adv-x="525" d="M481 700l-341 -700h-103l342 700h102z" />
<glyph unicode="&#x205f;" horiz-adv-x="238" />
<glyph unicode="&#x2070;" horiz-adv-x="437" d="M39 283zM39 498q0 111 42.5 163t135.5 52t135.5 -52t42.5 -163t-42.5 -163t-135.5 -52t-135.5 51.5t-42.5 163.5zM307 498q0 41 -6 68.5t-17.5 44t-28 23.5t-38.5 7t-38.5 -7t-28 -23.5t-17.5 -44.5t-6 -69t6 -68.5t17.5 -44t28 -23.5t38.5 -7t38.5 7t28 23.5t17.5 44.5 t6 69z" />
<glyph unicode="&#x2074;" horiz-adv-x="406" d="M24 294zM24 385v60l127 257h87l-123 -242h136v155h82v-155h53v-75h-53v-91h-82v91h-227z" />
<glyph unicode="&#x2075;" horiz-adv-x="366" d="M20 283zM128 631l-10 -91q36 15 80 15q63 0 103.5 -30.5t40.5 -98.5q0 -66 -42 -104.5t-123 -38.5q-52 0 -92.5 17t-64.5 55q1 1 10 8t20 15.5t20 15t10 7.5q31 -47 93 -47q37 0 59 18.5t22 52.5t-21 50.5t-59 16.5q-46 0 -81 -27l-54 26l19 210h265v-71z" />
<glyph unicode="&#x2076;" horiz-adv-x="411" d="M39 283zM219 283q-85 0 -132.5 51t-47.5 163q0 216 181 216q51 0 88.5 -17.5t56.5 -52.5l-57 -47q-11 21 -31.5 34t-53.5 13q-46 0 -72.5 -32t-25.5 -114v-10q13 28 41 45.5t68 17.5q63 0 99 -33t36 -95q0 -61 -37 -100t-113 -39zM138 419q0 -30 19 -48.5t54 -18.5 q33 0 54 17t21 51q0 30 -18 47.5t-56 17.5q-35 0 -54.5 -17.5t-19.5 -48.5z" />
<glyph unicode="&#x2077;" horiz-adv-x="324" d="M20 294zM186 294h-94q0 99 35 186.5t95 145.5l-202 -2v77h299v-65q-65 -55 -99 -143t-34 -199z" />
<glyph unicode="&#x2078;" horiz-adv-x="402" d="M38 283zM199 283q-78 0 -119.5 31.5t-41.5 91.5q0 41 19 65t52 35q-26 13 -41 35.5t-15 54.5q0 60 37 88.5t109 28.5t110 -28.5t38 -87.5q0 -32 -15.5 -55t-41.5 -36q33 -11 52 -35.5t19 -64.5q0 -60 -41.5 -91.5t-120.5 -31.5zM267 594q0 25 -18 38.5t-49 13.5 q-32 0 -50 -13.5t-18 -38.5q0 -56 67 -56q33 0 50.5 15t17.5 41zM274 408q0 29 -19.5 44.5t-53.5 15.5q-36 0 -56.5 -15.5t-20.5 -44.5t20 -44.5t55 -15.5q36 0 55.5 15.5t19.5 44.5z" />
<glyph unicode="&#x2079;" horiz-adv-x="410" d="M35 283zM267 574q0 32 -20 50t-54 18q-32 0 -52.5 -17t-20.5 -51q0 -32 17.5 -50t55.5 -18q34 0 54 18t20 50zM185 283q-50 0 -88 16.5t-58 49.5l55 47q27 -43 88 -43q28 0 47.5 11t31 30.5t16.5 47t4 59.5v6q-13 -30 -41 -48t-69 -18q-63 0 -99.5 34t-36.5 97t38 102 t116 39q83 0 130.5 -51t47.5 -163q0 -216 -182 -216z" />
<glyph unicode="&#x207a;" horiz-adv-x="311" d="M32 356zM190 356h-68v90h-90v59h90v91h68v-91h90v-59h-90v-90z" />
<glyph unicode="&#x207b;" horiz-adv-x="311" d="M32 446zM280 505v-59h-248v59h248z" />
<glyph unicode="&#x207c;" horiz-adv-x="311" d="M32 399zM280 550v-60h-248v60h248zM280 460v-61h-248v61h248z" />
<glyph unicode="&#x207d;" horiz-adv-x="224" d="M27 220zM200 288l-7 -68q-86 8 -126 70t-40 180q0 117 40 178.5t125 69.5l8 -69q-25 -3 -44 -13.5t-32 -31.5t-19.5 -53.5t-6.5 -80.5t6.5 -81.5t19.5 -54.5t32 -31.5t44 -14.5z" />
<glyph unicode="&#x207e;" horiz-adv-x="224" d="M21 220zM29 220l-8 68q25 4 44.5 14.5t32.5 31.5t19.5 54.5t6.5 81.5t-6.5 80.5t-19.5 53.5t-32.5 31.5t-44.5 13.5l9 69q85 -8 125.5 -69.5t40.5 -178.5q0 -118 -40.5 -180t-126.5 -70z" />
<glyph unicode="&#x2080;" horiz-adv-x="437" d="M39 204q0 111 42.5 163t135.5 52t135.5 -52t42.5 -163t-42.5 -163t-135.5 -52t-135.5 51.5t-42.5 163.5zM307 204q0 41 -6 68.5t-17.5 44t-28 23.5t-38.5 7t-38.5 -7t-28 -23.5t-17.5 -44.5t-6 -69t6 -68.5t17.5 -44t28 -23.5t38.5 -7t38.5 7t28 23.5t17.5 44.5t6 69z " />
<glyph unicode="&#x2081;" horiz-adv-x="240" d="M180 0h-89v306l-48 -30l-33 68l113 66h57v-410z" />
<glyph unicode="&#x2082;" horiz-adv-x="375" d="M31 0v68l135 118q37 33 54.5 56.5t17.5 49.5q0 29 -17.5 41t-47.5 12q-35 0 -55.5 -14t-36.5 -45l-60 43q26 49 65.5 69.5t96.5 20.5q63 0 104 -28t41 -89q0 -42 -23.5 -78t-74.5 -81l-76 -69l190 3v-77h-313z" />
<glyph unicode="&#x2083;" horiz-adv-x="376" d="M180 -11q-57 0 -95.5 18t-62.5 59l61 44q17 -27 38.5 -38.5t52.5 -11.5q37 0 57.5 14.5t20.5 44.5q0 55 -70 55h-49v67h49q28 0 43.5 13.5t15.5 39.5q0 52 -68 52q-30 0 -48.5 -11t-34.5 -40l-61 39q24 45 61 65t92 20q70 0 108.5 -29.5t38.5 -86.5q0 -61 -55 -92 q30 -12 47 -34.5t17 -58.5q0 -58 -39.5 -93.5t-118.5 -35.5z" />
<glyph unicode="&#x2084;" horiz-adv-x="406" d="M24 91v60l127 257h87l-123 -242h136v155h82v-155h53v-75h-53v-91h-82v91h-227z" />
<glyph unicode="&#x2085;" horiz-adv-x="366" d="M128 337l-10 -91q36 15 80 15q63 0 103.5 -30.5t40.5 -98.5q0 -66 -42 -104.5t-123 -38.5q-52 0 -92.5 17t-64.5 55q1 1 10 8t20 15.5t20 15t10 7.5q31 -47 93 -47q37 0 59 18.5t22 52.5t-21 50.5t-59 16.5q-46 0 -81 -27l-54 26l19 210h265v-71z" />
<glyph unicode="&#x2086;" horiz-adv-x="411" d="M219 -11q-85 0 -132.5 51t-47.5 163q0 216 181 216q51 0 88.5 -17.5t56.5 -52.5l-57 -47q-11 21 -31.5 34t-53.5 13q-46 0 -72.5 -32t-25.5 -114v-10q13 28 41 45.5t68 17.5q63 0 99 -33t36 -95q0 -61 -37 -100t-113 -39zM138 125q0 -30 19 -48.5t54 -18.5q33 0 54 17 t21 51q0 30 -18 47.5t-56 17.5q-35 0 -54.5 -17.5t-19.5 -48.5z" />
<glyph unicode="&#x2087;" horiz-adv-x="324" d="M186 0h-94q0 99 35 186.5t95 145.5l-202 -2v77h299v-65q-65 -55 -99 -143t-34 -199z" />
<glyph unicode="&#x2088;" horiz-adv-x="402" d="M199 -11q-78 0 -119.5 31.5t-41.5 91.5q0 41 19 65t52 35q-26 13 -41 35.5t-15 54.5q0 60 37 88.5t109 28.5t110 -28.5t38 -87.5q0 -32 -15.5 -55t-41.5 -36q33 -11 52 -35.5t19 -64.5q0 -60 -41.5 -91.5t-120.5 -31.5zM267 300q0 25 -18 38.5t-49 13.5q-32 0 -50 -13.5 t-18 -38.5q0 -56 67 -56q33 0 50.5 15t17.5 41zM274 114q0 29 -19.5 44.5t-53.5 15.5q-36 0 -56.5 -15.5t-20.5 -44.5t20 -44.5t55 -15.5q36 0 55.5 15.5t19.5 44.5z" />
<glyph unicode="&#x2089;" horiz-adv-x="410" d="M267 280q0 32 -20 50t-54 18q-32 0 -52.5 -17t-20.5 -51q0 -32 17.5 -50t55.5 -18q34 0 54 18t20 50zM185 -11q-50 0 -88 16.5t-58 49.5l55 47q27 -43 88 -43q28 0 47.5 11t31 30.5t16.5 47t4 59.5v6q-13 -30 -41 -48t-69 -18q-63 0 -99.5 34t-36.5 97t38 102t116 39 q83 0 130.5 -51t47.5 -163q0 -216 -182 -216z" />
<glyph unicode="&#x208a;" horiz-adv-x="311" d="M190 61h-68v90h-90v59h90v91h68v-91h90v-59h-90v-90z" />
<glyph unicode="&#x208b;" horiz-adv-x="311" d="M280 210v-59h-248v59h248z" />
<glyph unicode="&#x208c;" horiz-adv-x="311" d="M280 255v-60h-248v60h248zM280 165v-61h-248v61h248z" />
<glyph unicode="&#x208d;" horiz-adv-x="222" d="M200 -7l-7 -68q-86 8 -126 70t-40 180q0 117 40 178.5t125 69.5l8 -69q-25 -3 -44 -13.5t-32 -31.5t-19.5 -53.5t-6.5 -80.5t6.5 -81.5t19.5 -54.5t32 -31.5t44 -14.5z" />
<glyph unicode="&#x208e;" horiz-adv-x="222" d="M29 -75l-8 68q25 4 44.5 14.5t32.5 31.5t19.5 54.5t6.5 81.5t-6.5 80.5t-19.5 53.5t-32.5 31.5t-44.5 13.5l9 69q85 -8 125.5 -69.5t40.5 -178.5q0 -118 -40.5 -180t-126.5 -70z" />
<glyph unicode="&#x20ac;" horiz-adv-x="692" d="M394 -13q-131 0 -206.5 59t-97.5 191h-85v73h78q-1 9 -1 19v33h-77v73h81q16 147 93.5 212.5t216.5 65.5q94 0 156.5 -33t97.5 -112l-92 -55q-26 60 -64.5 83.5t-98.5 23.5q-40 0 -72.5 -9t-57 -30.5t-40.5 -57t-23 -88.5h290l-19 -73h-276v-33q0 -10 1 -19h262l-19 -73 h-232q8 -44 24.5 -74t40 -48t54 -26t67.5 -8q59 0 101 22.5t70 78.5l90 -51q-40 -75 -104 -109.5t-158 -34.5z" />
<glyph unicode="&#x2122;" horiz-adv-x="698" d="M21 700h260v-58h-96v-236h-66v236h-98v58zM317 406v294h74l98 -225l100 225h72v-294h-64l1 182l-82 -182h-56l-81 179l2 -179h-64z" />
<glyph unicode="&#x2153;" horiz-adv-x="856" d="M10 0zM659 -11q-57 0 -95.5 18t-62.5 59l61 44q17 -27 38.5 -38.5t52.5 -11.5q37 0 57.5 14.5t20.5 44.5q0 55 -70 55h-49v67h49q28 0 43.5 13.5t15.5 39.5q0 52 -68 52q-30 0 -48.5 -11t-34.5 -40l-61 39q24 45 61 65t92 20q70 0 108.5 -29.5t38.5 -86.5q0 -61 -55 -92 q30 -12 47 -34.5t17 -58.5q0 -58 -39.5 -93.5t-118.5 -35.5zM180 293h-89v306l-48 -30l-33 68l113 66h57v-410zM586 700l-341 -700h-103l342 700h102z" />
<glyph unicode="&#x2154;" horiz-adv-x="979" d="M21 0zM783 -11q-57 0 -95.5 18t-62.5 59l61 44q17 -27 38.5 -38.5t52.5 -11.5q37 0 57.5 14.5t20.5 44.5q0 55 -70 55h-49v67h49q28 0 43.5 13.5t15.5 39.5q0 52 -68 52q-30 0 -48.5 -11t-34.5 -40l-61 39q24 45 61 65t92 20q70 0 108.5 -29.5t38.5 -86.5q0 -61 -55 -92 q30 -12 47 -34.5t17 -58.5q0 -58 -39.5 -93.5t-118.5 -35.5zM31 293v68l135 118q37 33 54.5 56.5t17.5 49.5q0 29 -17.5 41t-47.5 12q-35 0 -55.5 -14t-36.5 -45l-60 43q26 49 65.5 69.5t96.5 20.5q63 0 104 -28t41 -89q0 -42 -23.5 -78t-74.5 -81l-76 -69l190 3v-77h-313z M710 700l-341 -700h-103l342 700h102z" />
<glyph unicode="&#x2155;" horiz-adv-x="849" d="M10 0zM180 293h-89v306l-48 -30l-33 68l113 66h57v-410zM611 337l-10 -91q36 15 80 15q63 0 103.5 -30.5t40.5 -98.5q0 -66 -42 -104.5t-123 -38.5q-52 0 -92.5 17t-64.5 55q1 1 10 8t20 15.5t20 15t10 7.5q31 -47 93 -47q37 0 59 18.5t22 52.5t-21 50.5t-59 16.5 q-46 0 -81 -27l-54 26l19 210h265v-71zM586 700l-341 -700h-103l342 700h102z" />
<glyph unicode="&#x2156;" horiz-adv-x="972" d="M21 0zM31 293v68l135 118q37 33 54.5 56.5t17.5 49.5q0 29 -17.5 41t-47.5 12q-35 0 -55.5 -14t-36.5 -45l-60 43q26 49 65.5 69.5t96.5 20.5q63 0 104 -28t41 -89q0 -42 -23.5 -78t-74.5 -81l-76 -69l190 3v-77h-313zM734 337l-10 -91q36 15 80 15q63 0 103.5 -30.5 t40.5 -98.5q0 -66 -42 -104.5t-123 -38.5q-52 0 -92.5 17t-64.5 55q1 1 10 8t20 15.5t20 15t10 7.5q31 -47 93 -47q37 0 59 18.5t22 52.5t-21 50.5t-59 16.5q-46 0 -81 -27l-54 26l19 210h265v-71zM710 700l-341 -700h-103l342 700h102z" />
<glyph unicode="&#x2157;" horiz-adv-x="965" d="M22 0zM180 282q-57 0 -95.5 18t-62.5 59l61 44q17 -27 38.5 -38.5t52.5 -11.5q37 0 57.5 14.5t20.5 44.5q0 55 -70 55h-49v67h49q28 0 43.5 13.5t15.5 39.5q0 52 -68 52q-30 0 -48.5 -11t-34.5 -40l-61 39q24 45 61 65t92 20q70 0 108.5 -29.5t38.5 -86.5q0 -61 -55 -92 q30 -12 47 -34.5t17 -58.5q0 -58 -39.5 -93.5t-118.5 -35.5zM727 337l-10 -91q36 15 80 15q63 0 103.5 -30.5t40.5 -98.5q0 -66 -42 -104.5t-123 -38.5q-52 0 -92.5 17t-64.5 55q1 1 10 8t20 15.5t20 15t10 7.5q31 -47 93 -47q37 0 59 18.5t22 52.5t-21 50.5t-59 16.5 q-46 0 -81 -27l-54 26l19 210h265v-71zM702 700l-341 -700h-103l342 700h102z" />
<glyph unicode="&#x2158;" horiz-adv-x="997" d="M24 0zM759 337l-10 -91q36 15 80 15q63 0 103.5 -30.5t40.5 -98.5q0 -66 -42 -104.5t-123 -38.5q-52 0 -92.5 17t-64.5 55q1 1 10 8t20 15.5t20 15t10 7.5q31 -47 93 -47q37 0 59 18.5t22 52.5t-21 50.5t-59 16.5q-46 0 -81 -27l-54 26l19 210h265v-71zM734 700 l-341 -700h-103l342 700h102zM24 384v60l127 257h87l-123 -242h136v155h82v-155h53v-75h-53v-91h-82v91h-227z" />
<glyph unicode="&#x2159;" horiz-adv-x="885" d="M10 0zM180 293h-89v306l-48 -30l-33 68l113 66h57v-410zM693 -11q-85 0 -132.5 51t-47.5 163q0 216 181 216q51 0 88.5 -17.5t56.5 -52.5l-57 -47q-11 21 -31.5 34t-53.5 13q-46 0 -72.5 -32t-25.5 -114v-10q13 28 41 45.5t68 17.5q63 0 99 -33t36 -95q0 -61 -37 -100 t-113 -39zM612 125q0 -30 19 -48.5t54 -18.5q33 0 54 17t21 51q0 30 -18 47.5t-56 17.5q-35 0 -54.5 -17.5t-19.5 -48.5zM586 700l-341 -700h-103l342 700h102z" />
<glyph unicode="&#x215a;" horiz-adv-x="1001" d="M20 0zM128 630l-10 -91q36 15 80 15q63 0 103.5 -30.5t40.5 -98.5q0 -66 -42 -104.5t-123 -38.5q-52 0 -92.5 17t-64.5 55q1 1 10 8t20 15.5t20 15t10 7.5q31 -47 93 -47q37 0 59 18.5t22 52.5t-21 50.5t-59 16.5q-46 0 -81 -27l-54 26l19 210h265v-71zM810 -11 q-85 0 -132.5 51t-47.5 163q0 216 181 216q51 0 88.5 -17.5t56.5 -52.5l-57 -47q-11 21 -31.5 34t-53.5 13q-46 0 -72.5 -32t-25.5 -114v-10q13 28 41 45.5t68 17.5q63 0 99 -33t36 -95q0 -61 -37 -100t-113 -39zM729 125q0 -30 19 -48.5t54 -18.5q33 0 54 17t21 51 q0 30 -18 47.5t-56 17.5q-35 0 -54.5 -17.5t-19.5 -48.5zM702 700l-341 -700h-103l342 700h102z" />
<glyph unicode="&#x215b;" horiz-adv-x="878" d="M10 0zM180 293h-89v306l-48 -30l-33 68l113 66h57v-410zM676 -11q-78 0 -119.5 31.5t-41.5 91.5q0 41 19 65t52 35q-26 13 -41 35.5t-15 54.5q0 60 37 88.5t109 28.5t110 -28.5t38 -87.5q0 -32 -15.5 -55t-41.5 -36q33 -11 52 -35.5t19 -64.5q0 -60 -41.5 -91.5 t-120.5 -31.5zM744 300q0 25 -18 38.5t-49 13.5q-32 0 -50 -13.5t-18 -38.5q0 -56 67 -56q33 0 50.5 15t17.5 41zM751 114q0 29 -19.5 44.5t-53.5 15.5q-36 0 -56.5 -15.5t-20.5 -44.5t20 -44.5t55 -15.5q36 0 55.5 15.5t19.5 44.5zM586 700l-341 -700h-103l342 700h102z " />
<glyph unicode="&#x215c;" horiz-adv-x="994" d="M22 0zM180 282q-57 0 -95.5 18t-62.5 59l61 44q17 -27 38.5 -38.5t52.5 -11.5q37 0 57.5 14.5t20.5 44.5q0 55 -70 55h-49v67h49q28 0 43.5 13.5t15.5 39.5q0 52 -68 52q-30 0 -48.5 -11t-34.5 -40l-61 39q24 45 61 65t92 20q70 0 108.5 -29.5t38.5 -86.5q0 -61 -55 -92 q30 -12 47 -34.5t17 -58.5q0 -58 -39.5 -93.5t-118.5 -35.5zM792 -11q-78 0 -119.5 31.5t-41.5 91.5q0 41 19 65t52 35q-26 13 -41 35.5t-15 54.5q0 60 37 88.5t109 28.5t110 -28.5t38 -87.5q0 -32 -15.5 -55t-41.5 -36q33 -11 52 -35.5t19 -64.5q0 -60 -41.5 -91.5 t-120.5 -31.5zM860 300q0 25 -18 38.5t-49 13.5q-32 0 -50 -13.5t-18 -38.5q0 -56 67 -56q33 0 50.5 15t17.5 41zM867 114q0 29 -19.5 44.5t-53.5 15.5q-36 0 -56.5 -15.5t-20.5 -44.5t20 -44.5t55 -15.5q36 0 55.5 15.5t19.5 44.5zM702 700l-341 -700h-103l342 700h102z " />
<glyph unicode="&#x215d;" horiz-adv-x="994" d="M20 0zM792 -11q-78 0 -119.5 31.5t-41.5 91.5q0 41 19 65t52 35q-26 13 -41 35.5t-15 54.5q0 60 37 88.5t109 28.5t110 -28.5t38 -87.5q0 -32 -15.5 -55t-41.5 -36q33 -11 52 -35.5t19 -64.5q0 -60 -41.5 -91.5t-120.5 -31.5zM860 300q0 25 -18 38.5t-49 13.5 q-32 0 -50 -13.5t-18 -38.5q0 -56 67 -56q33 0 50.5 15t17.5 41zM867 114q0 29 -19.5 44.5t-53.5 15.5q-36 0 -56.5 -15.5t-20.5 -44.5t20 -44.5t55 -15.5q36 0 55.5 15.5t19.5 44.5zM128 630l-10 -91q36 15 80 15q63 0 103.5 -30.5t40.5 -98.5q0 -66 -42 -104.5t-123 -38.5 q-52 0 -92.5 17t-64.5 55q1 1 10 8t20 15.5t20 15t10 7.5q31 -47 93 -47q37 0 59 18.5t22 52.5t-21 50.5t-59 16.5q-46 0 -81 -27l-54 26l19 210h265v-71zM702 700l-341 -700h-103l342 700h102z" />
<glyph unicode="&#x215e;" horiz-adv-x="922" d="M20 0zM719 -11q-78 0 -119.5 31.5t-41.5 91.5q0 41 19 65t52 35q-26 13 -41 35.5t-15 54.5q0 60 37 88.5t109 28.5t110 -28.5t38 -87.5q0 -32 -15.5 -55t-41.5 -36q33 -11 52 -35.5t19 -64.5q0 -60 -41.5 -91.5t-120.5 -31.5zM787 300q0 25 -18 38.5t-49 13.5 q-32 0 -50 -13.5t-18 -38.5q0 -56 67 -56q33 0 50.5 15t17.5 41zM794 114q0 29 -19.5 44.5t-53.5 15.5q-36 0 -56.5 -15.5t-20.5 -44.5t20 -44.5t55 -15.5q36 0 55.5 15.5t19.5 44.5zM186 293h-94q0 99 35 186.5t95 145.5l-202 -2v77h299v-65q-65 -55 -99 -143t-34 -199z M630 700l-341 -700h-103l342 700h102z" />
<glyph unicode="&#x215f;" horiz-adv-x="831" d="M10 0zM180 293h-89v306l-48 -30l-33 68l113 66h57v-410zM586 700l-341 -700h-103l342 700h102z" />
<glyph unicode="&#x2212;" horiz-adv-x="507" d="M457 349v-79h-407v79h407z" />
<glyph unicode="&#x2248;" horiz-adv-x="507" d="M348 402q10 0 23.5 1.5t28.5 4.5t29.5 8.5t27.5 14.5v-80q-22 -13 -55 -19.5t-62 -6.5q-27 0 -49 5.5t-42.5 11.5t-41 11.5t-45.5 5.5q-21 0 -53 -5.5t-59 -22.5v80q23 13 54.5 19t60.5 6q28 0 50.5 -5.5t43.5 -11.5t42.5 -11.5t46.5 -5.5zM348 251q10 0 23.5 1.5 t28.5 4.5t29.5 8.5t27.5 14.5v-79q-22 -13 -55 -19.5t-62 -6.5q-27 0 -49 5.5t-42.5 11.5t-41 11.5t-45.5 5.5q-21 0 -53 -5.5t-59 -22.5v79q23 13 54.5 19t60.5 6q28 0 50.5 -5.5t43.5 -11.5t42.5 -11.5t46.5 -5.5z" />
<glyph unicode="&#x2260;" horiz-adv-x="507" d="M50 343v79h243l58 80h83l-58 -80h81v-79h-137l-49 -67h186v-79h-243l-55 -79h-84l57 79h-82v79h138l49 67h-187z" />
<glyph unicode="&#x2264;" horiz-adv-x="511" d="M373 528l41 -63l-199 -129l200 -127l-42 -67l-273 170v45zM86 0v79h336v-79h-336z" />
<glyph unicode="&#x2265;" horiz-adv-x="511" d="M141 142l-40 64l198 128l-199 128l42 66l273 -170v-44zM422 79v-79h-336v79h336z" />
<glyph unicode="&#x25fc;" horiz-adv-x="490" d="M0 490h490v-490h-490v490z" />
<glyph unicode="&#xf6c3;" horiz-adv-x="600" d="M254 -307l-21 46q30 8 47.5 28.5t22.5 49.5q-35 -1 -53.5 15t-18.5 46q0 31 17.5 46t48.5 15q33 0 52 -20.5t19 -66.5q0 -58 -29 -102t-85 -57z" />
<glyph horiz-adv-x="476" d="M273 -65v831h102v-831h-102zM101 -65v831h102v-831h-102z" />
<glyph horiz-adv-x="235" d="M165 471q-59 15 -87.5 61.5t-28.5 108.5q0 49 19 69.5t52 20.5q30 0 48.5 -16.5t18.5 -48.5q0 -28 -18 -47t-52 -16q5 -31 22.5 -53t47.5 -32z" />
<glyph horiz-adv-x="408" d="M163 470q-59 15 -87.5 61.5t-28.5 108.5q0 49 19 69.5t52 20.5q30 0 48.5 -16.5t18.5 -48.5q0 -28 -18 -47t-52 -16q5 -31 22.5 -53t47.5 -32zM338 470q-59 15 -87.5 61.5t-28.5 108.5q0 49 19 69.5t52 20.5q30 0 48.5 -16.5t18.5 -48.5q0 -28 -18 -47t-52 -16 q5 -31 22.5 -53t47.5 -32z" />
<glyph horiz-adv-x="618" d="M436 15l-7 67q-24 -48 -67.5 -71.5t-103.5 -23.5q-99 0 -153 65t-54 192q0 130 57 194.5t160 64.5q57 0 98.5 -22.5t64.5 -67.5l10 78h93v-491q-49 -4 -73.5 -33.5t-24.5 -63.5q0 -28 16.5 -39t43.5 -11q18 0 35 4t32 13l16 -64q-39 -24 -91 -24q-24 0 -47 5t-40.5 18 t-28.5 33.5t-11 52.5q0 45 22 76t53 48zM423 246q0 90 -37.5 130t-95.5 40q-65 0 -96.5 -41t-31.5 -131q0 -88 32 -128.5t96 -40.5q58 0 95.5 40.5t37.5 130.5z" />
<glyph horiz-adv-x="618" d="M423 246q0 45 -10 77t-28 53t-42.5 30.5t-52.5 9.5q-65 0 -96.5 -41t-31.5 -131q0 -88 32 -128.5t96 -40.5q28 0 52.5 10t42.5 30.5t28 53t10 77.5zM435 0l-7 84q-24 -48 -67.5 -72.5t-102.5 -24.5q-99 0 -153 65.5t-54 191.5q0 129 57.5 194t160.5 65q56 0 97 -22.5 t65 -68.5l10 79h93v-491h-99z" />
<glyph horiz-adv-x="618" d="M51 0zM423 246q0 45 -10 77t-28 53t-42.5 30.5t-52.5 9.5q-65 0 -96.5 -41t-31.5 -131q0 -88 32 -128.5t96 -40.5q28 0 52.5 10t42.5 30.5t28 53t10 77.5zM435 0l-7 84q-24 -48 -67.5 -72.5t-102.5 -24.5q-99 0 -153 65.5t-54 191.5q0 129 57.5 194t160.5 65 q56 0 97 -22.5t65 -68.5l10 79h93v-491h-99zM251 575l-120 117v6h134l78 -119v-4h-92z" />
<glyph horiz-adv-x="618" d="M51 0zM423 246q0 45 -10 77t-28 53t-42.5 30.5t-52.5 9.5q-65 0 -96.5 -41t-31.5 -131q0 -88 32 -128.5t96 -40.5q28 0 52.5 10t42.5 30.5t28 53t10 77.5zM435 0l-7 84q-24 -48 -67.5 -72.5t-102.5 -24.5q-99 0 -153 65.5t-54 191.5q0 129 57.5 194t160.5 65 q56 0 97 -22.5t65 -68.5l10 79h93v-491h-99zM446 690l-120 -117h-91v4l78 119h133v-6z" />
<glyph horiz-adv-x="618" d="M51 0zM287 638l-66 -65h-105v3l122 120h101l124 -120v-3h-111zM423 246q0 45 -10 77t-28 53t-42.5 30.5t-52.5 9.5q-65 0 -96.5 -41t-31.5 -131q0 -88 32 -128.5t96 -40.5q28 0 52.5 10t42.5 30.5t28 53t10 77.5zM435 0l-7 84q-24 -48 -67.5 -72.5t-102.5 -24.5 q-99 0 -153 65.5t-54 191.5q0 129 57.5 194t160.5 65q56 0 97 -22.5t65 -68.5l10 79h93v-491h-99z" />
<glyph horiz-adv-x="618" d="M51 0zM313 640q0 32 18 47.5t50 15.5t50 -15.5t18 -47.5t-18 -48t-50 -16t-50 16t-18 48zM126 640q0 32 18 47.5t50 15.5t50 -15.5t18 -47.5t-18 -48t-50 -16t-50 16t-18 48zM423 246q0 45 -10 77t-28 53t-42.5 30.5t-52.5 9.5q-65 0 -96.5 -41t-31.5 -131 q0 -88 32 -128.5t96 -40.5q28 0 52.5 10t42.5 30.5t28 53t10 77.5zM435 0l-7 84q-24 -48 -67.5 -72.5t-102.5 -24.5q-99 0 -153 65.5t-54 191.5q0 129 57.5 194t160.5 65q56 0 97 -22.5t65 -68.5l10 79h93v-491h-99z" />
<glyph horiz-adv-x="618" d="M51 0zM423 246q0 45 -10 77t-28 53t-42.5 30.5t-52.5 9.5q-65 0 -96.5 -41t-31.5 -131q0 -88 32 -128.5t96 -40.5q28 0 52.5 10t42.5 30.5t28 53t10 77.5zM435 0l-7 84q-24 -48 -67.5 -72.5t-102.5 -24.5q-99 0 -153 65.5t-54 191.5q0 129 57.5 194t160.5 65 q56 0 97 -22.5t65 -68.5l10 79h93v-491h-99zM377 690h76q3 -31 -5 -52t-21.5 -33.5t-31.5 -18t-35 -5.5q-22 0 -40.5 6t-34.5 13.5t-30.5 13.5t-28.5 6q-18 0 -23.5 -11t-5.5 -25h-76q-2 31 5.5 52t21 33.5t31 18t34.5 5.5q22 0 41 -6t35.5 -13.5t31 -13.5t28.5 -6 q18 0 23 11t5 25z" />
<glyph horiz-adv-x="618" d="M51 0zM423 246q0 45 -10 77t-28 53t-42.5 30.5t-52.5 9.5q-65 0 -96.5 -41t-31.5 -131q0 -88 32 -128.5t96 -40.5q28 0 52.5 10t42.5 30.5t28 53t10 77.5zM435 0l-7 84q-24 -48 -67.5 -72.5t-102.5 -24.5q-99 0 -153 65.5t-54 191.5q0 129 57.5 194t160.5 65 q56 0 97 -22.5t65 -68.5l10 79h93v-491h-99zM184 645q0 46 29.5 72t74.5 26t73.5 -26t28.5 -72t-29 -71.5t-74 -25.5t-74 25.5t-29 71.5zM240 645q0 -22 13 -36t34 -14q20 0 34 14t14 36q0 23 -13.5 36.5t-33.5 13.5q-22 0 -35 -13.5t-13 -36.5z" />
<glyph horiz-adv-x="618" d="M51 0zM423 246q0 45 -10 77t-28 53t-42.5 30.5t-52.5 9.5q-65 0 -96.5 -41t-31.5 -131q0 -88 32 -128.5t96 -40.5q28 0 52.5 10t42.5 30.5t28 53t10 77.5zM435 0l-7 84q-24 -48 -67.5 -72.5t-102.5 -24.5q-99 0 -153 65.5t-54 191.5q0 129 57.5 194t160.5 65 q56 0 97 -22.5t65 -68.5l10 79h93v-491h-99zM422 666v-69h-267v69h267z" />
<glyph horiz-adv-x="618" d="M51 0zM423 246q0 45 -10 77t-28 53t-42.5 30.5t-52.5 9.5q-65 0 -96.5 -41t-31.5 -131q0 -88 32 -128.5t96 -40.5q28 0 52.5 10t42.5 30.5t28 53t10 77.5zM435 0l-7 84q-24 -48 -67.5 -72.5t-102.5 -24.5q-99 0 -153 65.5t-54 191.5q0 129 57.5 194t160.5 65 q56 0 97 -22.5t65 -68.5l10 79h93v-491h-99zM362 696h78q0 -37 -10.5 -62t-30.5 -40t-48 -21t-64 -6q-72 0 -112.5 27.5t-40.5 101.5h77q0 -38 18.5 -52t56.5 -14t57 14t19 52z" />
<glyph horiz-adv-x="619" d="M277 -218q-36 4 -69 10t-60.5 18.5t-50 32.5t-37.5 52l72 56q24 -46 59.5 -64.5t83.5 -18.5q65 0 106 33t41 109v72q-26 -43 -67.5 -62t-88.5 -19q-97 0 -142 54t-45 147v289h112v-268q0 -130 103 -130q59 0 92.5 41t35.5 120v237h112v-471q0 -63 -19 -108.5t-53 -74 t-81.5 -42t-103.5 -13.5z" />
<glyph horiz-adv-x="619" d="M60 0zM277 -218q-36 4 -69 10t-60.5 18.5t-50 32.5t-37.5 52l72 56q24 -46 59.5 -64.5t83.5 -18.5q65 0 106 33t41 109v72q-26 -43 -67.5 -62t-88.5 -19q-97 0 -142 54t-45 147v289h112v-268q0 -130 103 -130q59 0 92.5 41t35.5 120v237h112v-471q0 -63 -19 -108.5 t-53 -74t-81.5 -42t-103.5 -13.5zM438 690l-120 -117h-91v4l78 119h133v-6z" />
<glyph horiz-adv-x="619" d="M60 0zM309 638l-66 -65h-105v3l122 120h101l124 -120v-3h-111zM277 -218q-36 4 -69 10t-60.5 18.5t-50 32.5t-37.5 52l72 56q24 -46 59.5 -64.5t83.5 -18.5q65 0 106 33t41 109v72q-26 -43 -67.5 -62t-88.5 -19q-97 0 -142 54t-45 147v289h112v-268q0 -130 103 -130 q59 0 92.5 41t35.5 120v237h112v-471q0 -63 -19 -108.5t-53 -74t-81.5 -42t-103.5 -13.5z" />
<glyph horiz-adv-x="619" d="M60 0zM336 640q0 32 18 47.5t50 15.5t50 -15.5t18 -47.5t-18 -48t-50 -16t-50 16t-18 48zM149 640q0 32 18 47.5t50 15.5t50 -15.5t18 -47.5t-18 -48t-50 -16t-50 16t-18 48zM277 -218q-36 4 -69 10t-60.5 18.5t-50 32.5t-37.5 52l72 56q24 -46 59.5 -64.5t83.5 -18.5 q65 0 106 33t41 109v72q-26 -43 -67.5 -62t-88.5 -19q-97 0 -142 54t-45 147v289h112v-268q0 -130 103 -130q59 0 92.5 41t35.5 120v237h112v-471q0 -63 -19 -108.5t-53 -74t-81.5 -42t-103.5 -13.5z" />
<glyph horiz-adv-x="394" d="M210 345q-80 0 -125.5 43.5t-45.5 141.5q0 95 45.5 139t128.5 44q55 0 90.5 -20t55.5 -58l-60 -42q-26 53 -85 53q-47 0 -69.5 -25.5t-22.5 -91.5q0 -63 22 -90t69 -27q34 0 54.5 12.5t34.5 41.5l62 -33q-41 -88 -154 -88z" />
<glyph horiz-adv-x="445" d="M300 530q0 62 -25.5 89.5t-64.5 27.5q-45 0 -66.5 -28t-21.5 -90q0 -61 22 -89t66 -28q40 0 65 28t25 90zM309 356l-5 56q-35 -67 -119 -67q-69 0 -108 46t-39 137q0 93 41 139t113 46q81 0 114 -65l8 54h70v-346h-75z" />
<glyph horiz-adv-x="600" d="M334 466h-75l7 235h100z" />
<glyph horiz-adv-x="241" d="M62 0l17 497h87l16 -497h-120zM191 640q0 -34 -18 -50.5t-51 -16.5q-32 0 -51 16.5t-19 50.5q0 32 19 49t51 17q33 0 51 -17t18 -49z" />
<glyph horiz-adv-x="508" d="M307 501l2 -162h-49q-147 0 -147 -135q0 -60 37.5 -92t108.5 -32q55 0 93.5 23t67.5 84l75 -52q-36 -76 -97 -111t-152 -35q-112 0 -176.5 54.5t-64.5 153.5q0 96 52 149t148 61l2 94h100zM328 644q0 -34 -18.5 -50.5t-51.5 -16.5q-32 0 -50.5 16.5t-18.5 50.5 q0 32 18.5 49t50.5 17q33 0 51.5 -17t18.5 -49z" />
<glyph horiz-adv-x="380" d="M332 305v-91h-283v91h283z" />
<glyph horiz-adv-x="693" d="M645 305v-91h-596v91h596z" />
<glyph horiz-adv-x="747" d="M380 -13q-153 0 -231.5 88.5t-78.5 275.5q0 97 20 165.5t60.5 112t101.5 64t142 20.5q97 0 161 -32.5t100 -103.5l-94 -57q-27 53 -66.5 75t-101.5 22q-50 0 -88.5 -12t-64.5 -42t-39.5 -81.5t-13.5 -130.5q0 -78 13.5 -129.5t39 -83t63.5 -44.5t87 -13q39 0 71.5 10.5 t56 33t36 59t12.5 89.5h-170v89h282v-73q0 -82 -21 -139.5t-60 -93.5t-94 -52.5t-123 -16.5z" />
<glyph horiz-adv-x="669" d="M519 0l-288 339v4l287 357h135l-283 -348l298 -352h-149zM103 0v700h119v-700h-119z" />
<glyph horiz-adv-x="547" d="M85 0v700h112v-700h-112zM409 -1l-205 238v4l204 250h122l-202 -245l213 -246z" />
<glyph horiz-adv-x="817" d="M69 5zM683 105q-45 -48 -111 -74t-154 -26q-83 0 -147.5 25t-109.5 70t-68.5 108.5t-23.5 141.5q0 77 23.5 140.5t68.5 108.5t109.5 69.5t147.5 24.5q80 0 141.5 -23t103 -64.5t63 -100t21.5 -129.5q0 -88 -41 -138.5t-118 -50.5q-38 0 -64 14.5t-36 47.5 q-16 -33 -46.5 -51t-75.5 -18q-51 0 -83 25.5t-32 75.5t36.5 79.5t115.5 29.5h76q-2 47 -23.5 63t-61.5 16q-35 0 -58.5 -11t-37.5 -30l-35 44q43 59 141 59q33 0 60.5 -7.5t47.5 -24.5t31 -44t11 -67v-92q0 -32 12.5 -47.5t41.5 -15.5q41 0 66.5 35t25.5 107 q0 69 -20.5 121t-58 86t-89 51t-114.5 17q-67 0 -122.5 -19t-95 -56.5t-61.5 -93.5t-22 -131t22 -131.5t62 -94t95.5 -56.5t122.5 -19q74 0 133.5 21.5t101.5 66.5zM384 235q42 0 67.5 27t26.5 75v3h-74q-42 0 -61.5 -13t-19.5 -42q0 -50 61 -50z" />
<glyph horiz-adv-x="729" d="M76 350q0 95 17 163.5t52 113t89.5 65.5t128.5 21q75 0 129.5 -21t90 -65.5t52.5 -113t17 -163.5q0 -188 -69.5 -275.5t-219.5 -87.5q-74 0 -128.5 21t-89.5 65t-52 113t-17 164zM537 351q0 76 -11.5 127.5t-33.5 83t-54.5 45.5t-74.5 14t-74 -13.5t-53.5 -45t-33 -83.5 t-11.5 -130t11.5 -130t33 -83.5t53.5 -44.5t74 -13t74.5 13t54.5 44.5t33.5 84t11.5 131.5z" />
<glyph horiz-adv-x="362" d="M261 0h-115v562l-90 -60l-47 91l176 109h76v-702z" />
<glyph horiz-adv-x="604" d="M48 0v96l232 212q35 32 60.5 58.5t42.5 50.5t25.5 47.5t8.5 48.5q0 55 -33.5 81t-93.5 26q-66 0 -104.5 -28t-67.5 -86l-80 58q41 79 103.5 114t159.5 35q109 0 170 -47.5t61 -142.5q0 -35 -9.5 -66.5t-30.5 -65t-54 -70t-79 -79.5l-163 -148l368 2v-96h-516z" />
<glyph horiz-adv-x="619" d="M292 -13q-91 0 -154 30t-101 96l81 59q29 -49 69.5 -71.5t100.5 -22.5q73 0 112.5 31t39.5 95q0 54 -31 83t-98 29h-93v92h90q53 0 83.5 28t30.5 79q0 55 -35 80.5t-100 25.5q-56 0 -92 -22.5t-65 -74.5l-81 54q39 71 99 103t151 32q112 0 174.5 -47t62.5 -142 q0 -51 -24 -92t-71 -66q54 -18 83.5 -58t29.5 -102q0 -48 -16 -88t-48.5 -69t-81.5 -45.5t-116 -16.5z" />
<glyph horiz-adv-x="654" d="M35 171v79l226 450h117l-222 -431h265v300h112v-300h100v-98h-100v-171h-112v171h-386z" />
<glyph horiz-adv-x="599" d="M191 605l-18 -192q31 17 69.5 26t79.5 9q50 0 93.5 -12.5t76 -39t51 -68t18.5 -99.5q0 -54 -17.5 -99t-51.5 -76.5t-85 -49t-118 -17.5q-84 0 -149 29.5t-103 92.5l81 61q57 -94 168 -94q78 0 119.5 41t41.5 110t-40.5 102t-110.5 33q-52 0 -90.5 -15t-70.5 -41l-69 34 l34 360h427v-95h-336z" />
<glyph horiz-adv-x="681" d="M368 -13q-66 0 -119.5 21t-92 65t-59 112t-20.5 163q0 187 76 276t218 89q85 0 144.5 -28t90.5 -87l-78 -61q-24 43 -61.5 64.5t-94.5 21.5q-41 0 -74.5 -13.5t-57.5 -46t-37 -86t-13 -133.5v-24q21 55 73.5 87t122.5 32q109 0 171.5 -56t62.5 -162q0 -52 -16 -95 t-47.5 -74t-78.5 -48t-110 -17zM214 211q0 -60 39 -98t108 -38q65 0 105 34t40 105q0 66 -35.5 103t-110.5 37q-65 0 -105.5 -38.5t-40.5 -104.5z" />
<glyph horiz-adv-x="515" d="M156 0q0 84 16 168.5t45.5 163t72 148t95.5 122.5l-354 -2v100h488v-90q-57 -41 -102 -105t-76 -144t-48 -172t-17 -189h-120z" />
<glyph horiz-adv-x="658" d="M328 -13q-126 0 -194 54t-68 151q0 72 36.5 114.5t94.5 57.5q-49 19 -78 58.5t-29 99.5q0 95 61 143t177 48q118 0 178.5 -48t60.5 -142q0 -60 -28.5 -100t-77.5 -59q57 -16 94 -58t37 -114q0 -97 -68 -151t-196 -54zM461 519q0 54 -34.5 81.5t-97.5 27.5 q-64 0 -98 -27.5t-34 -81.5q0 -51 33.5 -81t98.5 -30q66 0 99 30t33 81zM479 196q0 59 -40 89.5t-109 30.5q-70 0 -110.5 -30.5t-40.5 -89.5q0 -61 39 -92t111 -31q71 0 110.5 31t39.5 92z" />
<glyph horiz-adv-x="679" d="M467 488q0 60 -39 98t-109 38q-64 0 -104 -35.5t-40 -107.5q0 -66 35.5 -102.5t109.5 -36.5q66 0 106.5 39.5t40.5 106.5zM310 -13q-85 0 -145 27.5t-92 85.5l77 61q26 -44 65.5 -64t93.5 -20q40 0 73.5 13.5t57.5 45.5t37.5 85.5t13.5 133.5v24q-21 -57 -73.5 -90.5 t-122.5 -33.5q-109 0 -170.5 57.5t-61.5 166.5q0 52 15.5 95t47 74t78.5 48t109 17q66 0 120 -21t92 -65t58.5 -112t20.5 -163q0 -188 -76 -276.5t-218 -88.5z" />
<glyph d="M39 300q0 165 70 239t203 74t203.5 -74.5t70.5 -239.5q0 -162 -70.5 -237t-203.5 -75t-203 74.5t-70 238.5zM477 300q0 63 -10.5 106t-31.5 68.5t-52 36.5t-71 11q-39 0 -69.5 -10.5t-51.5 -36t-32 -68.5t-11 -107t11 -106.5t32 -68t51.5 -36.5t69.5 -11q40 0 71 10.5 t52 36t31.5 68.5t10.5 107z" />
<glyph d="M93 0v99h161v363l-84 -60l-45 91l169 109h73v-503h165v-99h-439z" />
<glyph d="M85 0l-1 93l202 168q34 29 60 51.5t42.5 43t25 39.5t8.5 42q0 45 -30 64.5t-83 19.5q-55 0 -90 -24t-59 -76l-79 53q37 72 94.5 105.5t143.5 33.5q105 1 161.5 -40.5t56.5 -124.5q0 -31 -9 -59t-29 -57t-52 -60.5t-79 -69.5l-137 -113l331 2v-91h-477z" />
<glyph d="M307 -113q-91 0 -153 30t-100 96l79 58q28 -49 68.5 -71.5t100.5 -22.5q73 0 113 31t40 96q0 54 -31.5 83t-97.5 29h-92v92h90q52 0 82.5 28t30.5 79q0 56 -35.5 81.5t-99.5 25.5q-56 0 -91.5 -22.5t-64.5 -74.5l-80 53q38 71 97.5 103t150.5 32q110 0 172.5 -47 t62.5 -142q0 -51 -24 -92t-70 -66q54 -18 83 -58t29 -102q0 -48 -15.5 -88t-48 -69t-81.5 -45.5t-115 -16.5z" />
<glyph d="M21 71v79l236 450h110l-227 -431h256v272h111v-272h96v-98h-96v-171h-111v171h-375z" />
<glyph d="M203 505l-19 -192q31 17 69.5 26t79.5 9q49 0 92.5 -12.5t75.5 -39t50.5 -68t18.5 -99.5q0 -54 -17.5 -99t-51.5 -76.5t-84.5 -49t-116.5 -17.5q-83 0 -147.5 29.5t-102.5 92.5l80 61q57 -95 167 -95q77 0 119 41t42 111q0 69 -40.5 102t-110.5 33q-51 0 -90 -15t-70 -41 l-68 34l34 360h423v-95h-333z" />
<glyph d="M332 -13q-65 0 -118 21t-90.5 65t-58 112t-20.5 163q0 187 75.5 276t215.5 89q84 0 143 -28t90 -87l-77 -61q-24 43 -61.5 64.5t-93.5 21.5q-41 0 -74 -13.5t-57 -46t-37 -86t-13 -133.5v-24q21 55 73 87t121 32q108 0 169 -56t61 -162q0 -52 -15.5 -95t-46.5 -74 t-77.5 -48t-108.5 -17zM179 211q0 -60 39 -98t108 -38q64 0 104 34t40 105q0 66 -35.5 103t-109.5 37q-66 0 -106 -38.5t-40 -104.5z" />
<glyph d="M192 -100q0 84 15.5 168.5t45 163t72 148t95.5 122.5l-352 -2v100h485v-90q-57 -41 -101.5 -105t-75.5 -144t-47.5 -172t-16.5 -189h-120z" />
<glyph d="M310 -13q-126 0 -193.5 54.5t-67.5 151.5q0 72 36.5 114t93.5 57q-48 19 -76.5 58.5t-28.5 99.5q0 96 60.5 143.5t175.5 47.5q116 0 176.5 -47.5t60.5 -142.5q0 -60 -28.5 -100t-76.5 -59q57 -15 93 -57t36 -114q0 -97 -67 -151.5t-194 -54.5zM442 519q0 54 -34 81.5 t-97 27.5q-64 0 -98 -27.5t-34 -81.5q0 -51 33 -81t98 -30q66 0 99 30t33 81zM460 196q0 59 -40 89.5t-109 30.5t-110 -30.5t-41 -89.5q0 -61 39.5 -92t110.5 -31t110.5 31t39.5 92z" />
<glyph d="M445 388q0 60 -39 98t-108 38q-64 0 -104 -35.5t-40 -107.5q0 -66 35.5 -103t109.5 -37q65 0 105.5 40t40.5 107zM289 -113q-85 0 -144.5 27.5t-90.5 85.5l76 61q25 -44 64.5 -64t93.5 -20q40 0 73.5 13.5t57.5 45.5t37 85.5t13 133.5v24q-21 -57 -73 -90t-121 -33 q-108 0 -169.5 57.5t-61.5 165.5q0 52 15.5 95t46.5 74t77.5 48t108.5 17q65 0 118 -21t90.5 -65t58 -112t20.5 -163q0 -188 -75 -276.5t-215 -88.5z" />
<glyph horiz-adv-x="632" d="M56 300q0 165 66.5 239t192.5 74q127 0 194 -74.5t67 -239.5q0 -162 -67 -237t-194 -75q-126 0 -192.5 74.5t-66.5 238.5zM465 300q0 63 -9.5 106t-28.5 68.5t-47 36.5t-65 11q-36 0 -63.5 -10.5t-46 -36t-28.5 -68.5t-10 -107t10 -106.5t28.5 -68t46 -36.5t63.5 -11 q37 0 65 10.5t47 36t28.5 68.5t9.5 107z" />
<glyph horiz-adv-x="331" d="M248 0h-112v462l-84 -60l-45 91l168 109h73v-602z" />
<glyph horiz-adv-x="527" d="M49 0l-1 83l194 181q30 28 52 51.5t36.5 44t21 40t6.5 40.5q0 44 -27 63.5t-73 19.5q-48 0 -80.5 -24.5t-56.5 -73.5l-79 53q33 69 87.5 102t137.5 33q95 0 149.5 -40.5t54.5 -119.5q0 -30 -9 -58t-28 -57t-48 -61t-68 -70l-125 -122l294 3v-88h-438z" />
<glyph horiz-adv-x="591" d="M276 -114q-88 0 -147 30t-96 96l80 58q26 -49 63.5 -72t93.5 -23q72 0 111.5 31.5t39.5 96.5q0 54 -31 83t-96 29h-88v92h86q51 0 80 28t29 79q0 56 -34 82.5t-97 26.5q-51 0 -84 -23t-60 -75l-80 53q37 71 93 103t143 32q109 0 170.5 -47.5t61.5 -142.5q0 -51 -24 -91.5 t-70 -65.5q54 -18 83 -58.5t29 -101.5q0 -48 -15.5 -88.5t-47 -69.5t-80 -45.5t-113.5 -16.5z" />
<glyph horiz-adv-x="626" d="M34 71v76l215 453h112l-210 -437h252v306h108v-306h94v-92h-94v-171h-108v171h-369z" />
<glyph horiz-adv-x="572" d="M186 507l-18 -194q29 17 66 26t75 9q48 0 90 -12.5t72.5 -39t48.5 -68.5t18 -101q0 -54 -17 -98t-50 -75.5t-81.5 -49t-111.5 -17.5q-84 0 -146 29.5t-99 92.5l79 60q28 -48 66.5 -71t95.5 -23q72 0 112 41t40 109q0 71 -38 104t-109 33q-45 0 -82 -15t-67 -41l-68 34 l34 360h408v-93h-318z" />
<glyph horiz-adv-x="650" d="M354 -13q-64 0 -116 21t-88.5 65t-56.5 112t-20 163q0 187 73.5 276t210.5 89q82 0 139.5 -28t86.5 -87l-78 -61q-23 43 -58 64.5t-89 21.5q-39 0 -71 -13.5t-55 -46t-35.5 -86t-12.5 -133.5v-24q20 55 70 87t118 32q105 0 164 -56t59 -162q0 -52 -15 -95t-45 -74 t-75.5 -48t-105.5 -17zM208 211q0 -60 36.5 -98t102.5 -38q61 0 99 34t38 105q0 66 -33.5 103t-104.5 37q-62 0 -100 -38.5t-38 -104.5z" />
<glyph horiz-adv-x="493" d="M149 -100q0 84 15 168.5t43.5 163t69 148t91.5 122.5l-338 -2v100h466v-90q-54 -41 -96.5 -105t-72.5 -144t-46 -172t-16 -189h-116z" />
<glyph horiz-adv-x="630" d="M314 -13q-121 0 -186 54.5t-65 151.5q0 72 35 114t90 57q-47 19 -74.5 58.5t-27.5 99.5q0 96 58 143.5t170 47.5t170.5 -47.5t58.5 -142.5q0 -60 -27 -100t-74 -59q54 -15 89 -57t35 -114q0 -97 -65 -151.5t-187 -54.5zM438 519q0 54 -31.5 81.5t-91.5 27.5 q-124 0 -124 -109q0 -51 31 -81t92 -30q63 0 93.5 30t30.5 81zM456 196q0 59 -37.5 89.5t-102.5 30.5q-67 0 -104.5 -30.5t-37.5 -89.5q0 -61 36 -91.5t104 -30.5t105 30.5t37 91.5z" />
<glyph horiz-adv-x="649" d="M446 388q0 60 -36.5 98t-102.5 38q-60 0 -98 -35.5t-38 -107.5q0 -66 33 -102.5t103 -36.5q63 0 101 39.5t38 106.5zM297 -113q-81 0 -139.5 27.5t-88.5 85.5l77 61q24 -44 61.5 -64t89.5 -20q39 0 71 13.5t55 45.5t35.5 85.5t12.5 133.5v24q-20 -57 -70 -90.5 t-118 -33.5q-105 0 -164 57.5t-59 166.5q0 52 15 95t45 74t75.5 48t105.5 17q64 0 115.5 -21t88.5 -65t57 -112t20 -163q0 -188 -73.5 -276.5t-211.5 -88.5z" />
<glyph horiz-adv-x="437" d="M39 0zM39 4q0 111 42.5 163t135.5 52t135.5 -52t42.5 -163t-42.5 -163t-135.5 -52t-135.5 51.5t-42.5 163.5zM307 4q0 41 -6 68.5t-17.5 44t-28 23.5t-38.5 7t-38.5 -7t-28 -23.5t-17.5 -44.5t-6 -69t6 -68.5t17.5 -44t28 -23.5t38.5 -7t38.5 7t28 23.5t17.5 44.5t6 69z " />
<glyph horiz-adv-x="240" d="M10 0zM180 -200h-89v306l-48 -30l-33 68l113 66h57v-410z" />
<glyph horiz-adv-x="375" d="M21 0zM31 -200v68l135 118q37 33 54.5 56.5t17.5 49.5q0 29 -17.5 41t-47.5 12q-35 0 -55.5 -14t-36.5 -45l-60 43q26 49 65.5 69.5t96.5 20.5q63 0 104 -28t41 -89q0 -42 -23.5 -78t-74.5 -81l-76 -69l190 3v-77h-313z" />
<glyph horiz-adv-x="376" d="M22 0zM180 -211q-57 0 -95.5 18t-62.5 59l61 44q17 -27 38.5 -38.5t52.5 -11.5q37 0 57.5 14.5t20.5 44.5q0 55 -70 55h-49v67h49q28 0 43.5 13.5t15.5 39.5q0 52 -68 52q-30 0 -48.5 -11t-34.5 -40l-61 39q24 45 61 65t92 20q70 0 108.5 -29.5t38.5 -86.5q0 -61 -55 -92 q30 -12 47 -34.5t17 -58.5q0 -58 -39.5 -93.5t-118.5 -35.5z" />
<glyph horiz-adv-x="406" d="M24 0zM24 -109v60l127 257h87l-123 -242h136v155h82v-155h53v-75h-53v-91h-82v91h-227z" />
<glyph horiz-adv-x="366" d="M20 0zM128 137l-10 -91q36 15 80 15q63 0 103.5 -30.5t40.5 -98.5q0 -66 -42 -104.5t-123 -38.5q-52 0 -92.5 17t-64.5 55q1 1 10 8t20 15.5t20 15t10 7.5q31 -47 93 -47q37 0 59 18.5t22 52.5t-21 50.5t-59 16.5q-46 0 -81 -27l-54 26l19 210h265v-71z" />
<glyph horiz-adv-x="411" d="M39 0zM219 -211q-85 0 -132.5 51t-47.5 163q0 216 181 216q51 0 88.5 -17.5t56.5 -52.5l-57 -47q-11 21 -31.5 34t-53.5 13q-46 0 -72.5 -32t-25.5 -114v-10q13 28 41 45.5t68 17.5q63 0 99 -33t36 -95q0 -61 -37 -100t-113 -39zM138 -75q0 -30 19 -48.5t54 -18.5 q33 0 54 17t21 51q0 30 -18 47.5t-56 17.5q-35 0 -54.5 -17.5t-19.5 -48.5z" />
<glyph horiz-adv-x="324" d="M20 0zM186 -200h-94q0 99 35 186.5t95 145.5l-202 -2v77h299v-65q-65 -55 -99 -143t-34 -199z" />
<glyph horiz-adv-x="402" d="M38 0zM199 -211q-78 0 -119.5 31.5t-41.5 91.5q0 41 19 65t52 35q-26 13 -41 35.5t-15 54.5q0 60 37 88.5t109 28.5t110 -28.5t38 -87.5q0 -32 -15.5 -55t-41.5 -36q33 -11 52 -35.5t19 -64.5q0 -60 -41.5 -91.5t-120.5 -31.5zM267 100q0 25 -18 38.5t-49 13.5 q-32 0 -50 -13.5t-18 -38.5q0 -56 67 -56q33 0 50.5 15t17.5 41zM274 -86q0 29 -19.5 44.5t-53.5 15.5q-36 0 -56.5 -15.5t-20.5 -44.5t20 -44.5t55 -15.5q36 0 55.5 15.5t19.5 44.5z" />
<glyph horiz-adv-x="410" d="M35 0zM267 80q0 32 -20 50t-54 18q-32 0 -52.5 -17t-20.5 -51q0 -32 17.5 -50t55.5 -18q34 0 54 18t20 50zM185 -211q-50 0 -88 16.5t-58 49.5l55 47q27 -43 88 -43q28 0 47.5 11t31 30.5t16.5 47t4 59.5v6q-13 -30 -41 -48t-69 -18q-63 0 -99.5 34t-36.5 97t38 102 t116 39q83 0 130.5 -51t47.5 -163q0 -216 -182 -216z" />
<glyph horiz-adv-x="311" d="M32 0zM190 -139h-68v90h-90v59h90v91h68v-91h90v-59h-90v-90z" />
<glyph horiz-adv-x="311" d="M32 0zM280 10v-59h-248v59h248z" />
<glyph horiz-adv-x="311" d="M32 0zM280 55v-60h-248v60h248zM280 -35v-61h-248v61h248z" />
<glyph horiz-adv-x="222" d="M27 0zM200 -207l-7 -68q-86 8 -126 70t-40 180q0 117 40 178.5t125 69.5l8 -69q-25 -3 -44 -13.5t-32 -31.5t-19.5 -53.5t-6.5 -80.5t6.5 -81.5t19.5 -54.5t32 -31.5t44 -14.5z" />
<glyph horiz-adv-x="222" d="M21 0zM29 -275l-8 68q25 4 44.5 14.5t32.5 31.5t19.5 54.5t6.5 81.5t-6.5 80.5t-19.5 53.5t-32.5 31.5t-44.5 13.5l9 69q85 -8 125.5 -69.5t40.5 -178.5q0 -118 -40.5 -180t-126.5 -70z" />
<glyph horiz-adv-x="284" d="M71 640q0 33 18.5 49.5t52.5 16.5t52.5 -16.5t18.5 -49.5t-18.5 -49.5t-52.5 -16.5t-52.5 16.5t-18.5 49.5zM86 491h113v-491h-113v491z" />
<glyph horiz-adv-x="547" d="M85 0zM251 -307l-21 46q30 8 47.5 28.5t22.5 49.5q-35 -1 -53.5 15t-18.5 46q0 31 17.5 46t48.5 15q33 0 52 -20.5t19 -66.5q0 -58 -29 -102t-85 -57zM85 0v700h112v-700h-112zM409 -1l-205 238v4l204 250h122l-202 -245l213 -246z" />
<glyph horiz-adv-x="747" d="M465 906h78q0 -37 -10.5 -62t-30.5 -40t-48 -21t-64 -6q-72 0 -112.5 27.5t-40.5 101.5h77q0 -38 18.5 -52t56.5 -14t57 14t19 52zM380 -13q-153 0 -231.5 88.5t-78.5 275.5q0 97 20 165.5t60.5 112t101.5 64t142 20.5q97 0 161 -32.5t100 -103.5l-94 -57 q-27 53 -66.5 75t-101.5 22q-50 0 -88.5 -12t-64.5 -42t-39.5 -81.5t-13.5 -130.5q0 -78 13.5 -129.5t39 -83t63.5 -44.5t87 -13q39 0 71.5 10.5t56 33t36 59t12.5 89.5h-170v89h282v-73q0 -82 -21 -139.5t-60 -93.5t-94 -52.5t-123 -16.5z" />
<glyph horiz-adv-x="747" d="M391 848l-66 -65h-105v3l122 120h101l124 -120v-3h-111zM380 -13q-153 0 -231.5 88.5t-78.5 275.5q0 97 20 165.5t60.5 112t101.5 64t142 20.5q97 0 161 -32.5t100 -103.5l-94 -57q-27 53 -66.5 75t-101.5 22q-50 0 -88.5 -12t-64.5 -42t-39.5 -81.5t-13.5 -130.5 q0 -78 13.5 -129.5t39 -83t63.5 -44.5t87 -13q39 0 71.5 10.5t56 33t36 59t12.5 89.5h-170v89h282v-73q0 -82 -21 -139.5t-60 -93.5t-94 -52.5t-123 -16.5z" />
<glyph horiz-adv-x="747" d="M380 -13q-153 0 -231.5 88.5t-78.5 275.5q0 97 20 165.5t60.5 112t101.5 64t142 20.5q97 0 161 -32.5t100 -103.5l-94 -57q-27 53 -66.5 75t-101.5 22q-50 0 -88.5 -12t-64.5 -42t-39.5 -81.5t-13.5 -130.5q0 -78 13.5 -129.5t39 -83t63.5 -44.5t87 -13q39 0 71.5 10.5 t56 33t36 59t12.5 89.5h-170v89h282v-73q0 -82 -21 -139.5t-60 -93.5t-94 -52.5t-123 -16.5zM339 -307l-21 46q30 8 47.5 28.5t22.5 49.5h-4q-32 0 -50 15.5t-18 45.5q0 31 17.5 46t48.5 15q33 0 52 -20.5t19 -66.5q0 -58 -29 -102t-85 -57z" />
<glyph horiz-adv-x="747" d="M321 850q0 32 19 47.5t52 15.5q32 0 50.5 -15.5t18.5 -47.5t-18.5 -48t-50.5 -16q-33 0 -52 16t-19 48zM380 -13q-153 0 -231.5 88.5t-78.5 275.5q0 97 20 165.5t60.5 112t101.5 64t142 20.5q97 0 161 -32.5t100 -103.5l-94 -57q-27 53 -66.5 75t-101.5 22 q-50 0 -88.5 -12t-64.5 -42t-39.5 -81.5t-13.5 -130.5q0 -78 13.5 -129.5t39 -83t63.5 -44.5t87 -13q39 0 71.5 10.5t56 33t36 59t12.5 89.5h-170v89h282v-73q0 -82 -21 -139.5t-60 -93.5t-94 -52.5t-123 -16.5z" />
<glyph horiz-adv-x="669" d="M103 0zM315 -307l-21 46q30 8 47.5 28.5t22.5 49.5q-35 -1 -53.5 15t-18.5 46q0 31 17.5 46t48.5 15q33 0 52 -20.5t19 -66.5q0 -58 -29 -102t-85 -57zM519 0l-288 339v4l287 357h135l-283 -348l298 -352h-149zM103 0v700h119v-700h-119z" />
<glyph horiz-adv-x="448" d="M400 399v-91h-351v91h351z" />
<glyph horiz-adv-x="588" d="M540 399v-91h-491v91h491z" />
<glyph horiz-adv-x="788" d="M740 399v-91h-691v91h691z" />
<glyph horiz-adv-x="586" d="M537 399v-91h-488v91h488z" />
<glyph horiz-adv-x="284" d="M199 700v-700h-113v700h113z" />
<glyph horiz-adv-x="657" d="M109 0v406h-87v85h87v51q0 96 45.5 138t122.5 42q26 0 50 -5.5t41 -13.5l-19 -84q-13 6 -26.5 9.5t-30.5 3.5q-35 0 -54 -20t-19 -74v-47h137v-85h-137v-406h-110zM566 700v-700h-113v700h113z" />
<glyph horiz-adv-x="657" d="M0 0z" />
</font>
</defs>
</svg>
