<?xml version="1.0" standalone="no"?>
<!DOCTYPE svg PUBLIC "-//W3C//DTD SVG 1.1//EN" "http://www.w3.org/Graphics/SVG/1.1/DTD/svg11.dtd" >
<svg xmlns="http://www.w3.org/2000/svg">
<metadata></metadata>
<defs>
<font id="honeywell_sans_webBlkIt" horiz-adv-x="625" >
<font-face units-per-em="1000" ascent="774" descent="-226" />
<missing-glyph horiz-adv-x="230" />
<glyph unicode="fi" horiz-adv-x="709" d="M605 553q-94 0 -94 77q0 58 32.5 84.5t84.5 26.5q45 0 69.5 -19t24.5 -58q0 -58 -31.5 -84.5t-85.5 -26.5zM44 0l57 362h-74l22 140h75l5 27q16 105 77.5 156t150.5 51q16 0 34 -2t35 -5.5t32.5 -10t25.5 -15.5l-49 -119q-10 8 -22.5 11.5t-26.5 3.5q-61 0 -73 -71 l-4 -26h123l-22 -140h-123l-57 -362h-186zM499 502h191l-80 -502h-190z" />
<glyph unicode="fl" horiz-adv-x="723" d="M44 0l57 362h-74l22 140h75l5 27q16 105 77.5 156t150.5 51q16 0 34 -2t35 -5.5t32.5 -10t25.5 -15.5l-49 -119q-10 8 -22.5 11.5t-26.5 3.5q-61 0 -73 -71l-4 -26h123l-22 -140h-123l-57 -362h-186zM573 0q-81 0 -112 38.5t-19 116.5l86 545h190l-83 -526q-3 -21 3 -30 t21 -9h32l-21 -135h-97z" />
<glyph horiz-adv-x="176" />
<glyph horiz-adv-x="176" />
<glyph unicode="&#xd;" horiz-adv-x="176" />
<glyph unicode=" "  horiz-adv-x="230" />
<glyph unicode="&#x09;" horiz-adv-x="230" />
<glyph unicode="&#xa0;" horiz-adv-x="230" />
<glyph unicode="!" horiz-adv-x="268" d="M298 701l-103 -472h-133l46 472h190zM93 -8q-89 0 -89 77q0 56 31 84t82 28q43 0 66 -20t23 -58q0 -55 -30.5 -83t-82.5 -28z" />
<glyph unicode="&#x22;" horiz-adv-x="417" d="M363 413h-119l39 302h154zM190 413h-119l22 302h154z" />
<glyph unicode="#" horiz-adv-x="832" d="M394 401l-43 -99h114l44 99h-115zM105 401l54 128h105l76 171h185l-76 -171h115l75 171h185l-76 -171h105l-54 -128h-105l-44 -99h107l-54 -129h-108l-75 -173h-185l75 173h-115l-75 -173h-184l75 173h-103l54 129h104l44 99h-105z" />
<glyph unicode="$" horiz-adv-x="620" d="M236 502q0 -41 54 -59l19 121q-40 -5 -56.5 -21.5t-16.5 -40.5zM335 251l-19 -116q36 5 55.5 20t19.5 41q0 17 -12.5 30.5t-43.5 24.5zM210 -62l9 61q-72 6 -128 35.5t-85 94.5l130 96q29 -76 105 -88l21 136q-92 26 -141.5 74.5t-49.5 129.5q0 48 17 88.5t50 70.5 t81.5 48t111.5 21l10 61h75l-10 -64q66 -8 115.5 -37t73.5 -89l-132 -86q-17 29 -34.5 46.5t-44.5 23.5l-22 -138q61 -17 100.5 -36.5t62 -43t31 -50.5t8.5 -60q0 -105 -69.5 -165.5t-199.5 -67.5l-10 -61h-75z" />
<glyph unicode="%" horiz-adv-x="1073" d="M53 0zM862 421q88 0 129 -40.5t41 -121.5q0 -14 -1 -27t-3 -29q-14 -104 -66.5 -160t-155.5 -56q-88 0 -129 40t-41 121q0 13 1.5 26.5t3.5 28.5q14 109 67 163.5t154 54.5zM853 318q-29 0 -49 -25t-31 -89q-2 -15 -3.5 -27.5t-1.5 -23.5q0 -35 12 -49t35 -14 q29 0 49 24.5t31 88.5q2 16 4 28.5t2 23.5q0 35 -12.5 49t-35.5 14zM279 714q88 0 129 -40.5t41 -121.5q0 -14 -1 -27t-3 -29q-14 -104 -66.5 -160t-155.5 -56q-88 0 -129 40t-41 121q0 13 1.5 26.5t3.5 28.5q14 109 67 163.5t154 54.5zM270 611q-29 0 -49 -25t-31 -89 q-2 -15 -3.5 -27.5t-1.5 -23.5q0 -35 12 -49t35 -14q29 0 49 24.5t31 88.5q2 16 4 28.5t2 23.5q0 35 -12.5 49t-35.5 14zM853 700l-454 -700h-168l454 700h168z" />
<glyph unicode="&#x26;" horiz-adv-x="726" d="M583 487h149q-27 -203 -124 -330q17 -13 36.5 -26t39.5 -27l-103 -127q-5 3 -19.5 13.5t-31 21.5t-30.5 21l-18 14q-99 -62 -237 -62q-54 0 -98 10t-75 31.5t-48 55t-17 80.5q0 39 12.5 70.5t33 57t48 47t57.5 39.5q-22 42 -31 78t-9 69q0 90 64.5 141t179.5 51 q89 0 131.5 -34.5t42.5 -103.5q0 -73 -45.5 -128t-120.5 -100q23 -24 53 -51t70 -58q67 93 90 247zM269 114q51 0 95 26q-43 37 -75.5 70t-58.5 65q-26 -17 -44 -38.5t-18 -51.5q0 -35 26.5 -53t74.5 -18zM266 521q0 -15 5 -34.5t19 -42.5q48 27 72 50.5t24 53.5 q0 43 -49 43q-35 0 -53 -19t-18 -51z" />
<glyph unicode="'" horiz-adv-x="236" d="M190 413h-120l31 302h155z" />
<glyph unicode="(" horiz-adv-x="369" d="M269 -167q-126 10 -184.5 92.5t-58.5 234.5q0 28 1.5 58t6.5 62q26 209 117.5 322t251.5 124l-3 -157q-41 -5 -74 -21t-59 -50t-45 -87t-31 -131q-6 -35 -8.5 -63t-2.5 -54q0 -45 8.5 -76t25 -51.5t40 -31.5t54.5 -14z" />
<glyph unicode=")" horiz-adv-x="369" d="M99 727q126 -10 184.5 -92.5t58.5 -234.5q0 -28 -1.5 -58t-6.5 -62q-26 -209 -117.5 -322t-251.5 -124l3 157q41 4 74 20.5t59 50.5t45 87t31 131q6 35 8.5 63t2.5 54q0 45 -8.5 76t-25 51.5t-40 31.5t-54.5 14z" />
<glyph unicode="*" horiz-adv-x="454" d="M162 313l-94 89l74 77l-84 25l55 131l89 -31l11 111h150l-24 -111l99 31l13 -133l-92 -23l50 -77l-124 -89l-47 89z" />
<glyph unicode="+" horiz-adv-x="511" d="M283 110h-121l24 149h-141l16 104h142l24 152h121l-25 -152h142l-17 -104h-141z" />
<glyph unicode="," horiz-adv-x="265" d="M9 -161l-26 78q32 9 58.5 28.5t37.5 47.5q-34 3 -53 22t-19 54q0 56 30.5 83.5t82.5 27.5q42 0 66 -21.5t24 -68.5q0 -40 -13 -80t-38 -74.5t-63 -60t-87 -36.5z" />
<glyph unicode="-" horiz-adv-x="497" d="M450 345l-23 -148h-394l23 148h394z" />
<glyph unicode="." horiz-adv-x="265" d="M95 -8q-89 0 -89 77q0 50 27 81t86 31q89 0 89 -79q0 -54 -30.5 -82t-82.5 -28z" />
<glyph unicode="/" horiz-adv-x="574" d="M643 700l-471 -700h-210l471 700h210z" />
<glyph unicode="0" d="M35 350q23 186 107.5 275.5t223.5 89.5q121 0 183.5 -66.5t62.5 -205.5q0 -22 -1.5 -44.5t-5.5 -48.5q-24 -185 -111 -275t-223 -90q-119 0 -180.5 66t-61.5 203q0 22 1 46t5 50zM437 447q0 64 -21.5 89.5t-62.5 25.5q-26 0 -48 -11t-39.5 -36t-31.5 -65.5t-23 -99.5 q-9 -57 -9 -97q0 -64 21.5 -90t61.5 -26q27 0 49 11t40 36t31.5 66t23.5 100q5 29 6.5 53t1.5 44z" />
<glyph unicode="1" d="M54 162h156l50 318l-82 -46l-47 154l233 121h127l-87 -547h152l-26 -162h-502z" />
<glyph unicode="2" d="M4 0l21 137l254 203q23 18 44.5 36.5t38 37.5t26 39.5t9.5 43.5q0 31 -20 43.5t-54 12.5q-50 0 -82.5 -21t-63.5 -64l-109 92q58 85 131 120t169 35q48 0 89.5 -8.5t72 -29t47.5 -54t17 -82.5q0 -44 -13 -82t-37 -73t-58.5 -68.5t-77.5 -68.5l-113 -92l267 6l-26 -163 h-532z" />
<glyph unicode="3" d="M260 -15q-93 0 -155.5 34t-96.5 114l143 86q19 -47 45.5 -66t70.5 -19q48 0 80.5 21.5t32.5 69.5q0 28 -21.5 41.5t-68.5 13.5h-71l21 139h71q46 0 72 21t26 62q0 29 -21 43.5t-60 14.5q-41 0 -68 -17.5t-53 -52.5l-118 76q52 82 120 115.5t161 33.5q114 0 171.5 -46 t57.5 -124q0 -28 -7.5 -56.5t-21.5 -54t-34.5 -46.5t-46.5 -35q33 -17 51.5 -46.5t18.5 -74.5q0 -56 -21 -101.5t-60 -78t-94.5 -50t-123.5 -17.5z" />
<glyph unicode="4" d="M0 136l23 154l286 410h180l-278 -402h142l19 120h177l-19 -120h66l-25 -162h-66l-22 -136h-177l22 136h-328z" />
<glyph unicode="5" d="M271 548l-26 -112q48 21 114 21q99 0 152.5 -45.5t53.5 -134.5q0 -68 -21.5 -122.5t-62 -92t-99 -57.5t-132.5 -20q-88 0 -155 31t-102 100l139 96q19 -42 48 -62.5t74 -20.5q57 0 91 31t34 86q0 39 -24.5 56t-64.5 17q-36 0 -64 -9.5t-51 -30.5l-113 59l86 362h463 l-23 -152h-317z" />
<glyph unicode="6" d="M294 -15q-128 0 -195.5 67.5t-67.5 207.5q0 35 3 69t10 65q29 154 116.5 237.5t228.5 83.5q90 0 155 -31.5t87 -91.5l-125 -98q-13 35 -39.5 54t-71.5 19q-42 0 -71.5 -15.5t-50 -43.5t-33 -67t-19.5 -85l-4 -21q56 105 178 105q87 0 137.5 -46t50.5 -133 q0 -57 -17.5 -107.5t-53.5 -88t-90.5 -59t-127.5 -21.5zM322 305q-21 0 -40 -6.5t-33.5 -19.5t-23 -31.5t-8.5 -42.5q0 -32 20.5 -53.5t61.5 -21.5q48 0 74.5 29.5t26.5 74.5q0 32 -18.5 51.5t-59.5 19.5z" />
<glyph unicode="7" d="M109 0q13 86 41.5 163.5t67.5 145t87.5 124.5t102.5 103l-330 -7l27 171h525l-20 -132q-122 -119 -193.5 -257.5t-95.5 -310.5h-212z" />
<glyph unicode="8" d="M271 -15q-125 0 -189.5 44t-64.5 136q0 40 11 73t30.5 58t46 43t57.5 29q-33 20 -49.5 49t-16.5 77q0 56 20 97.5t56.5 69t89 41t117.5 13.5q112 0 170 -40t58 -127q0 -65 -30 -111t-85 -74q45 -20 65.5 -53t20.5 -81q0 -120 -79 -182t-228 -62zM337 429q19 0 37.5 5.5 t32 16.5t22 27t8.5 37q0 29 -20.5 45.5t-56.5 16.5q-43 0 -71.5 -22.5t-28.5 -64.5q0 -29 20.5 -45t56.5 -16zM285 118q21 0 41 6t35 18t24 29.5t9 40.5q0 34 -23 51t-62 17q-48 0 -78 -25t-30 -69q0 -34 22 -51t62 -17z" />
<glyph unicode="9" d="M308 387q21 0 40 7t33.5 19.5t23.5 31.5t9 43q0 34 -21 55t-61 21q-48 0 -75 -29.5t-27 -74.5q0 -32 18.5 -52.5t59.5 -20.5zM337 715q128 0 195 -68.5t67 -208.5q0 -35 -3 -69t-9 -66q-29 -154 -117 -236t-230 -82q-91 0 -158 26.5t-96 81.5l126 103q12 -29 44 -46 t80 -17q42 0 71.5 15t50 43t33 66t19.5 85l3 16q-27 -51 -72 -78t-105 -27q-87 0 -138 46.5t-51 134.5q0 58 17.5 109.5t53.5 89.5t90.5 60t128.5 22z" />
<glyph unicode=":" horiz-adv-x="265" d="M4 0zM93 -8q-89 0 -89 77q0 50 27 81t86 31q89 0 89 -79q0 -54 -30.5 -82t-82.5 -28zM147 314q-89 0 -89 77q0 50 27 81t86 31q89 0 89 -79q0 -54 -30.5 -82t-82.5 -28z" />
<glyph unicode=";" horiz-adv-x="265" d="M0 0zM9 -161l-26 78q32 9 58.5 28.5t37.5 47.5q-34 3 -53 22t-19 54q0 56 30.5 83.5t82.5 27.5q42 0 66 -21.5t24 -68.5q0 -40 -13 -80t-38 -74.5t-63 -60t-87 -36.5zM149 315q-89 0 -89 77q0 50 27 81t86 31q89 0 89 -79q0 -54 -30.5 -82t-82.5 -28z" />
<glyph unicode="&#x3c;" horiz-adv-x="506" d="M454 457l-234 -152l182 -147l-79 -90l-252 207l11 68l317 207z" />
<glyph unicode="=" horiz-adv-x="510" d="M476 437l-16 -104h-404l17 104h403zM453 285l-17 -104h-403l16 104h404z" />
<glyph unicode="&#x3e;" horiz-adv-x="506" d="M109 68l-54 93l233 152l-182 148l79 89l253 -207l-11 -68z" />
<glyph unicode="?" horiz-adv-x="509" d="M534 553q0 -57 -15.5 -100.5t-43.5 -74.5t-67 -49.5t-87 -24.5l-20 -75h-139l20 185h64q51 0 83.5 24.5t32.5 78.5q0 28 -21 46t-68 18q-39 0 -71.5 -17.5t-61.5 -66.5l-103 74q46 75 114.5 114t161.5 39q109 0 165 -41.5t56 -129.5zM193 -8q-89 0 -89 78q0 55 30.5 83 t81.5 28q44 0 67 -19.5t23 -58.5q0 -54 -30.5 -82.5t-82.5 -28.5z" />
<glyph unicode="@" horiz-adv-x="797" d="M632 -7q-52 -48 -121 -74.5t-155 -26.5q-74 0 -130.5 20t-95 57t-58.5 90t-20 118q0 92 29 168t82 131t127 85t164 30q70 0 124 -19t90.5 -53.5t55.5 -84.5t19 -111q0 -118 -54.5 -183.5t-150.5 -65.5q-75 0 -94 53q-20 -28 -51.5 -44t-72.5 -16q-48 0 -76 22t-28 64 q0 33 13.5 58t37 41t54 24t63.5 8h59v6q0 26 -16.5 33.5t-41.5 7.5q-60 0 -98 -36l-37 72q63 61 168 61q32 0 59.5 -6t47.5 -20t31.5 -36.5t11.5 -55.5q0 -14 -3 -32l-12 -80q-1 -4 -2.5 -12.5t-1.5 -13.5q0 -33 35 -33q20 0 38 11t32 33.5t22 56.5t8 80q0 55 -17 95.5 t-47.5 67.5t-73.5 40t-95 13q-68 0 -129.5 -22t-108.5 -67t-75 -112.5t-28 -158.5q0 -58 18 -101t50.5 -71t78 -41.5t101.5 -13.5q69 0 129.5 21t107.5 65zM363 145q58 0 70 70h-48q-27 0 -42 -10t-15 -33q0 -27 35 -27z" />
<glyph unicode="A" horiz-adv-x="713" d="M395 502l-118 -258h155zM463 0l-13 94h-240l-42 -94h-196l339 700h236l117 -700h-201z" />
<glyph unicode="B" horiz-adv-x="712" d="M41 0l111 700h365q94 0 137.5 -43t43.5 -112q0 -58 -27 -105.5t-84 -75.5q42 -14 60 -49.5t18 -79.5q0 -117 -70 -176t-190 -59h-364zM449 553h-129l-21 -133h128q37 0 56 24t19 58q0 24 -14 37.5t-39 13.5zM418 279h-141l-21 -135h134q40 0 61.5 21.5t21.5 61.5 q0 23 -13 37.5t-42 14.5z" />
<glyph unicode="C" horiz-adv-x="693" d="M347 -15q-155 0 -228 68.5t-73 209.5q0 40 6 88q25 189 123.5 276.5t270.5 87.5q119 0 184.5 -49.5t85.5 -143.5l-169 -62q-16 52 -45 70.5t-75 18.5q-32 0 -60 -9.5t-50.5 -32.5t-39 -62t-25.5 -98q-3 -20 -5 -38t-2 -35q0 -71 33 -99.5t91 -28.5q45 0 83 18.5t63 64.5 l148 -90q-46 -81 -125 -117.5t-191 -36.5z" />
<glyph unicode="D" horiz-adv-x="755" d="M347 0h-306l111 700h303q144 0 211.5 -63t67.5 -194q0 -19 -1.5 -42t-4.5 -46q-23 -176 -116.5 -265.5t-264.5 -89.5zM264 160h84q34 0 63.5 10t53 32.5t40 59t25.5 89.5q2 16 3.5 33t1.5 31q0 125 -110 125h-100z" />
<glyph unicode="E" horiz-adv-x="681" d="M41 0l111 700h542l-25 -155h-349l-18 -113h300l-24 -157h-300l-19 -119h358l-25 -156h-551z" />
<glyph unicode="F" horiz-adv-x="622" d="M41 0l111 700h531l-25 -161h-334l-19 -124h285l-27 -165h-285l-39 -250h-198z" />
<glyph unicode="G" horiz-adv-x="731" d="M315 -15q-127 0 -198 70t-71 213q0 38 6 83q24 187 122 275.5t272 88.5q114 0 177.5 -43.5t83.5 -128.5l-167 -66q-13 39 -39 55.5t-72 16.5q-34 0 -62.5 -10t-51 -33.5t-38.5 -62t-25 -94.5q-4 -21 -5.5 -39.5t-1.5 -34.5q0 -37 8.5 -62t24.5 -40t39 -21.5t53 -6.5 q22 0 42.5 4.5t38.5 15.5t32 30t22 48h-120l23 148h298l-62 -391h-135l1 79q-33 -45 -79.5 -69.5t-115.5 -24.5z" />
<glyph unicode="H" horiz-adv-x="809" d="M486 0l42 263h-248l-41 -263h-198l111 700h198l-42 -266h247l42 266h198l-111 -700h-198z" />
<glyph unicode="I" horiz-adv-x="364" d="M41 0l111 700h198l-111 -700h-198z" />
<glyph unicode="J" horiz-adv-x="555" d="M-34 54l97 144q21 -22 50.5 -34t59.5 -12q45 0 76 26.5t41 89.5l69 432h197l-69 -436q-12 -77 -41 -130t-71 -86t-95 -48t-114 -15q-56 0 -107.5 16.5t-92.5 52.5z" />
<glyph unicode="K" horiz-adv-x="753" d="M41 0l111 700h198l-48 -296l272 296h234l-302 -311l184 -389h-238l-106 243l-81 -79l-26 -164h-198z" />
<glyph unicode="L" horiz-adv-x="638" d="M265 166h334l-27 -166h-531l111 700h197z" />
<glyph unicode="M" horiz-adv-x="981" d="M380 0l-108 395l-53 -395h-178l111 700h207l121 -470l269 470h217l-111 -700h-185l73 395l-230 -395h-133z" />
<glyph unicode="N" horiz-adv-x="806" d="M514 0l-232 384l-55 -384h-186l111 700h146l246 -416l61 416h186l-111 -700h-166z" />
<glyph unicode="O" horiz-adv-x="776" d="M52 351q23 183 119 273.5t274 90.5q160 0 232.5 -70t72.5 -207q0 -42 -6 -88q-23 -183 -119.5 -274t-273.5 -91q-159 0 -232 70.5t-73 208.5q0 40 6 87zM548 422q0 69 -30.5 98.5t-89.5 29.5q-36 0 -65 -10.5t-51 -34t-37 -62t-24 -94.5q-3 -20 -5 -38t-2 -34 q0 -69 30.5 -98.5t89.5 -29.5q36 0 65 10.5t51 34.5t37.5 62.5t24.5 94.5q6 40 6 71z" />
<glyph unicode="P" horiz-adv-x="702" d="M41 0l111 700h347q106 0 157.5 -55t51.5 -147q0 -75 -23.5 -133t-65.5 -98t-99 -60.5t-124 -20.5h-128l-29 -186h-198zM438 531h-115l-29 -183h115q41 0 71 29t30 83q0 29 -16 50t-56 21z" />
<glyph unicode="Q" horiz-adv-x="776" d="M445 715q160 0 232.5 -70t72.5 -207q0 -42 -6 -88q-29 -220 -162 -306l54 -130h-166l-32 77q-41 -6 -87 -6q-159 0 -232 70.5t-73 208.5q0 40 6 87q23 183 119 273.5t274 90.5zM430 555q-36 0 -65.5 -11t-51.5 -35.5t-37.5 -64t-24.5 -97.5q-6 -42 -6 -74q0 -70 30 -99.5 t89 -29.5h11l-43 104h167l8 -20q23 47 35 121q7 41 7 75q0 72 -30.5 101.5t-88.5 29.5z" />
<glyph unicode="R" horiz-adv-x="716" d="M453 536h-132l-26 -165h129q40 0 67 27t27 76q0 27 -15 44.5t-50 17.5zM377 213h-107l-33 -213h-196l111 700h358q104 0 155 -53.5t51 -141.5q0 -95 -38 -159.5t-104 -96.5l71 -249h-216z" />
<glyph unicode="S" horiz-adv-x="624" d="M621 573l-140 -80q-21 35 -47 53.5t-77 18.5q-54 0 -78.5 -17.5t-24.5 -44.5q0 -21 17 -38t67 -31l51 -14q53 -15 89 -34t58.5 -43t32.5 -53t10 -64q0 -55 -22 -99.5t-63 -76t-99.5 -48.5t-131.5 -17q-97 0 -164.5 34t-102.5 110l141 84q20 -46 55 -65.5t92 -19.5 q55 0 79.5 19.5t24.5 45.5q0 23 -16 36t-53 24l-53 16q-55 16 -91.5 37.5t-58.5 47.5t-31.5 56t-9.5 64q0 51 19 95t56.5 76.5t93 51t127.5 18.5q42 0 80.5 -7.5t71 -24t57.5 -43.5t41 -67z" />
<glyph unicode="T" horiz-adv-x="634" d="M83 700h604l-27 -170h-203l-84 -530h-197l84 530h-204z" />
<glyph unicode="U" horiz-adv-x="767" d="M505 280l66 420h198l-65 -410q-13 -83 -42 -141t-73 -94.5t-103.5 -53t-133.5 -16.5q-68 0 -121.5 13t-90 41t-55.5 71.5t-19 104.5q0 19 1.5 36.5t5.5 38.5l65 410h197l-65 -420q-3 -18 -3 -34q0 -45 24.5 -70t75.5 -25q117 0 138 129z" />
<glyph unicode="V" horiz-adv-x="702" d="M70 700h201l68 -480l221 480h203l-343 -700h-229z" />
<glyph unicode="W" horiz-adv-x="979" d="M472 699h168l36 -425l166 426h195l-302 -700h-194l-31 417l-169 -417h-191l-79 700h201l27 -423z" />
<glyph unicode="X" horiz-adv-x="712" d="M433 0l-93 215l-160 -215h-216l285 353l-164 347h228l83 -218l150 218h216l-277 -344l176 -356h-228z" />
<glyph unicode="Y" horiz-adv-x="686" d="M238 251l-176 449h216l89 -274l174 274h212l-320 -455l-38 -245h-197z" />
<glyph unicode="Z" horiz-adv-x="623" d="M-19 0l20 120l391 423l-315 -4l26 161h556l-18 -118l-392 -425l335 4l-26 -161h-577z" />
<glyph unicode="[" horiz-adv-x="360" d="M-8 -170l141 889h281l-22 -137h-109l-97 -614h109l-21 -138h-282z" />
<glyph unicode="\" horiz-adv-x="586" d="M315 0l-254 700h208l255 -700h-209z" />
<glyph unicode="]" horiz-adv-x="360" d="M376 719l-141 -889h-281l22 137h109l97 614h-109l21 138h282z" />
<glyph unicode="^" horiz-adv-x="503" d="M26 361l199 339h173l90 -339v-4h-147l-49 212l-116 -212h-150v4z" />
<glyph unicode="_" horiz-adv-x="477" d="M440 0l-23 -148h-480l24 148h479z" />
<glyph unicode="`" horiz-adv-x="600" d="M243 570l-113 134l1 7h201l58 -136v-5h-147z" />
<glyph unicode="a" horiz-adv-x="575" d="M233 101q38 0 64.5 25.5t33.5 78.5h-64q-38 0 -61.5 -15.5t-23.5 -45.5q0 -22 13.5 -32.5t37.5 -10.5zM324 65q-29 -37 -72 -58t-99 -21q-66 0 -104.5 32.5t-38.5 92.5q0 49 19.5 85.5t52.5 60.5t77.5 36t94.5 12h93q1 22 -4.5 36t-17 21.5t-28 10t-37.5 2.5 q-43 0 -81 -14t-66 -40l-58 107q45 46 109.5 67t142.5 21q48 0 89.5 -9t72.5 -29.5t48.5 -53t17.5 -79.5q0 -11 -1 -22.5t-3 -25.5l-47 -297h-159z" />
<glyph unicode="b" horiz-adv-x="630" d="M316 700l-41 -255q32 38 72 54.5t85 16.5q79 0 123.5 -49t44.5 -146q0 -14 -1 -28.5t-3 -31.5q-8 -62 -28.5 -112.5t-53 -87t-76.5 -56.5t-99 -20q-59 0 -99 23t-60 65l-23 -73h-141l110 700h190zM241 247q-2 -11 -3 -20.5t-1 -18.5q0 -42 19 -62.5t51 -20.5 q86 0 106 123q2 12 3 22t1 19q0 45 -19 64.5t-51 19.5q-39 0 -67 -29t-39 -97z" />
<glyph unicode="c" horiz-adv-x="534" d="M384 183l117 -83q-41 -57 -101 -86t-144 -29q-52 0 -94 12t-71 37.5t-45 65t-16 94.5q0 13 1 27t3 29q18 137 95.5 201.5t202.5 64.5q81 0 133 -30.5t74 -98.5l-141 -81q-11 32 -28 45t-49 13q-42 0 -68.5 -25t-37.5 -90q-2 -11 -3 -21.5t-1 -20.5q0 -38 17.5 -58.5 t59.5 -20.5q67 0 96 55z" />
<glyph unicode="d" horiz-adv-x="637" d="M388 250q2 8 3 20.5t1 20.5q0 46 -20 65t-53 19q-38 0 -65 -29t-38 -97q-4 -23 -4 -41q0 -80 68 -80q40 0 69.5 29.5t38.5 92.5zM535 0h-158l1 70q-29 -41 -71 -63t-99 -22q-81 0 -129.5 50.5t-48.5 151.5q0 13 1 27t3 29q8 68 30.5 119t55.5 85.5t75 51.5t89 17 q46 0 79 -16.5t53 -47.5l40 248h190z" />
<glyph unicode="e" horiz-adv-x="568" d="M260 -15q-52 0 -94.5 13t-72.5 39.5t-46.5 66t-16.5 93.5q0 13 1 25.5t3 26.5q8 61 31.5 110.5t61.5 84.5t90 53.5t116 18.5q54 0 93.5 -16t64.5 -43.5t37 -65.5t12 -83q0 -51 -14 -109h-322q0 -86 88 -86q37 0 64 11.5t47 37.5l99 -72q-40 -52 -95.5 -78.5t-146.5 -26.5 zM314 384q-35 0 -60 -20t-36 -62h154q0 4 0.5 7.5t0.5 7.5q0 32 -13.5 49.5t-45.5 17.5z" />
<glyph unicode="f" horiz-adv-x="405" d="M44 0l57 362h-74l22 140h75l5 27q17 107 77.5 157t150.5 50q16 0 34.5 -2t36 -5.5t33 -10t26.5 -15.5l-48 -119q-11 8 -25 11.5t-28 3.5q-61 0 -73 -71l-4 -26h123l-22 -140h-123l-57 -362h-186z" />
<glyph unicode="g" horiz-adv-x="628" d="M386 263q3 15 3 30q0 41 -19.5 61.5t-52.5 20.5q-40 0 -66.5 -28t-35.5 -85q-3 -21 -3 -38q0 -78 68 -78q41 0 69 29.5t37 87.5zM610 502l-74 -474q-10 -64 -39 -111t-71.5 -78t-97 -46.5t-116.5 -15.5q-37 0 -72 5.5t-64 18.5t-51 32.5t-33 48.5l111 94q17 -35 47.5 -50 t68.5 -15q108 0 126 113l8 52q-53 -68 -147 -68q-81 0 -128 48t-47 147q0 26 3 56q8 64 30 112.5t55 80.5t74.5 48t89.5 16q55 0 93.5 -22t56.5 -67l26 75h151z" />
<glyph unicode="h" horiz-adv-x="641" d="M316 700l-45 -282q32 47 78 72.5t99 25.5q71 0 112 -38.5t41 -113.5q0 -25 -4 -48l-50 -316h-190l40 249q1 7 2 18.5t1 19.5q0 33 -14.5 46.5t-43.5 13.5q-34 0 -62 -25.5t-37 -81.5l-38 -240h-189l110 700h190z" />
<glyph unicode="i" horiz-adv-x="304" d="M200 553q-94 0 -94 77q0 58 32.5 84.5t85.5 26.5q45 0 69 -19t24 -58q0 -58 -31.5 -84.5t-85.5 -26.5zM95 502h190l-80 -502h-189z" />
<glyph unicode="j" horiz-adv-x="303" d="M200 553q-95 0 -95 77q0 58 32.5 84.5t85.5 26.5q45 0 69.5 -19t24.5 -58q0 -58 -31.5 -84.5t-85.5 -26.5zM13 -13l82 515h189l-83 -524q-16 -102 -79 -151.5t-154 -49.5q-29 0 -60.5 6t-56.5 20l44 122q19 -11 47 -11q31 0 48 16.5t23 56.5z" />
<glyph unicode="k" horiz-adv-x="603" d="M316 700l-71 -411l188 213h201l-212 -221l136 -281h-206l-72 159l-63 -62l-15 -97h-186l110 700h190z" />
<glyph unicode="l" horiz-adv-x="319" d="M168 0q-81 0 -112 38.5t-19 116.5l86 545h190l-83 -526q-3 -21 3 -30t21 -9h32l-21 -135h-97z" />
<glyph unicode="m" horiz-adv-x="944" d="M15 0l79 502h155l2 -84q34 47 80.5 72.5t100.5 25.5q62 0 94.5 -30.5t42.5 -78.5q32 52 80 80.5t106 28.5q40 0 68.5 -11.5t46.5 -32.5t26.5 -49.5t8.5 -62.5q0 -22 -3 -43l-50 -317h-189l40 255q3 21 3 38q0 54 -50 54q-31 0 -56 -24.5t-33 -75.5l-40 -247h-189l41 255 q3 21 3 38q0 54 -49 54q-31 0 -56 -25t-34 -76l-39 -246h-189z" />
<glyph unicode="n" horiz-adv-x="641" d="M16 0l78 502h155l2 -86q34 48 83 74t107 26q42 0 72 -11.5t49.5 -32t29 -49t9.5 -62.5q0 -11 -1 -23t-3 -23l-50 -315h-189l39 249q3 22 3 39q0 32 -14.5 45.5t-43.5 13.5q-35 0 -63 -25.5t-36 -77.5l-38 -244h-189z" />
<glyph unicode="o" horiz-adv-x="605" d="M34 251q8 68 33 118t63.5 82.5t90.5 48.5t114 16q121 0 180 -50.5t59 -157.5q0 -13 -1 -27.5t-3 -29.5q-17 -132 -93.5 -199t-208.5 -67q-238 0 -238 209q0 14 1 28t3 29zM391 250q4 23 4 45q0 41 -18 59.5t-57 18.5q-48 0 -73 -29.5t-35 -93.5q-4 -23 -4 -45 q0 -42 18 -61t56 -19q46 0 72 29.5t37 95.5z" />
<glyph unicode="p" horiz-adv-x="632" d="M-13 -186l108 688h157v-81q35 47 82.5 71t97.5 24q83 0 126 -50t43 -145q0 -14 -1.5 -29t-3.5 -32q-8 -61 -28 -111.5t-52 -87t-77 -56.5t-102 -20q-85 0 -125 56l-36 -227h-189zM241 247q-2 -11 -2 -20v-17q0 -43 18.5 -64t50.5 -21q86 0 106 123q2 8 2.5 21t0.5 23 q0 44 -18.5 62.5t-50.5 18.5q-38 0 -67 -29t-40 -97z" />
<glyph unicode="q" horiz-adv-x="630" d="M505 -186h-189l36 229q-28 -28 -64 -43t-78 -15q-83 0 -131.5 50t-48.5 150q0 14 1 28t3 30q9 70 31.5 121.5t55.5 85t75 50t90 16.5q56 0 94 -22t55 -67l27 75h152zM389 250q3 22 3 40q0 46 -20 65.5t-53 19.5q-39 0 -65.5 -29t-37.5 -97q-3 -23 -3 -42q0 -79 67 -79 q40 0 69 29.5t40 92.5z" />
<glyph unicode="r" horiz-adv-x="419" d="M15 0l79 502h156l2 -97q33 53 81.5 83t105.5 30l-27 -184q-78 5 -122.5 -38.5t-56.5 -116.5l-28 -179h-190z" />
<glyph unicode="s" horiz-adv-x="507" d="M220 104q68 0 68 34q0 13 -10.5 19t-39.5 14l-38 10q-29 7 -54.5 20t-45 32t-31 45t-11.5 60q0 36 14 68t42.5 56.5t73 39t104.5 14.5q74 0 123 -23t81 -66l-99 -91q-19 24 -48 39t-68 15q-34 0 -48 -8.5t-14 -23.5q0 -14 10 -21t36 -15l50 -14q64 -18 103 -52t39 -88 q0 -35 -13 -68t-42 -58.5t-75.5 -41t-112.5 -15.5q-83 0 -139 26t-85 75l97 82q21 -32 56.5 -48t76.5 -16z" />
<glyph unicode="t" horiz-adv-x="421" d="M430 502l-22 -140h-127l-27 -169q-6 -44 10 -56.5t44 -12.5q15 0 30.5 3t30.5 11l10 -117q-31 -17 -66.5 -26t-75.5 -9q-36 0 -68 7t-56 24t-37.5 45.5t-13.5 70.5q0 11 1.5 25t3.5 27l28 177h-69l22 140h70l22 140h185l-22 -140h127z" />
<glyph unicode="u" horiz-adv-x="638" d="M204 -15q-44 0 -76 11.5t-52.5 32t-30 48t-9.5 60.5q0 11 0.5 19.5t2.5 19.5l52 326h190l-41 -260q-3 -21 -3 -37q0 -61 57 -61q32 0 59.5 26t36.5 82l39 250h190l-79 -502h-155l-1 76q-33 -44 -79.5 -67.5t-100.5 -23.5z" />
<glyph unicode="v" horiz-adv-x="584" d="M45 502h192l45 -310l134 310h199l-267 -502h-195z" />
<glyph unicode="w" horiz-adv-x="802" d="M369 501h142l38 -280l112 281h172l-231 -502h-163l-32 288l-123 -288h-164l-75 502h172l27 -282z" />
<glyph unicode="x" horiz-adv-x="574" d="M52 502h197l55 -140l100 140h196l-206 -253l136 -249h-197l-65 141l-109 -141h-196l217 253z" />
<glyph unicode="y" horiz-adv-x="587" d="M141 -29l15 31l-111 500h192l47 -313l135 313h199l-319 -594q-20 -37 -45 -62t-54 -40t-63 -21.5t-71 -6.5q-38 0 -64 5.5t-49 16.5l33 134q20 -10 37 -14t34 -4q56 0 84 55z" />
<glyph unicode="z" horiz-adv-x="516" d="M-8 0l16 106l263 256h-218l22 140h441l-17 -112l-258 -251h227l-22 -139h-454z" />
<glyph unicode="{" horiz-adv-x="389" d="M286 -166q-45 1 -82 11t-63.5 29t-41.5 46t-15 63q0 21 4 42t9 42t9 40.5t4 37.5q0 36 -23.5 51.5t-70.5 15.5h-16l19 138h25q60 0 86 23.5t33 64.5q5 29 5 60t5 61q14 83 78.5 124.5t164.5 44.5l5 -152q-89 -3 -103 -82q-4 -23 -4.5 -52.5t-4.5 -50.5q-13 -71 -98 -111 q64 -34 64 -93q0 -17 -4 -34.5t-9 -35t-9 -34.5t-4 -34q0 -35 21.5 -48t57.5 -15z" />
<glyph unicode="|" horiz-adv-x="318" d="M23 -65l130 831h172l-131 -831h-171z" />
<glyph unicode="}" horiz-adv-x="389" d="M102 729q45 -2 82 -11.5t63.5 -28.5t41.5 -46t15 -63q0 -21 -4 -42t-9 -42t-9 -40.5t-4 -37.5q0 -36 23.5 -51.5t70.5 -15.5h16l-19 -138h-25q-60 0 -86 -23.5t-33 -64.5q-5 -29 -5 -60t-5 -61q-14 -83 -78.5 -124.5t-164.5 -44.5l-5 152q89 3 103 82q4 23 4.5 52.5 t4.5 50.5q13 71 98 111q-64 34 -64 93q0 17 4 34.5t9 35t9 34.5t4 34q0 35 -21.5 48t-57.5 15z" />
<glyph unicode="~" horiz-adv-x="568" d="M427 430l126 -21q-14 -85 -60 -127.5t-112 -42.5q-29 0 -53.5 8t-46 17t-41.5 17t-41 8q-20 0 -32 -11.5t-17 -38.5l-125 21q14 85 60 127.5t111 42.5q29 0 53.5 -8t46.5 -17t42 -17t41 -8q20 0 31.5 11.5t16.5 38.5z" />
<glyph unicode="&#xa1;" horiz-adv-x="268" d="M-26 -189l103 472h133l-46 -472h-190zM179 520q89 0 89 -77q0 -56 -31 -84t-82 -28q-43 0 -66 20t-23 58q0 55 30.5 83t82.5 28z" />
<glyph unicode="&#xa2;" horiz-adv-x="540" d="M207 -62l10 65q-85 8 -131.5 55.5t-46.5 138.5q0 11 1 27.5t3 33.5q8 64 30 111t55 78.5t76 48t94 19.5l10 65h83l-11 -68q64 -9 100 -40.5t55 -79.5l-127 -77q-8 22 -19 36.5t-31 20.5l-36 -232q42 9 65 47l102 -81q-34 -48 -81.5 -72.5t-107.5 -29.5l-10 -66h-83z M197 218q0 -30 9.5 -49t32.5 -27l36 229q-29 -8 -47 -35t-28 -78q-3 -23 -3 -40z" />
<glyph unicode="&#xa3;" horiz-adv-x="617" d="M583 76q-47 -47 -105 -61.5t-126 -14.5h-375l25 154h28q23 0 35 21.5t17 63.5l5 42h-66l19 118h62l10 84q8 64 34 108t63.5 71.5t83 40t91.5 12.5q53 0 93 -9.5t70 -29.5t51.5 -51t36.5 -74l-142 -79q-13 35 -36 57.5t-66 22.5q-46 0 -67 -25.5t-26 -67.5l-7 -60h142 l-19 -118h-136l-5 -41q-6 -51 -24 -87h131q35 0 73.5 13.5t65.5 36.5z" />
<glyph unicode="&#xa5;" horiz-adv-x="710" d="M623 292l-15 -88h-166l-32 -204h-199l32 204h-164l14 88h143l-17 40h-119l13 88h73l-109 280h215l89 -275l175 275h211l-197 -280h73l-14 -88h-121l-28 -40h143z" />
<glyph unicode="&#xa6;" horiz-adv-x="318" d="M94 381l61 385h172l-61 -385h-172zM25 -65l60 385h171l-60 -385h-171z" />
<glyph unicode="&#xa7;" horiz-adv-x="519" d="M240 293l12 -4q32 -8 52.5 4t20.5 39q0 20 -14 30.5t-40 17.5l-15 4q-28 7 -49 -4.5t-21 -39.5q0 -17 11.5 -27.5t42.5 -19.5zM191 -37q-72 0 -122 20t-76 64l99 88q15 -24 40 -39t70 -15q72 0 72 42q0 17 -14 24.5t-43 15.5l-27 8q-79 22 -113 61.5t-34 90.5q0 38 18 73 t60 56q-36 35 -36 89q0 37 15.5 69t45 55t72.5 36.5t99 13.5q66 0 109.5 -19t70.5 -59l-98 -90q-18 22 -40 33.5t-55 11.5q-31 0 -48 -10.5t-17 -28.5q0 -14 9.5 -24t40.5 -18l44 -12q69 -20 104 -54.5t35 -91.5q0 -38 -17 -72t-59 -55q18 -17 27.5 -38t9.5 -50 q0 -33 -13 -64.5t-41.5 -56t-75 -39.5t-112.5 -15z" />
<glyph unicode="&#xa8;" horiz-adv-x="600" d="M409 565q-42 0 -62.5 16t-20.5 52q0 51 28 75t76 24q41 0 62.5 -16.5t21.5 -51.5q0 -52 -28.5 -75.5t-76.5 -23.5zM183 565q-42 0 -62.5 16.5t-20.5 52.5q0 51 28 74.5t76 23.5q83 0 83 -67q0 -53 -28 -76.5t-76 -23.5z" />
<glyph unicode="&#xa9;" horiz-adv-x="810" d="M74 352q11 79 43 143.5t83 110.5t119 71t150 25q73 0 130 -20t95.5 -57.5t58.5 -90t20 -117.5q0 -17 -1.5 -32.5t-3.5 -32.5q-12 -79 -44.5 -143.5t-83.5 -110t-119 -70.5t-150 -25q-73 0 -129.5 20t-94.5 56.5t-58 88.5t-20 117q0 17 1.5 33.5t3.5 33.5zM132 352 q-6 -36 -6 -67q0 -57 18 -99.5t50.5 -70.5t78 -42t100.5 -14q63 0 118.5 18t99.5 54.5t74 91.5t42 129q3 18 4 34.5t1 32.5q0 57 -18 100t-50 71t-78 42t-101 14q-63 0 -118 -18t-99 -54.5t-74 -91.5t-42 -130zM402 158q-83 0 -127.5 37t-44.5 118q0 23 3 44 q13 105 69.5 153.5t154.5 48.5q118 0 150 -83l-101 -69q-8 25 -22 34.5t-37 9.5q-38 0 -59 -22t-29 -74q-2 -8 -2.5 -15t-0.5 -15q0 -33 16 -47.5t46 -14.5q24 0 44.5 11t31.5 34l87 -55q-29 -48 -74.5 -71.5t-104.5 -23.5z" />
<glyph unicode="&#xaa;" horiz-adv-x="410" d="M199 419q26 0 43 17.5t22 47.5l2 11h-45q-26 0 -42 -11.5t-16 -34.5q0 -30 36 -30zM261 392q-21 -26 -51.5 -41t-70.5 -15q-47 0 -74.5 23t-27.5 66q0 34 14 59.5t37.5 42t55.5 25t68 8.5h64q4 29 -11 41t-50 12q-30 0 -57 -10t-47 -30l-42 79q32 33 78 48t103 15 q34 0 64 -6.5t52 -21t35 -38t13 -57.5q0 -15 -3 -34l-34 -211h-115z" />
<glyph unicode="&#xab;" horiz-adv-x="687" d="M456 0l-166 252v3l230 247h187l-238 -249l166 -253h-179zM197 0l-159 249l1 3l229 250h181l-231 -252l163 -250h-184z" />
<glyph unicode="&#xad;" horiz-adv-x="410" d="M364 345l-24 -148h-307l24 148h307z" />
<glyph unicode="&#xae;" horiz-adv-x="464" d="M81 521q13 89 70.5 141.5t151.5 52.5q82 0 125.5 -42t43.5 -114q0 -9 -0.5 -19.5t-2.5 -20.5q-14 -89 -71 -140.5t-151 -51.5q-83 0 -126 42t-43 114q0 18 3 38zM120 521q-2 -10 -3 -19t-1 -18q0 -63 37 -93.5t97 -30.5q33 0 63 10t54 30.5t40 50.5t22 70q3 21 3 37 q0 63 -36 93.5t-95 30.5q-68 0 -118 -40t-63 -121zM284 572h-26l-7 -44h23q15 0 24 6t9 20q0 18 -23 18zM178 429l30 191h97q30 0 44.5 -15.5t14.5 -41.5q0 -28 -10.5 -45.5t-27.5 -28.5q3 -10 10.5 -30t11.5 -30h-62l-13 49h-30l-7 -49h-58z" />
<glyph unicode="&#xaf;" horiz-adv-x="600" d="M450 685l-17 -101h-301l16 101h302z" />
<glyph unicode="&#xb0;" horiz-adv-x="462" d="M459 567q0 -48 -15 -88.5t-42.5 -69t-66 -44.5t-84.5 -16q-78 0 -118.5 40.5t-40.5 108.5q0 48 15 88t42.5 68.5t66 44.5t85.5 16q78 0 118 -40t40 -108zM200 512q0 -32 17 -48t46 -16q34 0 61 26.5t27 78.5q0 32 -17 48t-45 16q-35 0 -62 -26.5t-27 -78.5z" />
<glyph unicode="&#xb1;" horiz-adv-x="511" d="M299 153h-121l20 127h-141l16 104h142l20 131h121l-21 -131h142l-17 -104h-141zM432 104l-15 -104h-404l16 104h403z" />
<glyph unicode="&#xb2;" horiz-adv-x="391" d="M24 294zM24 294l13 88l162 122q26 19 42.5 36t16.5 40q0 16 -12.5 21.5t-29.5 5.5q-26 0 -43.5 -11t-36.5 -36l-76 61q36 54 82.5 74t104.5 20q31 0 58.5 -5t48 -17t32.5 -32t12 -50q0 -51 -30.5 -92t-81.5 -79l-52 -40l144 2l-16 -108h-338z" />
<glyph unicode="&#xb3;" horiz-adv-x="390" d="M35 281zM199 281q-59 0 -100.5 22t-63.5 72l103 52q13 -23 27.5 -33.5t38.5 -10.5q23 0 39 9t16 29q0 15 -11.5 21.5t-39.5 6.5h-39l15 91h38q25 0 39 11t14 29q0 30 -43 30q-20 0 -35 -9t-30 -30l-83 59q29 42 70.5 63.5t105.5 21.5q80 0 115.5 -28t35.5 -78 q0 -40 -19 -66.5t-50 -45.5q20 -11 32 -28t12 -47q0 -32 -13.5 -57.5t-38.5 -44.5t-59 -29t-76 -10z" />
<glyph unicode="&#xb4;" horiz-adv-x="600" d="M277 711h195l-1 -7l-154 -134h-146l1 5z" />
<glyph unicode="&#xb6;" horiz-adv-x="692" d="M503 542h-51l-33 -208h52zM280 337l31 202q-47 -4 -72 -34.5t-27 -72.5q-4 -42 14 -67t54 -28zM395 186l-29 -186h-139l29 188q-50 5 -90.5 23t-68 48t-41.5 71.5t-9 94.5q5 61 28 111.5t60.5 87t87 56.5t107.5 20h341l-111 -700h-143l29 186h-51z" />
<glyph unicode="&#xb7;" horiz-adv-x="270" d="M40 245zM129 245q-89 0 -89 77q0 50 27 81t86 31q89 0 89 -79q0 -54 -30.5 -82t-82.5 -28z" />
<glyph unicode="&#xb8;" horiz-adv-x="600" d="M293 -103l-25 13l46 90h90l-28 -46q37 -5 64.5 -27.5t27.5 -65.5q0 -29 -12.5 -51.5t-34.5 -37.5t-52 -22.5t-64 -7.5q-48 0 -86 18.5t-56 56.5l68 61q13 -23 31 -35.5t48 -12.5q20 0 35 8.5t15 27.5q0 12 -6.5 19t-16 10t-21.5 3t-23 -1z" />
<glyph unicode="&#xb9;" horiz-adv-x="284" d="M60 294zM227 294h-133l42 265q-3 -2 -9.5 -5.5t-13.5 -7t-13 -7.5t-9 -5l-31 102l146 73h88z" />
<glyph unicode="&#xba;" horiz-adv-x="426" d="M55 526q11 95 68.5 142t147.5 47q85 0 127.5 -36.5t42.5 -113.5q0 -18 -3 -39q-12 -94 -67 -141.5t-149 -47.5q-169 0 -169 149q0 10 0.5 19.5t1.5 20.5zM308 526q3 16 3 30q0 56 -52 56q-32 0 -50 -21t-26 -65q-2 -9 -2 -17v-14q0 -57 51 -57q63 0 76 88z" />
<glyph unicode="&#xbb;" horiz-adv-x="687" d="M236 502l166 -252v-3l-230 -247h-187l238 249l-166 253h179zM495 502l159 -249l-1 -3l-229 -250h-181l231 252l-163 250h184z" />
<glyph unicode="&#xbc;" horiz-adv-x="918" d="M60 0zM227 293h-133l42 265q-3 -2 -9.5 -5.5t-13.5 -7t-13 -7.5t-9 -5l-31 102l146 73h88zM728 700l-454 -700h-168l454 700h168zM480 73l14 89l154 247h130l-147 -229h90l19 116h123l-18 -116h42l-16 -107h-44l-12 -73h-123l12 73h-224z" />
<glyph unicode="&#xbd;" horiz-adv-x="937" d="M60 0zM529 0l13 88l162 122q26 19 42.5 36t16.5 40q0 16 -12.5 21.5t-29.5 5.5q-26 0 -43.5 -11t-36.5 -36l-76 61q36 54 82.5 74t104.5 20q31 0 58.5 -5t48 -17t32.5 -32t12 -50q0 -51 -30.5 -92t-81.5 -79l-52 -40l144 2l-16 -108h-338zM227 293h-133l42 265 q-3 -2 -9.5 -5.5t-13.5 -7t-13 -7.5t-9 -5l-31 102l146 73h88zM728 700l-454 -700h-168l454 700h168z" />
<glyph unicode="&#xbe;" horiz-adv-x="1011" d="M33 0zM197 280q-59 0 -100.5 22t-63.5 72l103 52q13 -23 27.5 -33.5t38.5 -10.5q23 0 39 9t16 29q0 15 -11.5 21.5t-39.5 6.5h-39l15 91h38q25 0 39 11t14 29q0 30 -43 30q-20 0 -35 -9t-30 -30l-83 59q29 42 70.5 63.5t105.5 21.5q80 0 115.5 -28t35.5 -78 q0 -40 -19 -66.5t-50 -45.5q20 -11 32 -28t12 -47q0 -32 -13.5 -57.5t-38.5 -44.5t-59 -29t-76 -10zM828 700l-454 -700h-168l454 700h168zM573 73l14 89l154 247h130l-147 -229h90l19 116h123l-18 -116h42l-16 -107h-44l-12 -73h-123l12 73h-224z" />
<glyph unicode="&#xbf;" horiz-adv-x="515" d="M-9 -43q0 57 15.5 100.5t43.5 74.5t67 49.5t87 24.5l20 75h139l-20 -185h-64q-51 0 -83.5 -24.5t-32.5 -78.5q0 -28 21 -46t68 -18q39 0 71.5 17.5t61.5 66.5l103 -74q-46 -75 -114.5 -114t-161.5 -39q-109 0 -165 41.5t-56 129.5zM332 518q89 0 89 -78q0 -55 -30.5 -83 t-81.5 -28q-44 0 -67 19.5t-23 58.5q0 54 30.5 82.5t82.5 28.5z" />
<glyph unicode="&#xc0;" horiz-adv-x="713" d="M0 0zM395 502l-118 -258h155zM463 0l-13 94h-240l-42 -94h-196l339 700h236l117 -700h-201zM366 768l-113 134l1 7h201l58 -136v-5h-147z" />
<glyph unicode="&#xc1;" horiz-adv-x="713" d="M0 0zM395 502l-118 -258h155zM463 0l-13 94h-240l-42 -94h-196l339 700h236l117 -700h-201zM455 910h195l-1 -7l-154 -134h-146l1 5z" />
<glyph unicode="&#xc2;" horiz-adv-x="713" d="M0 0zM395 502l-118 -258h155zM463 0l-13 94h-240l-42 -94h-196l339 700h236l117 -700h-201zM440 820l-65 -52h-143l1 4l144 137h152l100 -137l-1 -4h-140z" />
<glyph unicode="&#xc3;" horiz-adv-x="713" d="M0 0zM395 502l-118 -258h155zM463 0l-13 94h-240l-42 -94h-196l339 700h236l117 -700h-201zM535 906h105q-2 -38 -14 -63.5t-30 -41t-39 -22t-41 -6.5q-23 0 -42 5t-34.5 10.5t-30 10.5t-28.5 5q-17 0 -23.5 -10.5t-8.5 -21.5h-107q2 38 14 63.5t29.5 41t39 22t41.5 6.5 q23 0 42 -5t35.5 -10.5t31 -10.5t29.5 -5q17 0 23 9.5t8 22.5z" />
<glyph unicode="&#xc4;" horiz-adv-x="713" d="M0 0zM395 502l-118 -258h155zM463 0l-13 94h-240l-42 -94h-196l339 700h236l117 -700h-201zM546 764q-42 0 -62.5 16t-20.5 52q0 51 28 75t76 24q41 0 62.5 -16.5t21.5 -51.5q0 -52 -28.5 -75.5t-76.5 -23.5zM320 764q-42 0 -62.5 16.5t-20.5 52.5q0 51 28 74.5t76 23.5 q83 0 83 -67q0 -53 -28 -76.5t-76 -23.5z" />
<glyph unicode="&#xc5;" horiz-adv-x="713" d="M0 0zM395 502l-118 -258h155zM463 0l-13 94h-240l-42 -94h-196l339 700h236l117 -700h-201zM432 748q-45 0 -77.5 23t-32.5 71q0 29 10 52t28 38.5t42.5 24t52.5 8.5q51 0 80.5 -24.5t29.5 -68.5q0 -59 -37.5 -91.5t-95.5 -32.5zM450 898q-21 0 -35 -13t-14 -37 q0 -17 9.5 -25.5t26.5 -8.5q20 0 34.5 13t14.5 38q0 16 -9.5 24.5t-26.5 8.5z" />
<glyph unicode="&#xc6;" horiz-adv-x="1029" d="M397 493l-119 -249h156zM469 0l-14 94h-247l-45 -94h-193l354 700h718l-25 -156h-434l18 -112h348l-24 -157h-297l19 -119h318l-24 -156h-472z" />
<glyph unicode="&#xc7;" horiz-adv-x="693" d="M301 -257q-48 0 -86 18.5t-56 56.5l68 61q13 -23 31 -35.5t48 -12.5q20 0 35 8.5t15 27.5q0 12 -6.5 19t-16 10t-21.5 3t-23 -1l-25 13l39 76q-133 9 -195 77t-62 199q0 40 6 88q25 189 123.5 276.5t270.5 87.5q119 0 184.5 -49.5t85.5 -143.5l-169 -62q-16 52 -45 70.5 t-75 18.5q-32 0 -60 -9.5t-50.5 -32.5t-39 -62t-25.5 -98q-3 -20 -5 -38t-2 -35q0 -71 33 -99.5t91 -28.5q45 0 83 18.5t63 64.5l148 -90q-42 -73 -109.5 -109.5t-162.5 -43.5l-19 -31q37 -5 64.5 -27.5t27.5 -65.5q0 -29 -12.5 -51.5t-34.5 -37.5t-52 -22.5t-64 -7.5z" />
<glyph unicode="&#xc8;" horiz-adv-x="681" d="M41 0zM41 0l111 700h542l-25 -155h-349l-18 -113h300l-24 -157h-300l-19 -119h358l-25 -156h-551zM367 768l-113 134l1 7h201l58 -136v-5h-147z" />
<glyph unicode="&#xc9;" horiz-adv-x="681" d="M41 0zM454 910h195l-1 -7l-154 -134h-146l1 5zM41 0l111 700h542l-25 -155h-349l-18 -113h300l-24 -157h-300l-19 -119h358l-25 -156h-551z" />
<glyph unicode="&#xca;" horiz-adv-x="681" d="M41 0zM440 820l-65 -52h-143l1 4l144 137h152l100 -137l-1 -4h-140zM41 0l111 700h542l-25 -155h-349l-18 -113h300l-24 -157h-300l-19 -119h358l-25 -156h-551z" />
<glyph unicode="&#xcb;" horiz-adv-x="681" d="M41 0zM545 764q-42 0 -62.5 16t-20.5 52q0 51 28 75t76 24q41 0 62.5 -16.5t21.5 -51.5q0 -52 -28.5 -75.5t-76.5 -23.5zM319 764q-42 0 -62.5 16.5t-20.5 52.5q0 51 28 74.5t76 23.5q83 0 83 -67q0 -53 -28 -76.5t-76 -23.5zM41 0l111 700h542l-25 -155h-349l-18 -113 h300l-24 -157h-300l-19 -119h358l-25 -156h-551z" />
<glyph unicode="&#xcc;" horiz-adv-x="364" d="M41 0zM41 0l111 700h198l-111 -700h-198zM201 768l-113 134l1 7h201l58 -136v-5h-147z" />
<glyph unicode="&#xcd;" horiz-adv-x="364" d="M41 0zM41 0l111 700h198l-111 -700h-198zM282 910h195l-1 -7l-154 -134h-146l1 5z" />
<glyph unicode="&#xce;" horiz-adv-x="364" d="M41 0zM41 0l111 700h198l-111 -700h-198zM268 820l-65 -52h-143l1 4l144 137h152l100 -137l-1 -4h-140z" />
<glyph unicode="&#xcf;" horiz-adv-x="364" d="M41 0zM41 0l111 700h198l-111 -700h-198zM373 764q-42 0 -62.5 16t-20.5 52q0 51 28 75t76 24q41 0 62.5 -16.5t21.5 -51.5q0 -52 -28.5 -75.5t-76.5 -23.5zM147 764q-42 0 -62.5 16.5t-20.5 52.5q0 51 28 74.5t76 23.5q83 0 83 -67q0 -53 -28 -76.5t-76 -23.5z" />
<glyph unicode="&#xd0;" horiz-adv-x="765" d="M359 0h-308l43 270h-69l24 148h68l45 282h301q143 0 210.5 -63.5t67.5 -194.5q0 -20 -2 -44t-4 -45q-23 -176 -114.5 -264.5t-261.5 -88.5zM274 160h84q34 0 63.5 9.5t52.5 31.5t39.5 57.5t24.5 86.5q2 17 4 35t2 32q0 128 -109 128h-100l-20 -122h101l-24 -148h-101z " />
<glyph unicode="&#xd1;" horiz-adv-x="806" d="M41 0zM514 0l-232 384l-55 -384h-186l111 700h146l246 -416l61 416h186l-111 -700h-166zM576 906h105q-2 -38 -14 -63.5t-30 -41t-39 -22t-41 -6.5q-23 0 -42 5t-34.5 10.5t-30 10.5t-28.5 5q-17 0 -23.5 -10.5t-8.5 -21.5h-107q2 38 14 63.5t29.5 41t39 22t41.5 6.5 q23 0 42 -5t35.5 -10.5t31 -10.5t29.5 -5q17 0 23 9.5t8 22.5z" />
<glyph unicode="&#xd2;" horiz-adv-x="776" d="M46 0zM52 351q23 183 119 273.5t274 90.5q160 0 232.5 -70t72.5 -207q0 -42 -6 -88q-23 -183 -119.5 -274t-273.5 -91q-159 0 -232 70.5t-73 208.5q0 40 6 87zM548 422q0 69 -30.5 98.5t-89.5 29.5q-36 0 -65 -10.5t-51 -34t-37 -62t-24 -94.5q-3 -20 -5 -38t-2 -34 q0 -69 30.5 -98.5t89.5 -29.5q36 0 65 10.5t51 34.5t37.5 62.5t24.5 94.5q6 40 6 71zM395 768l-113 134l1 7h201l58 -136v-5h-147z" />
<glyph unicode="&#xd3;" horiz-adv-x="776" d="M46 0zM482 910h195l-1 -7l-154 -134h-146l1 5zM52 351q23 183 119 273.5t274 90.5q160 0 232.5 -70t72.5 -207q0 -42 -6 -88q-23 -183 -119.5 -274t-273.5 -91q-159 0 -232 70.5t-73 208.5q0 40 6 87zM548 422q0 69 -30.5 98.5t-89.5 29.5q-36 0 -65 -10.5t-51 -34 t-37 -62t-24 -94.5q-3 -20 -5 -38t-2 -34q0 -69 30.5 -98.5t89.5 -29.5q36 0 65 10.5t51 34.5t37.5 62.5t24.5 94.5q6 40 6 71z" />
<glyph unicode="&#xd4;" horiz-adv-x="776" d="M46 0zM468 820l-65 -52h-143l1 4l144 137h152l100 -137l-1 -4h-140zM52 351q23 183 119 273.5t274 90.5q160 0 232.5 -70t72.5 -207q0 -42 -6 -88q-23 -183 -119.5 -274t-273.5 -91q-159 0 -232 70.5t-73 208.5q0 40 6 87zM548 422q0 69 -30.5 98.5t-89.5 29.5 q-36 0 -65 -10.5t-51 -34t-37 -62t-24 -94.5q-3 -20 -5 -38t-2 -34q0 -69 30.5 -98.5t89.5 -29.5q36 0 65 10.5t51 34.5t37.5 62.5t24.5 94.5q6 40 6 71z" />
<glyph unicode="&#xd5;" horiz-adv-x="776" d="M46 0zM52 351q23 183 119 273.5t274 90.5q160 0 232.5 -70t72.5 -207q0 -42 -6 -88q-23 -183 -119.5 -274t-273.5 -91q-159 0 -232 70.5t-73 208.5q0 40 6 87zM548 422q0 69 -30.5 98.5t-89.5 29.5q-36 0 -65 -10.5t-51 -34t-37 -62t-24 -94.5q-3 -20 -5 -38t-2 -34 q0 -69 30.5 -98.5t89.5 -29.5q36 0 65 10.5t51 34.5t37.5 62.5t24.5 94.5q6 40 6 71zM563 906h105q-2 -38 -14 -63.5t-30 -41t-39 -22t-41 -6.5q-23 0 -42 5t-34.5 10.5t-30 10.5t-28.5 5q-17 0 -23.5 -10.5t-8.5 -21.5h-107q2 38 14 63.5t29.5 41t39 22t41.5 6.5 q23 0 42 -5t35.5 -10.5t31 -10.5t29.5 -5q17 0 23 9.5t8 22.5z" />
<glyph unicode="&#xd6;" horiz-adv-x="776" d="M46 0zM574 764q-42 0 -62.5 16t-20.5 52q0 51 28 75t76 24q41 0 62.5 -16.5t21.5 -51.5q0 -52 -28.5 -75.5t-76.5 -23.5zM348 764q-42 0 -62.5 16.5t-20.5 52.5q0 51 28 74.5t76 23.5q83 0 83 -67q0 -53 -28 -76.5t-76 -23.5zM52 351q23 183 119 273.5t274 90.5 q160 0 232.5 -70t72.5 -207q0 -42 -6 -88q-23 -183 -119.5 -274t-273.5 -91q-159 0 -232 70.5t-73 208.5q0 40 6 87zM548 422q0 69 -30.5 98.5t-89.5 29.5q-36 0 -65 -10.5t-51 -34t-37 -62t-24 -94.5q-3 -20 -5 -38t-2 -34q0 -69 30.5 -98.5t89.5 -29.5q36 0 65 10.5 t51 34.5t37.5 62.5t24.5 94.5q6 40 6 71z" />
<glyph unicode="&#xd7;" horiz-adv-x="508" d="M105 117l-62 75l139 121l-100 121l86 75l98 -122l137 121l62 -75l-137 -121l99 -119l-85 -75l-99 120z" />
<glyph unicode="&#xd8;" horiz-adv-x="783" d="M-13 0l102 100q-39 64 -39 165q0 20 1.5 42t4.5 43q22 179 118.5 272t275.5 93q68 0 119 -13.5t88 -39.5l39 38h125l-105 -103q38 -63 38 -162q0 -19 -1.5 -41t-4.5 -44q-24 -182 -119 -273.5t-270 -91.5q-138 0 -212 53l-39 -38h-121zM249 259l269 266q-29 25 -85 25 q-37 0 -66 -10.5t-51 -34t-37 -62t-24 -93.5q-3 -19 -4.5 -40.5t-1.5 -50.5zM369 149q36 0 65 10t51 34t37 62.5t24 95.5q4 24 5 44.5t1 40.5l-268 -263q15 -13 36.5 -18.5t48.5 -5.5z" />
<glyph unicode="&#xd9;" horiz-adv-x="767" d="M66 0zM505 280l66 420h198l-65 -410q-13 -83 -42 -141t-73 -94.5t-103.5 -53t-133.5 -16.5q-68 0 -121.5 13t-90 41t-55.5 71.5t-19 104.5q0 19 1.5 36.5t5.5 38.5l65 410h197l-65 -420q-3 -18 -3 -34q0 -45 24.5 -70t75.5 -25q117 0 138 129zM396 768l-113 134l1 7h201 l58 -136v-5h-147z" />
<glyph unicode="&#xda;" horiz-adv-x="767" d="M66 0zM484 910h195l-1 -7l-154 -134h-146l1 5zM505 280l66 420h198l-65 -410q-13 -83 -42 -141t-73 -94.5t-103.5 -53t-133.5 -16.5q-68 0 -121.5 13t-90 41t-55.5 71.5t-19 104.5q0 19 1.5 36.5t5.5 38.5l65 410h197l-65 -420q-3 -18 -3 -34q0 -45 24.5 -70t75.5 -25 q117 0 138 129z" />
<glyph unicode="&#xdb;" horiz-adv-x="767" d="M66 0zM470 820l-65 -52h-143l1 4l144 137h152l100 -137l-1 -4h-140zM505 280l66 420h198l-65 -410q-13 -83 -42 -141t-73 -94.5t-103.5 -53t-133.5 -16.5q-68 0 -121.5 13t-90 41t-55.5 71.5t-19 104.5q0 19 1.5 36.5t5.5 38.5l65 410h197l-65 -420q-3 -18 -3 -34 q0 -45 24.5 -70t75.5 -25q117 0 138 129z" />
<glyph unicode="&#xdc;" horiz-adv-x="767" d="M66 0zM575 764q-42 0 -62.5 16t-20.5 52q0 51 28 75t76 24q41 0 62.5 -16.5t21.5 -51.5q0 -52 -28.5 -75.5t-76.5 -23.5zM349 764q-42 0 -62.5 16.5t-20.5 52.5q0 51 28 74.5t76 23.5q83 0 83 -67q0 -53 -28 -76.5t-76 -23.5zM505 280l66 420h198l-65 -410 q-13 -83 -42 -141t-73 -94.5t-103.5 -53t-133.5 -16.5q-68 0 -121.5 13t-90 41t-55.5 71.5t-19 104.5q0 19 1.5 36.5t5.5 38.5l65 410h197l-65 -420q-3 -18 -3 -34q0 -45 24.5 -70t75.5 -25q117 0 138 129z" />
<glyph unicode="&#xdd;" horiz-adv-x="686" d="M62 0zM238 251l-176 449h216l89 -274l174 274h212l-320 -455l-38 -245h-197zM439 910h195l-1 -7l-154 -134h-146l1 5z" />
<glyph unicode="&#xde;" horiz-adv-x="703" d="M255 100l-15 -100h-199l111 700h199l-16 -96h140q53 0 93 -15t66.5 -42.5t40 -65.5t13.5 -84q0 -74 -23.5 -130t-64 -93t-95 -55.5t-116.5 -18.5h-134zM281 262h112q46 0 72 29.5t26 74.5q0 28 -15.5 49t-55.5 21h-111z" />
<glyph unicode="&#xdf;" horiz-adv-x="670" d="M370 293h-56l22 144h42q38 0 63.5 21t25.5 61q0 34 -21 50t-56 16q-47 0 -76.5 -25t-37.5 -77l-77 -483h-187l78 486q18 115 95.5 179.5t221.5 64.5q64 0 110 -13.5t75 -37.5t42.5 -57t13.5 -72q0 -63 -30 -107t-81 -69q51 -20 70.5 -59t19.5 -89q0 -56 -20.5 -100 t-55 -74t-81 -45.5t-98.5 -15.5q-32 0 -63.5 5t-54.5 15l34 134q11 -7 26 -10t30 -3q20 0 38.5 6t32.5 17t22.5 28t8.5 40q0 34 -20 52t-56 18z" />
<glyph unicode="&#xe0;" horiz-adv-x="575" d="M10 0zM233 101q38 0 64.5 25.5t33.5 78.5h-64q-38 0 -61.5 -15.5t-23.5 -45.5q0 -22 13.5 -32.5t37.5 -10.5zM324 65q-29 -37 -72 -58t-99 -21q-66 0 -104.5 32.5t-38.5 92.5q0 49 19.5 85.5t52.5 60.5t77.5 36t94.5 12h93q1 22 -4.5 36t-17 21.5t-28 10t-37.5 2.5 q-43 0 -81 -14t-66 -40l-58 107q45 46 109.5 67t142.5 21q48 0 89.5 -9t72.5 -29.5t48.5 -53t17.5 -79.5q0 -11 -1 -22.5t-3 -25.5l-47 -297h-159zM262 570l-113 134l1 7h201l58 -136v-5h-147z" />
<glyph unicode="&#xe1;" horiz-adv-x="575" d="M10 0zM233 101q38 0 64.5 25.5t33.5 78.5h-64q-38 0 -61.5 -15.5t-23.5 -45.5q0 -22 13.5 -32.5t37.5 -10.5zM324 65q-29 -37 -72 -58t-99 -21q-66 0 -104.5 32.5t-38.5 92.5q0 49 19.5 85.5t52.5 60.5t77.5 36t94.5 12h93q1 22 -4.5 36t-17 21.5t-28 10t-37.5 2.5 q-43 0 -81 -14t-66 -40l-58 107q45 46 109.5 67t142.5 21q48 0 89.5 -9t72.5 -29.5t48.5 -53t17.5 -79.5q0 -11 -1 -22.5t-3 -25.5l-47 -297h-159zM350 711h195l-1 -7l-154 -134h-146l1 5z" />
<glyph unicode="&#xe2;" horiz-adv-x="575" d="M10 0zM233 101q38 0 64.5 25.5t33.5 78.5h-64q-38 0 -61.5 -15.5t-23.5 -45.5q0 -22 13.5 -32.5t37.5 -10.5zM324 65q-29 -37 -72 -58t-99 -21q-66 0 -104.5 32.5t-38.5 92.5q0 49 19.5 85.5t52.5 60.5t77.5 36t94.5 12h93q1 22 -4.5 36t-17 21.5t-28 10t-37.5 2.5 q-43 0 -81 -14t-66 -40l-58 107q45 46 109.5 67t142.5 21q48 0 89.5 -9t72.5 -29.5t48.5 -53t17.5 -79.5q0 -11 -1 -22.5t-3 -25.5l-47 -297h-159zM322 622l-65 -52h-143l1 4l144 137h152l100 -137l-1 -4h-140z" />
<glyph unicode="&#xe3;" horiz-adv-x="575" d="M10 0zM233 101q38 0 64.5 25.5t33.5 78.5h-64q-38 0 -61.5 -15.5t-23.5 -45.5q0 -22 13.5 -32.5t37.5 -10.5zM324 65q-29 -37 -72 -58t-99 -21q-66 0 -104.5 32.5t-38.5 92.5q0 49 19.5 85.5t52.5 60.5t77.5 36t94.5 12h93q1 22 -4.5 36t-17 21.5t-28 10t-37.5 2.5 q-43 0 -81 -14t-66 -40l-58 107q45 46 109.5 67t142.5 21q48 0 89.5 -9t72.5 -29.5t48.5 -53t17.5 -79.5q0 -11 -1 -22.5t-3 -25.5l-47 -297h-159zM431 708h105q-2 -38 -14 -63.5t-30 -41t-39 -22t-41 -6.5q-23 0 -42 5t-34.5 10.5t-30 10.5t-28.5 5q-17 0 -23.5 -10.5 t-8.5 -21.5h-107q2 38 14 63.5t29.5 41t39 22t41.5 6.5q23 0 42 -5t35.5 -10.5t31 -10.5t29.5 -5q17 0 23 9.5t8 22.5z" />
<glyph unicode="&#xe4;" horiz-adv-x="575" d="M10 0zM233 101q38 0 64.5 25.5t33.5 78.5h-64q-38 0 -61.5 -15.5t-23.5 -45.5q0 -22 13.5 -32.5t37.5 -10.5zM324 65q-29 -37 -72 -58t-99 -21q-66 0 -104.5 32.5t-38.5 92.5q0 49 19.5 85.5t52.5 60.5t77.5 36t94.5 12h93q1 22 -4.5 36t-17 21.5t-28 10t-37.5 2.5 q-43 0 -81 -14t-66 -40l-58 107q45 46 109.5 67t142.5 21q48 0 89.5 -9t72.5 -29.5t48.5 -53t17.5 -79.5q0 -11 -1 -22.5t-3 -25.5l-47 -297h-159zM426 565q-42 0 -62.5 16t-20.5 52q0 51 28 75t76 24q41 0 62.5 -16.5t21.5 -51.5q0 -52 -28.5 -75.5t-76.5 -23.5zM200 565 q-42 0 -62.5 16.5t-20.5 52.5q0 51 28 74.5t76 23.5q83 0 83 -67q0 -53 -28 -76.5t-76 -23.5z" />
<glyph unicode="&#xe5;" horiz-adv-x="575" d="M10 0zM233 101q38 0 64.5 25.5t33.5 78.5h-64q-38 0 -61.5 -15.5t-23.5 -45.5q0 -22 13.5 -32.5t37.5 -10.5zM324 65q-29 -37 -72 -58t-99 -21q-66 0 -104.5 32.5t-38.5 92.5q0 49 19.5 85.5t52.5 60.5t77.5 36t94.5 12h93q1 22 -4.5 36t-17 21.5t-28 10t-37.5 2.5 q-43 0 -81 -14t-66 -40l-58 107q45 46 109.5 67t142.5 21q48 0 89.5 -9t72.5 -29.5t48.5 -53t17.5 -79.5q0 -11 -1 -22.5t-3 -25.5l-47 -297h-159zM328 550q-45 0 -77.5 23t-32.5 71q0 29 10 52t28 38.5t42.5 24t52.5 8.5q51 0 80.5 -24.5t29.5 -68.5q0 -59 -37.5 -91.5 t-95.5 -32.5zM346 700q-21 0 -35 -13t-14 -37q0 -17 9.5 -25.5t26.5 -8.5q20 0 34.5 13t14.5 38q0 16 -9.5 24.5t-26.5 8.5z" />
<glyph unicode="&#xe6;" horiz-adv-x="880" d="M579 -15q-69 0 -118.5 22.5t-76.5 68.5q-38 -45 -94 -67.5t-126 -22.5q-33 0 -61 8t-48.5 24t-32 39.5t-11.5 53.5q0 48 19 84t52 60.5t77 36.5t94 12h93q2 44 -22 57.5t-65 13.5q-43 0 -81 -14t-66 -40l-57 107q45 46 109 67t142 21q54 0 94 -14t64 -44q72 58 185 58 q53 0 91.5 -15.5t63 -43.5t36.5 -66t12 -83q0 -26 -3 -51t-11 -54h-320q-1 -48 22 -69.5t67 -21.5q36 0 59.5 12.5t43.5 40.5l102 -71q-38 -54 -94 -81.5t-139 -27.5zM234 101q38 0 62.5 24.5t32.5 77.5h-63q-38 0 -60.5 -15t-22.5 -44q0 -43 51 -43zM629 385 q-33 0 -58.5 -19.5t-36.5 -61.5h156q1 5 1 9v8q0 30 -16 47t-46 17z" />
<glyph unicode="&#xe7;" horiz-adv-x="534" d="M210 -258q-48 0 -86 18.5t-56 56.5l68 61q13 -23 31 -35.5t48 -12.5q20 0 35 8.5t15 27.5q0 12 -6.5 19t-16 10t-21.5 3t-23 -1l-25 13l39 77q-85 10 -133.5 59.5t-48.5 147.5q0 13 1 27t3 29q18 137 95.5 201.5t202.5 64.5q81 0 133 -30.5t74 -98.5l-141 -81 q-11 32 -28 45t-49 13q-42 0 -68.5 -25t-37.5 -90q-2 -11 -3 -21.5t-1 -20.5q0 -38 17.5 -58.5t59.5 -20.5q67 0 96 55l117 -83q-69 -98 -200 -113l-20 -33q37 -5 64.5 -27.5t27.5 -65.5q0 -29 -12.5 -51.5t-34.5 -37.5t-52 -22.5t-64 -7.5z" />
<glyph unicode="&#xe8;" horiz-adv-x="568" d="M30 0zM260 -15q-52 0 -94.5 13t-72.5 39.5t-46.5 66t-16.5 93.5q0 13 1 25.5t3 26.5q8 61 31.5 110.5t61.5 84.5t90 53.5t116 18.5q54 0 93.5 -16t64.5 -43.5t37 -65.5t12 -83q0 -51 -14 -109h-322q0 -86 88 -86q37 0 64 11.5t47 37.5l99 -72q-40 -52 -95.5 -78.5 t-146.5 -26.5zM314 384q-35 0 -60 -20t-36 -62h154q0 4 0.5 7.5t0.5 7.5q0 32 -13.5 49.5t-45.5 17.5zM270 570l-113 134l1 7h201l58 -136v-5h-147z" />
<glyph unicode="&#xe9;" horiz-adv-x="581" d="M30 0zM358 711h195l-1 -7l-154 -134h-146l1 5zM260 -15q-52 0 -94.5 13t-72.5 39.5t-46.5 66t-16.5 93.5q0 13 1 25.5t3 26.5q8 61 31.5 110.5t61.5 84.5t90 53.5t116 18.5q54 0 93.5 -16t64.5 -43.5t37 -65.5t12 -83q0 -51 -14 -109h-322q0 -86 88 -86q37 0 64 11.5 t47 37.5l99 -72q-40 -52 -95.5 -78.5t-146.5 -26.5zM314 384q-35 0 -60 -20t-36 -62h154q0 4 0.5 7.5t0.5 7.5q0 32 -13.5 49.5t-45.5 17.5z" />
<glyph unicode="&#xea;" horiz-adv-x="568" d="M30 0zM343 622l-65 -52h-143l1 4l144 137h152l100 -137l-1 -4h-140zM260 -15q-52 0 -94.5 13t-72.5 39.5t-46.5 66t-16.5 93.5q0 13 1 25.5t3 26.5q8 61 31.5 110.5t61.5 84.5t90 53.5t116 18.5q54 0 93.5 -16t64.5 -43.5t37 -65.5t12 -83q0 -51 -14 -109h-322 q0 -86 88 -86q37 0 64 11.5t47 37.5l99 -72q-40 -52 -95.5 -78.5t-146.5 -26.5zM314 384q-35 0 -60 -20t-36 -62h154q0 4 0.5 7.5t0.5 7.5q0 32 -13.5 49.5t-45.5 17.5z" />
<glyph unicode="&#xeb;" horiz-adv-x="582" d="M30 0zM449 565q-42 0 -62.5 16t-20.5 52q0 51 28 75t76 24q41 0 62.5 -16.5t21.5 -51.5q0 -52 -28.5 -75.5t-76.5 -23.5zM223 565q-42 0 -62.5 16.5t-20.5 52.5q0 51 28 74.5t76 23.5q83 0 83 -67q0 -53 -28 -76.5t-76 -23.5zM260 -15q-52 0 -94.5 13t-72.5 39.5 t-46.5 66t-16.5 93.5q0 13 1 25.5t3 26.5q8 61 31.5 110.5t61.5 84.5t90 53.5t116 18.5q54 0 93.5 -16t64.5 -43.5t37 -65.5t12 -83q0 -51 -14 -109h-322q0 -86 88 -86q37 0 64 11.5t47 37.5l99 -72q-40 -52 -95.5 -78.5t-146.5 -26.5zM314 384q-35 0 -60 -20t-36 -62h154 q0 4 0.5 7.5t0.5 7.5q0 32 -13.5 49.5t-45.5 17.5z" />
<glyph unicode="&#xec;" horiz-adv-x="303" d="M16 0zM95 502h190l-80 -502h-189zM135 570l-113 134l1 7h201l58 -136v-5h-147z" />
<glyph unicode="&#xed;" horiz-adv-x="303" d="M16 0zM220 711h195l-1 -7l-154 -134h-146l1 5zM95 502h190l-80 -502h-189z" />
<glyph unicode="&#xee;" horiz-adv-x="303" d="M0 0zM206 622l-65 -52h-143l1 4l144 137h152l100 -137l-1 -4h-140zM95 502h190l-80 -502h-189z" />
<glyph unicode="&#xef;" horiz-adv-x="303" d="M2 0zM311 565q-42 0 -62.5 16t-20.5 52q0 51 28 75t76 24q41 0 62.5 -16.5t21.5 -51.5q0 -52 -28.5 -75.5t-76.5 -23.5zM85 565q-42 0 -62.5 16.5t-20.5 52.5q0 51 28 74.5t76 23.5q83 0 83 -67q0 -53 -28 -76.5t-76 -23.5zM95 502h190l-80 -502h-189z" />
<glyph unicode="&#xf0;" horiz-adv-x="607" d="M552 742l27 -54l-68 -41q40 -51 55.5 -115t15.5 -132q0 -24 -2 -52t-8 -76q-18 -148 -92.5 -217.5t-205.5 -69.5q-121 0 -184 53t-63 156q0 20 3 46q16 132 89.5 193t185.5 61q32 0 59.5 -8t46.5 -24q-5 30 -15.5 55t-27.5 45l-81 -48l-28 53l59 36q-38 23 -91 35l59 118 q55 -5 100 -21.5t80 -43.5zM388 238q2 11 3 22t1 19q0 80 -75 80q-48 0 -74 -29t-35 -92q-2 -10 -2.5 -19t-0.5 -17q0 -79 75 -79q45 0 72 27.5t36 87.5z" />
<glyph unicode="&#xf1;" horiz-adv-x="641" d="M16 0zM16 0l78 502h155l2 -86q34 48 83 74t107 26q42 0 72 -11.5t49.5 -32t29 -49t9.5 -62.5q0 -11 -1 -23t-3 -23l-50 -315h-189l39 249q3 22 3 39q0 32 -14.5 45.5t-43.5 13.5q-35 0 -63 -25.5t-36 -77.5l-38 -244h-189zM468 708h105q-2 -38 -14 -63.5t-30 -41t-39 -22 t-41 -6.5q-23 0 -42 5t-34.5 10.5t-30 10.5t-28.5 5q-17 0 -23.5 -10.5t-8.5 -21.5h-107q2 38 14 63.5t29.5 41t39 22t41.5 6.5q23 0 42 -5t35.5 -10.5t31 -10.5t29.5 -5q17 0 23 9.5t8 22.5z" />
<glyph unicode="&#xf2;" horiz-adv-x="605" d="M30 0zM34 251q8 68 33 118t63.5 82.5t90.5 48.5t114 16q121 0 180 -50.5t59 -157.5q0 -13 -1 -27.5t-3 -29.5q-17 -132 -93.5 -199t-208.5 -67q-238 0 -238 209q0 14 1 28t3 29zM391 250q4 23 4 45q0 41 -18 59.5t-57 18.5q-48 0 -73 -29.5t-35 -93.5q-4 -23 -4 -45 q0 -42 18 -61t56 -19q46 0 72 29.5t37 95.5zM274 570l-113 134l1 7h201l58 -136v-5h-147z" />
<glyph unicode="&#xf3;" horiz-adv-x="605" d="M30 0zM362 711h195l-1 -7l-154 -134h-146l1 5zM34 251q8 68 33 118t63.5 82.5t90.5 48.5t114 16q121 0 180 -50.5t59 -157.5q0 -13 -1 -27.5t-3 -29.5q-17 -132 -93.5 -199t-208.5 -67q-238 0 -238 209q0 14 1 28t3 29zM391 250q4 23 4 45q0 41 -18 59.5t-57 18.5 q-48 0 -73 -29.5t-35 -93.5q-4 -23 -4 -45q0 -42 18 -61t56 -19q46 0 72 29.5t37 95.5z" />
<glyph unicode="&#xf4;" horiz-adv-x="605" d="M30 0zM348 622l-65 -52h-143l1 4l144 137h152l100 -137l-1 -4h-140zM34 251q8 68 33 118t63.5 82.5t90.5 48.5t114 16q121 0 180 -50.5t59 -157.5q0 -13 -1 -27.5t-3 -29.5q-17 -132 -93.5 -199t-208.5 -67q-238 0 -238 209q0 14 1 28t3 29zM391 250q4 23 4 45 q0 41 -18 59.5t-57 18.5q-48 0 -73 -29.5t-35 -93.5q-4 -23 -4 -45q0 -42 18 -61t56 -19q46 0 72 29.5t37 95.5z" />
<glyph unicode="&#xf5;" horiz-adv-x="605" d="M30 0zM34 251q8 68 33 118t63.5 82.5t90.5 48.5t114 16q121 0 180 -50.5t59 -157.5q0 -13 -1 -27.5t-3 -29.5q-17 -132 -93.5 -199t-208.5 -67q-238 0 -238 209q0 14 1 28t3 29zM391 250q4 23 4 45q0 41 -18 59.5t-57 18.5q-48 0 -73 -29.5t-35 -93.5q-4 -23 -4 -45 q0 -42 18 -61t56 -19q46 0 72 29.5t37 95.5zM443 708h105q-2 -38 -14 -63.5t-30 -41t-39 -22t-41 -6.5q-23 0 -42 5t-34.5 10.5t-30 10.5t-28.5 5q-17 0 -23.5 -10.5t-8.5 -21.5h-107q2 38 14 63.5t29.5 41t39 22t41.5 6.5q23 0 42 -5t35.5 -10.5t31 -10.5t29.5 -5 q17 0 23 9.5t8 22.5z" />
<glyph unicode="&#xf6;" horiz-adv-x="605" d="M30 0zM453 565q-42 0 -62.5 16t-20.5 52q0 51 28 75t76 24q41 0 62.5 -16.5t21.5 -51.5q0 -52 -28.5 -75.5t-76.5 -23.5zM227 565q-42 0 -62.5 16.5t-20.5 52.5q0 51 28 74.5t76 23.5q83 0 83 -67q0 -53 -28 -76.5t-76 -23.5zM34 251q8 68 33 118t63.5 82.5t90.5 48.5 t114 16q121 0 180 -50.5t59 -157.5q0 -13 -1 -27.5t-3 -29.5q-17 -132 -93.5 -199t-208.5 -67q-238 0 -238 209q0 14 1 28t3 29zM391 250q4 23 4 45q0 41 -18 59.5t-57 18.5q-48 0 -73 -29.5t-35 -93.5q-4 -23 -4 -45q0 -42 18 -61t56 -19q46 0 72 29.5t37 95.5z" />
<glyph unicode="&#xf7;" horiz-adv-x="511" d="M272 413q-32 0 -52 19.5t-20 50.5q0 21 8 38.5t20.5 30t29.5 19t35 6.5q33 0 53.5 -20t20.5 -51q0 -39 -27.5 -66t-67.5 -27zM465 363l-17 -104h-403l16 104h404zM214 45q-32 0 -52 19.5t-20 50.5q0 43 28 69t64 26q34 0 54.5 -20.5t20.5 -52.5q0 -19 -7.5 -36 t-20.5 -29.5t-30.5 -19.5t-36.5 -7z" />
<glyph unicode="&#xf8;" horiz-adv-x="612" d="M538 502h103l-92 -82q29 -47 29 -114q0 -13 -1 -27t-3 -28q-17 -131 -94 -198.5t-209 -67.5q-52 0 -92.5 11.5t-69.5 32.5l-33 -29h-102l89 79q-29 46 -29 116q0 26 3 56q17 134 96 199.5t205 65.5q106 0 166 -45zM201 202l183 162q-21 18 -58 18q-54 0 -81.5 -33.5 t-40.5 -99.5q-2 -11 -3.5 -25t0.5 -22zM283 116q52 0 81 33t40 100q2 10 2.5 19.5t0.5 25.5l-181 -161q20 -17 57 -17z" />
<glyph unicode="&#xf9;" horiz-adv-x="638" d="M36 0zM204 -15q-44 0 -76 11.5t-52.5 32t-30 48t-9.5 60.5q0 11 0.5 19.5t2.5 19.5l52 326h190l-41 -260q-3 -21 -3 -37q0 -61 57 -61q32 0 59.5 26t36.5 82l39 250h190l-79 -502h-155l-1 76q-33 -44 -79.5 -67.5t-100.5 -23.5zM300 570l-113 134l1 7h201l58 -136v-5 h-147z" />
<glyph unicode="&#xfa;" horiz-adv-x="638" d="M36 0zM388 711h195l-1 -7l-154 -134h-146l1 5zM204 -15q-44 0 -76 11.5t-52.5 32t-30 48t-9.5 60.5q0 11 0.5 19.5t2.5 19.5l52 326h190l-41 -260q-3 -21 -3 -37q0 -61 57 -61q32 0 59.5 26t36.5 82l39 250h190l-79 -502h-155l-1 76q-33 -44 -79.5 -67.5t-100.5 -23.5z " />
<glyph unicode="&#xfb;" horiz-adv-x="638" d="M36 0zM374 622l-65 -52h-143l1 4l144 137h152l100 -137l-1 -4h-140zM204 -15q-44 0 -76 11.5t-52.5 32t-30 48t-9.5 60.5q0 11 0.5 19.5t2.5 19.5l52 326h190l-41 -260q-3 -21 -3 -37q0 -61 57 -61q32 0 59.5 26t36.5 82l39 250h190l-79 -502h-155l-1 76 q-33 -44 -79.5 -67.5t-100.5 -23.5z" />
<glyph unicode="&#xfc;" horiz-adv-x="638" d="M36 0zM479 565q-42 0 -62.5 16t-20.5 52q0 51 28 75t76 24q41 0 62.5 -16.5t21.5 -51.5q0 -52 -28.5 -75.5t-76.5 -23.5zM253 565q-42 0 -62.5 16.5t-20.5 52.5q0 51 28 74.5t76 23.5q83 0 83 -67q0 -53 -28 -76.5t-76 -23.5zM204 -15q-44 0 -76 11.5t-52.5 32t-30 48 t-9.5 60.5q0 11 0.5 19.5t2.5 19.5l52 326h190l-41 -260q-3 -21 -3 -37q0 -61 57 -61q32 0 59.5 26t36.5 82l39 250h190l-79 -502h-155l-1 76q-33 -44 -79.5 -67.5t-100.5 -23.5z" />
<glyph unicode="&#xfd;" horiz-adv-x="587" d="M0 0zM141 -29l15 31l-111 500h192l47 -313l135 313h199l-319 -594q-20 -37 -45 -62t-54 -40t-63 -21.5t-71 -6.5q-38 0 -64 5.5t-49 16.5l33 134q20 -10 37 -14t34 -4q56 0 84 55zM365 711h195l-1 -7l-154 -134h-146l1 5z" />
<glyph unicode="&#xfe;" horiz-adv-x="633" d="M317 700l-40 -252q31 35 71 51.5t84 16.5q83 0 126 -50t43 -145q0 -15 -1.5 -29.5t-3.5 -31.5q-8 -61 -28 -111.5t-52 -87t-77 -56.5t-102 -20q-87 0 -125 58l-36 -229h-189l140 886h190zM241 247q-2 -10 -2 -19v-17q0 -45 18.5 -65.5t50.5 -20.5q45 0 70.5 31.5 t35.5 91.5q3 25 3 44q0 44 -18.5 62.5t-50.5 18.5q-38 0 -67 -29t-40 -97z" />
<glyph unicode="&#xff;" horiz-adv-x="587" d="M0 0zM141 -29l15 31l-111 500h192l47 -313l135 313h199l-319 -594q-20 -37 -45 -62t-54 -40t-63 -21.5t-71 -6.5q-38 0 -64 5.5t-49 16.5l33 134q20 -10 37 -14t34 -4q56 0 84 55zM456 565q-42 0 -62.5 16t-20.5 52q0 51 28 75t76 24q41 0 62.5 -16.5t21.5 -51.5 q0 -52 -28.5 -75.5t-76.5 -23.5zM230 565q-42 0 -62.5 16.5t-20.5 52.5q0 51 28 74.5t76 23.5q83 0 83 -67q0 -53 -28 -76.5t-76 -23.5z" />
<glyph unicode="&#x100;" horiz-adv-x="713" d="M0 0zM395 502l-118 -258h155zM463 0l-13 94h-240l-42 -94h-196l339 700h236l117 -700h-201zM603 883l-17 -101h-301l16 101h302z" />
<glyph unicode="&#x101;" horiz-adv-x="575" d="M10 0zM233 101q38 0 64.5 25.5t33.5 78.5h-64q-38 0 -61.5 -15.5t-23.5 -45.5q0 -22 13.5 -32.5t37.5 -10.5zM324 65q-29 -37 -72 -58t-99 -21q-66 0 -104.5 32.5t-38.5 92.5q0 49 19.5 85.5t52.5 60.5t77.5 36t94.5 12h93q1 22 -4.5 36t-17 21.5t-28 10t-37.5 2.5 q-43 0 -81 -14t-66 -40l-58 107q45 46 109.5 67t142.5 21q48 0 89.5 -9t72.5 -29.5t48.5 -53t17.5 -79.5q0 -11 -1 -22.5t-3 -25.5l-47 -297h-159zM499 685l-17 -101h-301l16 101h302z" />
<glyph unicode="&#x102;" horiz-adv-x="713" d="M0 0zM395 502l-118 -258h155zM463 0l-13 94h-240l-42 -94h-196l339 700h236l117 -700h-201zM524 908h111q-6 -42 -22 -70.5t-41.5 -46t-60.5 -24.5t-78 -7t-76 7t-54 24.5t-29.5 46t-2.5 70.5h109q-5 -35 10 -47t52 -12t56.5 12t25.5 47z" />
<glyph unicode="&#x103;" horiz-adv-x="575" d="M10 0zM233 101q38 0 64.5 25.5t33.5 78.5h-64q-38 0 -61.5 -15.5t-23.5 -45.5q0 -22 13.5 -32.5t37.5 -10.5zM324 65q-29 -37 -72 -58t-99 -21q-66 0 -104.5 32.5t-38.5 92.5q0 49 19.5 85.5t52.5 60.5t77.5 36t94.5 12h93q1 22 -4.5 36t-17 21.5t-28 10t-37.5 2.5 q-43 0 -81 -14t-66 -40l-58 107q45 46 109.5 67t142.5 21q48 0 89.5 -9t72.5 -29.5t48.5 -53t17.5 -79.5q0 -11 -1 -22.5t-3 -25.5l-47 -297h-159zM407 710h111q-6 -42 -22 -70.5t-41.5 -46t-60.5 -24.5t-78 -7t-76 7t-54 24.5t-29.5 46t-2.5 70.5h109q-5 -35 10 -47t52 -12 t56.5 12t25.5 47z" />
<glyph unicode="&#x104;" horiz-adv-x="713" d="M506 -238q-26 0 -51.5 6t-45 19.5t-31.5 36t-12 55.5q0 53 25.5 91.5t66.5 61.5l-8 62h-240l-42 -94h-196l339 700h236l117 -700h-93q-49 -4 -73.5 -31t-24.5 -56t17 -39t40 -10q37 0 70 17l15 -90q-49 -29 -109 -29zM395 502l-118 -258h155z" />
<glyph unicode="&#x105;" horiz-adv-x="575" d="M512 -209q-49 -29 -109 -29q-26 0 -51.5 6t-45 19.5t-31.5 36t-12 55.5q0 42 16.5 75t45.5 56l-1 55q-29 -37 -72 -58t-99 -21q-66 0 -104.5 32.5t-38.5 92.5q0 49 19.5 85.5t52.5 60.5t77.5 36t94.5 12h93q1 22 -4.5 36t-17 21.5t-28 10t-37.5 2.5q-43 0 -81 -14 t-66 -40l-58 107q45 46 109.5 67t142.5 21q48 0 89.5 -9t72.5 -29.5t48.5 -53t17.5 -79.5q0 -11 -1 -22.5t-3 -25.5l-47 -297h-16q-49 -4 -73 -31t-24 -56t17 -39t40 -10q36 0 69 17zM233 101q38 0 64.5 25.5t33.5 78.5h-64q-38 0 -61.5 -15.5t-23.5 -45.5q0 -22 13.5 -32.5 t37.5 -10.5z" />
<glyph unicode="&#x106;" horiz-adv-x="693" d="M46 0zM486 910h195l-1 -7l-154 -134h-146l1 5zM347 -15q-155 0 -228 68.5t-73 209.5q0 40 6 88q25 189 123.5 276.5t270.5 87.5q119 0 184.5 -49.5t85.5 -143.5l-169 -62q-16 52 -45 70.5t-75 18.5q-32 0 -60 -9.5t-50.5 -32.5t-39 -62t-25.5 -98q-3 -20 -5 -38t-2 -35 q0 -71 33 -99.5t91 -28.5q45 0 83 18.5t63 64.5l148 -90q-46 -81 -125 -117.5t-191 -36.5z" />
<glyph unicode="&#x107;" horiz-adv-x="534" d="M30 0zM371 711h195l-1 -7l-154 -134h-146l1 5zM384 183l117 -83q-41 -57 -101 -86t-144 -29q-52 0 -94 12t-71 37.5t-45 65t-16 94.5q0 13 1 27t3 29q18 137 95.5 201.5t202.5 64.5q81 0 133 -30.5t74 -98.5l-141 -81q-11 32 -28 45t-49 13q-42 0 -68.5 -25t-37.5 -90 q-2 -11 -3 -21.5t-1 -20.5q0 -38 17.5 -58.5t59.5 -20.5q67 0 96 55z" />
<glyph unicode="&#x108;" horiz-adv-x="693" d="M46 0zM472 820l-65 -52h-143l1 4l144 137h152l100 -137l-1 -4h-140zM347 -15q-155 0 -228 68.5t-73 209.5q0 40 6 88q25 189 123.5 276.5t270.5 87.5q119 0 184.5 -49.5t85.5 -143.5l-169 -62q-16 52 -45 70.5t-75 18.5q-32 0 -60 -9.5t-50.5 -32.5t-39 -62t-25.5 -98 q-3 -20 -5 -38t-2 -35q0 -71 33 -99.5t91 -28.5q45 0 83 18.5t63 64.5l148 -90q-46 -81 -125 -117.5t-191 -36.5z" />
<glyph unicode="&#x109;" horiz-adv-x="534" d="M30 0zM356 622l-65 -52h-143l1 4l144 137h152l100 -137l-1 -4h-140zM384 183l117 -83q-41 -57 -101 -86t-144 -29q-52 0 -94 12t-71 37.5t-45 65t-16 94.5q0 13 1 27t3 29q18 137 95.5 201.5t202.5 64.5q81 0 133 -30.5t74 -98.5l-141 -81q-11 32 -28 45t-49 13 q-42 0 -68.5 -25t-37.5 -90q-2 -11 -3 -21.5t-1 -20.5q0 -38 17.5 -58.5t59.5 -20.5q67 0 96 55z" />
<glyph unicode="&#x10a;" horiz-adv-x="693" d="M46 0zM347 -15q-155 0 -228 68.5t-73 209.5q0 40 6 88q25 189 123.5 276.5t270.5 87.5q119 0 184.5 -49.5t85.5 -143.5l-169 -62q-16 52 -45 70.5t-75 18.5q-32 0 -60 -9.5t-50.5 -32.5t-39 -62t-25.5 -98q-3 -20 -5 -38t-2 -35q0 -71 33 -99.5t91 -28.5q45 0 83 18.5 t63 64.5l148 -90q-46 -81 -125 -117.5t-191 -36.5zM465 763q-89 0 -89 69q0 53 30.5 76.5t79.5 23.5q43 0 66 -17t23 -54q0 -51 -30 -74.5t-80 -23.5z" />
<glyph unicode="&#x10b;" horiz-adv-x="534" d="M30 0zM384 183l117 -83q-41 -57 -101 -86t-144 -29q-52 0 -94 12t-71 37.5t-45 65t-16 94.5q0 13 1 27t3 29q18 137 95.5 201.5t202.5 64.5q81 0 133 -30.5t74 -98.5l-141 -81q-11 32 -28 45t-49 13q-42 0 -68.5 -25t-37.5 -90q-2 -11 -3 -21.5t-1 -20.5 q0 -38 17.5 -58.5t59.5 -20.5q67 0 96 55zM350 565q-89 0 -89 69q0 53 30.5 76.5t79.5 23.5q43 0 66 -17t23 -54q0 -51 -30 -74.5t-80 -23.5z" />
<glyph unicode="&#x10c;" horiz-adv-x="693" d="M46 0zM387 769l-100 138l1 3h141l47 -52l65 52h143l-1 -3l-144 -138h-152zM347 -15q-155 0 -228 68.5t-73 209.5q0 40 6 88q25 189 123.5 276.5t270.5 87.5q119 0 184.5 -49.5t85.5 -143.5l-169 -62q-16 52 -45 70.5t-75 18.5q-32 0 -60 -9.5t-50.5 -32.5t-39 -62 t-25.5 -98q-3 -20 -5 -38t-2 -35q0 -71 33 -99.5t91 -28.5q45 0 83 18.5t63 64.5l148 -90q-46 -81 -125 -117.5t-191 -36.5z" />
<glyph unicode="&#x10d;" horiz-adv-x="534" d="M30 0zM272 570l-100 138l1 3h141l47 -52l65 52h143l-1 -3l-144 -138h-152zM384 183l117 -83q-41 -57 -101 -86t-144 -29q-52 0 -94 12t-71 37.5t-45 65t-16 94.5q0 13 1 27t3 29q18 137 95.5 201.5t202.5 64.5q81 0 133 -30.5t74 -98.5l-141 -81q-11 32 -28 45t-49 13 q-42 0 -68.5 -25t-37.5 -90q-2 -11 -3 -21.5t-1 -20.5q0 -38 17.5 -58.5t59.5 -20.5q67 0 96 55z" />
<glyph unicode="&#x10e;" horiz-adv-x="755" d="M41 0zM391 769l-100 138l1 3h141l47 -52l65 52h143l-1 -3l-144 -138h-152zM347 0h-306l111 700h303q144 0 211.5 -63t67.5 -194q0 -19 -1.5 -42t-4.5 -46q-23 -176 -116.5 -265.5t-264.5 -89.5zM264 160h84q34 0 63.5 10t53 32.5t40 59t25.5 89.5q2 16 3.5 33t1.5 31 q0 125 -110 125h-100z" />
<glyph unicode="&#x10f;" horiz-adv-x="793" d="M30 0zM778 421h-121l51 279h148zM388 250q2 8 3 20.5t1 20.5q0 46 -20 65t-53 19q-38 0 -65 -29t-38 -97q-4 -23 -4 -41q0 -80 68 -80q40 0 69.5 29.5t38.5 92.5zM535 0h-158l1 70q-29 -41 -71 -63t-99 -22q-81 0 -129.5 50.5t-48.5 151.5q0 13 1 27t3 29q8 68 30.5 119 t55.5 85.5t75 51.5t89 17q46 0 79 -16.5t53 -47.5l40 248h190z" />
<glyph unicode="&#x110;" horiz-adv-x="765" d="M359 0h-308l43 270h-69l24 148h68l45 282h301q143 0 210.5 -63.5t67.5 -194.5q0 -20 -2 -44t-4 -45q-23 -176 -114.5 -264.5t-261.5 -88.5zM274 160h84q34 0 63.5 9.5t52.5 31.5t39.5 57.5t24.5 86.5q2 17 4 35t2 32q0 128 -109 128h-100l-20 -122h101l-24 -148h-101z " />
<glyph unicode="&#x111;" horiz-adv-x="649" d="M385 249q4 20 4 38q0 42 -20 61t-53 19q-41 0 -68 -27.5t-38 -90.5q-3 -23 -3 -39q0 -80 71 -80q40 0 68 29.5t39 89.5zM672 541h-54l-85 -541h-158l1 71q-30 -41 -72.5 -63.5t-99.5 -22.5q-81 0 -127.5 49.5t-46.5 148.5q0 14 1 28.5t3 28.5q9 68 31 118t54.5 83 t73 49.5t87.5 16.5t79.5 -16.5t51.5 -47.5l16 98h-117l15 95h117l11 64h191l-10 -64h54z" />
<glyph unicode="&#x112;" horiz-adv-x="681" d="M41 0zM41 0l111 700h542l-25 -155h-349l-18 -113h300l-24 -157h-300l-19 -119h358l-25 -156h-551zM604 883l-17 -101h-301l16 101h302z" />
<glyph unicode="&#x113;" horiz-adv-x="568" d="M30 0zM260 -15q-52 0 -94.5 13t-72.5 39.5t-46.5 66t-16.5 93.5q0 13 1 25.5t3 26.5q8 61 31.5 110.5t61.5 84.5t90 53.5t116 18.5q54 0 93.5 -16t64.5 -43.5t37 -65.5t12 -83q0 -51 -14 -109h-322q0 -86 88 -86q37 0 64 11.5t47 37.5l99 -72q-40 -52 -95.5 -78.5 t-146.5 -26.5zM314 384q-35 0 -60 -20t-36 -62h154q0 4 0.5 7.5t0.5 7.5q0 32 -13.5 49.5t-45.5 17.5zM507 685l-17 -101h-301l16 101h302z" />
<glyph unicode="&#x114;" horiz-adv-x="681" d="M41 0zM41 0l111 700h542l-25 -155h-349l-18 -113h300l-24 -157h-300l-19 -119h358l-25 -156h-551zM523 908h111q-6 -42 -22 -70.5t-41.5 -46t-60.5 -24.5t-78 -7t-76 7t-54 24.5t-29.5 46t-2.5 70.5h109q-5 -35 10 -47t52 -12t56.5 12t25.5 47z" />
<glyph unicode="&#x115;" horiz-adv-x="568" d="M30 0zM260 -15q-52 0 -94.5 13t-72.5 39.5t-46.5 66t-16.5 93.5q0 13 1 25.5t3 26.5q8 61 31.5 110.5t61.5 84.5t90 53.5t116 18.5q54 0 93.5 -16t64.5 -43.5t37 -65.5t12 -83q0 -51 -14 -109h-322q0 -86 88 -86q37 0 64 11.5t47 37.5l99 -72q-40 -52 -95.5 -78.5 t-146.5 -26.5zM314 384q-35 0 -60 -20t-36 -62h154q0 4 0.5 7.5t0.5 7.5q0 32 -13.5 49.5t-45.5 17.5zM427 710h111q-6 -42 -22 -70.5t-41.5 -46t-60.5 -24.5t-78 -7t-76 7t-54 24.5t-29.5 46t-2.5 70.5h109q-5 -35 10 -47t52 -12t56.5 12t25.5 47z" />
<glyph unicode="&#x116;" horiz-adv-x="681" d="M41 0zM41 0l111 700h542l-25 -155h-349l-18 -113h300l-24 -157h-300l-19 -119h358l-25 -156h-551zM433 763q-89 0 -89 69q0 53 30.5 76.5t79.5 23.5q43 0 66 -17t23 -54q0 -51 -30 -74.5t-80 -23.5z" />
<glyph unicode="&#x117;" horiz-adv-x="568" d="M30 0zM260 -15q-52 0 -94.5 13t-72.5 39.5t-46.5 66t-16.5 93.5q0 13 1 25.5t3 26.5q8 61 31.5 110.5t61.5 84.5t90 53.5t116 18.5q54 0 93.5 -16t64.5 -43.5t37 -65.5t12 -83q0 -51 -14 -109h-322q0 -86 88 -86q37 0 64 11.5t47 37.5l99 -72q-40 -52 -95.5 -78.5 t-146.5 -26.5zM314 384q-35 0 -60 -20t-36 -62h154q0 4 0.5 7.5t0.5 7.5q0 32 -13.5 49.5t-45.5 17.5zM337 565q-89 0 -89 69q0 53 30.5 76.5t79.5 23.5q43 0 66 -17t23 -54q0 -51 -30 -74.5t-80 -23.5z" />
<glyph unicode="&#x118;" horiz-adv-x="681" d="M41 0l111 700h542l-25 -154h-348l-18 -114h299l-25 -157h-299l-19 -119h358l-24 -156q-49 -4 -73.5 -31t-24.5 -56t17 -39t40 -10q37 0 70 17l15 -90q-49 -29 -109 -29q-27 0 -52 6t-44.5 19.5t-31.5 36t-12 55.5q0 38 14 68t37 53h-398z" />
<glyph unicode="&#x119;" horiz-adv-x="568" d="M315 -238q-26 0 -51.5 6t-45 19.5t-31.5 36t-12 55.5t10.5 60t27.5 49q-85 10 -134 61.5t-49 147.5q0 13 1 25.5t3 26.5q8 61 31.5 110.5t61.5 84.5t90 53.5t116 18.5q54 0 93.5 -16t64.5 -43.5t37 -65.5t12 -83q0 -51 -14 -109h-322q0 -86 88 -86q37 0 64 11.5t47 37.5 l99 -72q-30 -39 -68 -63.5t-93 -34.5q-29 -11 -43.5 -33.5t-14.5 -45.5q0 -29 17 -39t40 -10q36 0 69 17l15 -90q-49 -29 -109 -29zM314 384q-35 0 -60 -20t-36 -62h154q0 4 0.5 7.5t0.5 7.5q0 32 -13.5 49.5t-45.5 17.5z" />
<glyph unicode="&#x11a;" horiz-adv-x="681" d="M41 0zM355 769l-100 138l1 3h141l47 -52l65 52h143l-1 -3l-144 -138h-152zM41 0l111 700h542l-25 -155h-349l-18 -113h300l-24 -157h-300l-19 -119h358l-25 -156h-551z" />
<glyph unicode="&#x11b;" horiz-adv-x="584" d="M30 0zM259 570l-100 138l1 3h141l47 -52l65 52h143l-1 -3l-144 -138h-152zM260 -15q-52 0 -94.5 13t-72.5 39.5t-46.5 66t-16.5 93.5q0 13 1 25.5t3 26.5q8 61 31.5 110.5t61.5 84.5t90 53.5t116 18.5q54 0 93.5 -16t64.5 -43.5t37 -65.5t12 -83q0 -51 -14 -109h-322 q0 -86 88 -86q37 0 64 11.5t47 37.5l99 -72q-40 -52 -95.5 -78.5t-146.5 -26.5zM314 384q-35 0 -60 -20t-36 -62h154q0 4 0.5 7.5t0.5 7.5q0 32 -13.5 49.5t-45.5 17.5z" />
<glyph unicode="&#x11c;" horiz-adv-x="731" d="M46 0zM464 820l-65 -52h-143l1 4l144 137h152l100 -137l-1 -4h-140zM315 -15q-127 0 -198 70t-71 213q0 38 6 83q24 187 122 275.5t272 88.5q114 0 177.5 -43.5t83.5 -128.5l-167 -66q-13 39 -39 55.5t-72 16.5q-34 0 -62.5 -10t-51 -33.5t-38.5 -62t-25 -94.5 q-4 -21 -5.5 -39.5t-1.5 -34.5q0 -37 8.5 -62t24.5 -40t39 -21.5t53 -6.5q22 0 42.5 4.5t38.5 15.5t32 30t22 48h-120l23 148h298l-62 -391h-135l1 79q-33 -45 -79.5 -69.5t-115.5 -24.5z" />
<glyph unicode="&#x11d;" horiz-adv-x="628" d="M0 0zM350 622l-65 -52h-143l1 4l144 137h152l100 -137l-1 -4h-140zM386 263q3 15 3 30q0 41 -19.5 61.5t-52.5 20.5q-40 0 -66.5 -28t-35.5 -85q-3 -21 -3 -38q0 -78 68 -78q41 0 69 29.5t37 87.5zM610 502l-74 -474q-10 -64 -39 -111t-71.5 -78t-97 -46.5t-116.5 -15.5 q-37 0 -72 5.5t-64 18.5t-51 32.5t-33 48.5l111 94q17 -35 47.5 -50t68.5 -15q108 0 126 113l8 52q-53 -68 -147 -68q-81 0 -128 48t-47 147q0 26 3 56q8 64 30 112.5t55 80.5t74.5 48t89.5 16q55 0 93.5 -22t56.5 -67l26 75h151z" />
<glyph unicode="&#x11e;" horiz-adv-x="731" d="M46 0zM315 -15q-127 0 -198 70t-71 213q0 38 6 83q24 187 122 275.5t272 88.5q114 0 177.5 -43.5t83.5 -128.5l-167 -66q-13 39 -39 55.5t-72 16.5q-34 0 -62.5 -10t-51 -33.5t-38.5 -62t-25 -94.5q-4 -21 -5.5 -39.5t-1.5 -34.5q0 -37 8.5 -62t24.5 -40t39 -21.5 t53 -6.5q22 0 42.5 4.5t38.5 15.5t32 30t22 48h-120l23 148h298l-62 -391h-135l1 79q-33 -45 -79.5 -69.5t-115.5 -24.5zM547 908h111q-6 -42 -22 -70.5t-41.5 -46t-60.5 -24.5t-78 -7t-76 7t-54 24.5t-29.5 46t-2.5 70.5h109q-5 -35 10 -47t52 -12t56.5 12t25.5 47z" />
<glyph unicode="&#x11f;" horiz-adv-x="628" d="M0 0zM386 263q3 15 3 30q0 41 -19.5 61.5t-52.5 20.5q-40 0 -66.5 -28t-35.5 -85q-3 -21 -3 -38q0 -78 68 -78q41 0 69 29.5t37 87.5zM610 502l-74 -474q-10 -64 -39 -111t-71.5 -78t-97 -46.5t-116.5 -15.5q-37 0 -72 5.5t-64 18.5t-51 32.5t-33 48.5l111 94 q17 -35 47.5 -50t68.5 -15q108 0 126 113l8 52q-53 -68 -147 -68q-81 0 -128 48t-47 147q0 26 3 56q8 64 30 112.5t55 80.5t74.5 48t89.5 16q55 0 93.5 -22t56.5 -67l26 75h151zM433 710h111q-6 -42 -22 -70.5t-41.5 -46t-60.5 -24.5t-78 -7t-76 7t-54 24.5t-29.5 46 t-2.5 70.5h109q-5 -35 10 -47t52 -12t56.5 12t25.5 47z" />
<glyph unicode="&#x120;" horiz-adv-x="731" d="M46 0zM315 -15q-127 0 -198 70t-71 213q0 38 6 83q24 187 122 275.5t272 88.5q114 0 177.5 -43.5t83.5 -128.5l-167 -66q-13 39 -39 55.5t-72 16.5q-34 0 -62.5 -10t-51 -33.5t-38.5 -62t-25 -94.5q-4 -21 -5.5 -39.5t-1.5 -34.5q0 -37 8.5 -62t24.5 -40t39 -21.5 t53 -6.5q22 0 42.5 4.5t38.5 15.5t32 30t22 48h-120l23 148h298l-62 -391h-135l1 79q-33 -45 -79.5 -69.5t-115.5 -24.5zM458 763q-89 0 -89 69q0 53 30.5 76.5t79.5 23.5q43 0 66 -17t23 -54q0 -51 -30 -74.5t-80 -23.5z" />
<glyph unicode="&#x121;" horiz-adv-x="628" d="M0 0zM386 263q3 15 3 30q0 41 -19.5 61.5t-52.5 20.5q-40 0 -66.5 -28t-35.5 -85q-3 -21 -3 -38q0 -78 68 -78q41 0 69 29.5t37 87.5zM610 502l-74 -474q-10 -64 -39 -111t-71.5 -78t-97 -46.5t-116.5 -15.5q-37 0 -72 5.5t-64 18.5t-51 32.5t-33 48.5l111 94 q17 -35 47.5 -50t68.5 -15q108 0 126 113l8 52q-53 -68 -147 -68q-81 0 -128 48t-47 147q0 26 3 56q8 64 30 112.5t55 80.5t74.5 48t89.5 16q55 0 93.5 -22t56.5 -67l26 75h151zM343 565q-89 0 -89 69q0 53 30.5 76.5t79.5 23.5q43 0 66 -17t23 -54q0 -51 -30 -74.5 t-80 -23.5z" />
<glyph unicode="&#x122;" horiz-adv-x="731" d="M46 0zM230 -351l-21 66q31 8 56.5 25.5t36.5 43.5q-39 1 -60.5 18.5t-21.5 49.5q0 49 29.5 73.5t77.5 24.5q41 0 64 -21t23 -63t-15 -79.5t-40.5 -66t-58.5 -47.5t-70 -24zM315 -15q-127 0 -198 70t-71 213q0 38 6 83q24 187 122 275.5t272 88.5q114 0 177.5 -43.5 t83.5 -128.5l-167 -66q-13 39 -39 55.5t-72 16.5q-34 0 -62.5 -10t-51 -33.5t-38.5 -62t-25 -94.5q-4 -21 -5.5 -39.5t-1.5 -34.5q0 -37 8.5 -62t24.5 -40t39 -21.5t53 -6.5q22 0 42.5 4.5t38.5 15.5t32 30t22 48h-120l23 148h298l-62 -391h-135l1 79q-33 -45 -79.5 -69.5 t-115.5 -24.5z" />
<glyph unicode="&#x123;" horiz-adv-x="628" d="M439 860l21 -66q-31 -8 -56.5 -25.5t-36.5 -43.5q39 -1 60.5 -18.5t21.5 -49.5q0 -49 -29.5 -73.5t-77.5 -24.5q-41 0 -64 21t-23 63t15 79.5t40.5 66t58.5 47.5t70 24zM386 263q3 15 3 30q0 41 -19.5 61.5t-52.5 20.5q-40 0 -66.5 -28t-35.5 -85q-3 -21 -3 -38 q0 -78 68 -78q41 0 69 29.5t37 87.5zM610 502l-74 -474q-10 -64 -39 -111t-71.5 -78t-97 -46.5t-116.5 -15.5q-37 0 -72 5.5t-64 18.5t-51 32.5t-33 48.5l111 94q17 -35 47.5 -50t68.5 -15q108 0 126 113l8 52q-53 -68 -147 -68q-81 0 -128 48t-47 147q0 26 3 56 q8 64 30 112.5t55 80.5t74.5 48t89.5 16q55 0 93.5 -22t56.5 -67l26 75h151z" />
<glyph unicode="&#x124;" horiz-adv-x="809" d="M41 0zM501 820l-65 -52h-143l1 4l144 137h152l100 -137l-1 -4h-140zM486 0l42 263h-248l-41 -263h-198l111 700h198l-42 -266h247l42 266h198l-111 -700h-198z" />
<glyph unicode="&#x125;" horiz-adv-x="641" d="M16 0zM236 810l-65 -52h-143l1 4l144 137h152l100 -137l-1 -4h-140zM316 700l-45 -282q32 47 78 72.5t99 25.5q71 0 112 -38.5t41 -113.5q0 -25 -4 -48l-50 -316h-190l40 249q1 7 2 18.5t1 19.5q0 33 -14.5 46.5t-43.5 13.5q-34 0 -62 -25.5t-37 -81.5l-38 -240h-189 l110 700h190z" />
<glyph unicode="&#x126;" horiz-adv-x="829" d="M318 434h247l12 73h-247zM85 604h62l15 96h198l-15 -96h247l15 96h198l-15 -96h62l-15 -97h-63l-80 -507h-198l42 263h-247l-42 -263h-198l81 507h-61z" />
<glyph unicode="&#x127;" horiz-adv-x="652" d="M58 541l14 95h56l10 64h191l-11 -64h117l-14 -95h-118l-20 -130q32 48 78 73t100 25q69 0 110.5 -40.5t41.5 -115.5q0 -24 -4 -47l-49 -306h-190l38 236q3 22 3 40q0 33 -14 47t-42 14q-38 0 -65 -26.5t-35 -80.5l-37 -230h-190l85 541h-55z" />
<glyph unicode="&#x128;" horiz-adv-x="364" d="M41 0zM41 0l111 700h198l-111 -700h-198zM363 906h105q-2 -38 -14 -63.5t-30 -41t-39 -22t-41 -6.5q-23 0 -42 5t-34.5 10.5t-30 10.5t-28.5 5q-17 0 -23.5 -10.5t-8.5 -21.5h-107q2 38 14 63.5t29.5 41t39 22t41.5 6.5q23 0 42 -5t35.5 -10.5t31 -10.5t29.5 -5 q17 0 23 9.5t8 22.5z" />
<glyph unicode="&#x129;" horiz-adv-x="303" d="M8 0zM95 502h190l-80 -502h-189zM301 708h105q-2 -38 -14 -63.5t-30 -41t-39 -22t-41 -6.5q-23 0 -42 5t-34.5 10.5t-30 10.5t-28.5 5q-17 0 -23.5 -10.5t-8.5 -21.5h-107q2 38 14 63.5t29.5 41t39 22t41.5 6.5q23 0 42 -5t35.5 -10.5t31 -10.5t29.5 -5q17 0 23 9.5 t8 22.5z" />
<glyph unicode="&#x12a;" horiz-adv-x="364" d="M41 0zM41 0l111 700h198l-111 -700h-198zM431 883l-17 -101h-301l16 101h302z" />
<glyph unicode="&#x12b;" horiz-adv-x="303" d="M16 0zM95 502h190l-80 -502h-189zM369 685l-17 -101h-301l16 101h302z" />
<glyph unicode="&#x12c;" horiz-adv-x="364" d="M41 0zM41 0l111 700h198l-111 -700h-198zM351 908h111q-6 -42 -22 -70.5t-41.5 -46t-60.5 -24.5t-78 -7t-76 7t-54 24.5t-29.5 46t-2.5 70.5h109q-5 -35 10 -47t52 -12t56.5 12t25.5 47z" />
<glyph unicode="&#x12d;" horiz-adv-x="303" d="M16 0zM95 502h190l-80 -502h-189zM289 710h111q-6 -42 -22 -70.5t-41.5 -46t-60.5 -24.5t-78 -7t-76 7t-54 24.5t-29.5 46t-2.5 70.5h109q-5 -35 10 -47t52 -12t56.5 12t25.5 47z" />
<glyph unicode="&#x12e;" horiz-adv-x="364" d="M107 -238q-26 0 -51.5 6t-45 19.5t-31.5 36t-12 55.5q0 47 22 82t54 55l109 684h197l-111 -700h-66q-49 -4 -73.5 -31t-24.5 -56t17.5 -39t40.5 -10q36 0 69 17l15 -90q-49 -29 -109 -29z" />
<glyph unicode="&#x12f;" horiz-adv-x="303" d="M200 553q-94 0 -94 77q0 58 32.5 84.5t85.5 26.5q44 0 68.5 -18t24.5 -60q0 -55 -30.5 -82.5t-86.5 -27.5zM50 -238q-26 0 -51.5 6t-45 19.5t-31.5 36t-12 55.5q0 59 32.5 100t79.5 61l72 462h191l-79 -502h-91q-49 -4 -73 -31t-24 -56t17 -39t40 -10q36 0 69 17l15 -90 q-49 -29 -109 -29z" />
<glyph unicode="&#x130;" horiz-adv-x="364" d="M41 0zM41 0l111 700h198l-111 -700h-198zM261 763q-89 0 -89 69q0 53 30.5 76.5t79.5 23.5q43 0 66 -17t23 -54q0 -51 -30 -74.5t-80 -23.5z" />
<glyph unicode="&#x131;" horiz-adv-x="303" d="M95 502h190l-80 -502h-189z" />
<glyph unicode="&#x132;" horiz-adv-x="918" d="M41 0zM41 0l111 700h198l-111 -700h-198zM330 54l97 144q21 -22 50.5 -34t59.5 -12q45 0 76 26.5t41 89.5l69 432h197l-69 -436q-12 -77 -41 -130t-71 -86t-95 -48t-114 -15q-56 0 -107.5 16.5t-92.5 52.5z" />
<glyph unicode="&#x133;" horiz-adv-x="607" d="M16 0zM200 553q-94 0 -94 77q0 58 32.5 84.5t85.5 26.5q45 0 69 -19t24 -58q0 -58 -31.5 -84.5t-85.5 -26.5zM95 502h190l-80 -502h-189zM504 553q-95 0 -95 77q0 58 32.5 84.5t85.5 26.5q45 0 69.5 -19t24.5 -58q0 -58 -31.5 -84.5t-85.5 -26.5zM317 -13l82 515h189 l-83 -524q-16 -102 -79 -151.5t-154 -49.5q-29 0 -60.5 6t-56.5 20l44 122q19 -11 47 -11q31 0 48 16.5t23 56.5z" />
<glyph unicode="&#x134;" horiz-adv-x="555" d="M0 0zM471 820l-65 -52h-143l1 4l144 137h152l100 -137l-1 -4h-140zM-34 54l97 144q21 -22 50.5 -34t59.5 -12q45 0 76 26.5t41 89.5l69 432h197l-69 -436q-12 -77 -41 -130t-71 -86t-95 -48t-114 -15q-56 0 -107.5 16.5t-92.5 52.5z" />
<glyph unicode="&#x135;" horiz-adv-x="303" d="M0 0zM13 -13l82 515h189l-83 -524q-16 -102 -79 -151.5t-154 -49.5q-29 0 -60.5 6t-56.5 20l44 122q19 -11 47 -11q31 0 48 16.5t23 56.5zM205 622l-65 -52h-143l1 4l144 137h152l100 -137l-1 -4h-140z" />
<glyph unicode="&#x136;" horiz-adv-x="753" d="M41 0zM246 -351l-21 66q31 8 56.5 25.5t36.5 43.5q-39 1 -60.5 18.5t-21.5 49.5q0 49 29.5 73.5t77.5 24.5q41 0 64 -21t23 -63t-15 -79.5t-40.5 -66t-58.5 -47.5t-70 -24zM41 0l111 700h198l-48 -296l272 296h234l-302 -311l184 -389h-238l-106 243l-81 -79l-26 -164 h-198z" />
<glyph unicode="&#x137;" horiz-adv-x="603" d="M16 0zM172 -355l-21 66q31 8 56.5 25.5t36.5 43.5q-39 1 -60.5 18.5t-21.5 49.5q0 49 29.5 73.5t77.5 24.5q41 0 64 -21t23 -63t-15 -79.5t-40.5 -66t-58.5 -47.5t-70 -24zM316 700l-71 -411l188 213h201l-212 -221l136 -281h-206l-72 159l-63 -62l-15 -97h-186l110 700 h190z" />
<glyph unicode="&#x138;" horiz-adv-x="613" d="M287 502l-36 -210l188 210h201l-213 -221l137 -281h-207l-74 156l-59 -59l-16 -97h-187l79 502h187z" />
<glyph unicode="&#x139;" horiz-adv-x="645" d="M41 0zM240 910h195l-1 -7l-154 -134h-146l1 5zM265 166h334l-27 -166h-531l111 700h197z" />
<glyph unicode="&#x13a;" horiz-adv-x="319" d="M25 0zM249 910h195l-1 -7l-154 -134h-146l1 5zM168 0q-81 0 -112 38.5t-19 116.5l86 545h190l-83 -526q-3 -21 3 -30t21 -9h32l-21 -135h-97z" />
<glyph unicode="&#x13b;" horiz-adv-x="645" d="M41 0zM236 -351l-21 66q31 8 56.5 25.5t36.5 43.5q-39 1 -60.5 18.5t-21.5 49.5q0 49 29.5 73.5t77.5 24.5q41 0 64 -21t23 -63t-15 -79.5t-40.5 -66t-58.5 -47.5t-70 -24zM265 166h334l-27 -166h-531l111 700h197z" />
<glyph unicode="&#x13c;" horiz-adv-x="320" d="M8 0zM29 -351l-21 66q31 8 56.5 25.5t36.5 43.5q-39 1 -60.5 18.5t-21.5 49.5q0 49 29.5 73.5t77.5 24.5q41 0 64 -21t23 -63t-15 -79.5t-40.5 -66t-58.5 -47.5t-70 -24zM169 0q-81 0 -112 38.5t-19 116.5l86 545h190l-83 -526q-3 -21 3 -30t21 -9h32l-21 -135h-97z" />
<glyph unicode="&#x13d;" horiz-adv-x="645" d="M41 0zM549 421h-121l51 279h148zM265 166h334l-27 -166h-531l111 700h197z" />
<glyph unicode="&#x13e;" horiz-adv-x="468" d="M25 0zM453 421h-121l51 279h148zM168 0q-81 0 -112 38.5t-19 116.5l86 545h190l-83 -526q-3 -21 3 -30t21 -9h32l-21 -135h-97z" />
<glyph unicode="&#x13f;" horiz-adv-x="638" d="M41 0zM265 166h334l-27 -166h-531l111 700h197zM496 277q-89 0 -89 69q0 53 30.5 76.5t79.5 23.5q43 0 66 -17t23 -54q0 -51 -30 -74.5t-80 -23.5z" />
<glyph unicode="&#x140;" horiz-adv-x="475" d="M25 0zM168 0q-81 0 -112 38.5t-19 116.5l86 545h190l-83 -526q-3 -21 3 -30t21 -9h32l-21 -135h-97zM382 219q-89 0 -89 69q0 53 30.5 76.5t79.5 23.5q43 0 66 -17t23 -54q0 -51 -30 -74.5t-80 -23.5z" />
<glyph unicode="&#x141;" horiz-adv-x="651" d="M279 166h333l-26 -166h-532l31 201l-83 -42l22 151l85 41l56 349h198l-40 -252l169 80l-24 -151l-169 -80z" />
<glyph unicode="&#x142;" horiz-adv-x="333" d="M283 0h-97q-81 0 -112 38.5t-19 116.5l8 50l-79 -50l24 151l79 50l54 344h190l-36 -227l82 52l-24 -151l-82 -52l-23 -148q-3 -21 3 -30t21 -9h32z" />
<glyph unicode="&#x143;" horiz-adv-x="806" d="M41 0zM495 910h195l-1 -7l-154 -134h-146l1 5zM514 0l-232 384l-55 -384h-186l111 700h146l246 -416l61 416h186l-111 -700h-166z" />
<glyph unicode="&#x144;" horiz-adv-x="641" d="M16 0zM388 711h195l-1 -7l-154 -134h-146l1 5zM16 0l78 502h155l2 -86q34 48 83 74t107 26q42 0 72 -11.5t49.5 -32t29 -49t9.5 -62.5q0 -11 -1 -23t-3 -23l-50 -315h-189l39 249q3 22 3 39q0 32 -14.5 45.5t-43.5 13.5q-35 0 -63 -25.5t-36 -77.5l-38 -244h-189z" />
<glyph unicode="&#x145;" horiz-adv-x="806" d="M41 0zM262 -352l-21 66q31 8 56.5 25.5t36.5 43.5q-39 1 -60.5 18.5t-21.5 49.5q0 49 29.5 73.5t77.5 24.5q41 0 64 -21t23 -63t-15 -79.5t-40.5 -66t-58.5 -47.5t-70 -24zM514 0l-232 384l-55 -384h-186l111 700h146l246 -416l61 416h186l-111 -700h-166z" />
<glyph unicode="&#x146;" horiz-adv-x="641" d="M16 0zM177 -351l-21 66q31 8 56.5 25.5t36.5 43.5q-39 1 -60.5 18.5t-21.5 49.5q0 49 29.5 73.5t77.5 24.5q41 0 64 -21t23 -63t-15 -79.5t-40.5 -66t-58.5 -47.5t-70 -24zM16 0l78 502h155l2 -86q34 48 83 74t107 26q42 0 72 -11.5t49.5 -32t29 -49t9.5 -62.5 q0 -11 -1 -23t-3 -23l-50 -315h-189l39 249q3 22 3 39q0 32 -14.5 45.5t-43.5 13.5q-35 0 -63 -25.5t-36 -77.5l-38 -244h-189z" />
<glyph unicode="&#x147;" horiz-adv-x="806" d="M41 0zM396 769l-100 138l1 3h141l47 -52l65 52h143l-1 -3l-144 -138h-152zM514 0l-232 384l-55 -384h-186l111 700h146l246 -416l61 416h186l-111 -700h-166z" />
<glyph unicode="&#x148;" horiz-adv-x="641" d="M16 0zM289 570l-100 138l1 3h141l47 -52l65 52h143l-1 -3l-144 -138h-152zM16 0l78 502h155l2 -86q34 48 83 74t107 26q42 0 72 -11.5t49.5 -32t29 -49t9.5 -62.5q0 -11 -1 -23t-3 -23l-50 -315h-189l39 249q3 22 3 39q0 32 -14.5 45.5t-43.5 13.5q-35 0 -63 -25.5 t-36 -77.5l-38 -244h-189z" />
<glyph unicode="&#x14a;" horiz-adv-x="806" d="M491 -14l6 39l-214 358l-56 -383h-186l111 700h146l246 -416l61 416h187l-114 -723q-8 -51 -28.5 -89t-51 -62.5t-70 -37t-85.5 -12.5q-28 0 -59.5 6t-56.5 20l45 122q11 -5 22 -8t25 -3q32 0 49 16.5t23 56.5z" />
<glyph unicode="&#x14b;" horiz-adv-x="649" d="M355 -13l41 262q4 20 4 39q0 32 -14.5 45.5t-43.5 13.5q-35 0 -63 -25.5t-36 -77.5l-38 -244h-190l79 502h155l2 -85q34 48 83.5 73.5t106.5 25.5q83 0 121.5 -43.5t38.5 -110.5q0 -12 -1 -24t-3 -23l-54 -338q-8 -51 -28.5 -88.5t-51 -62.5t-69.5 -37t-84 -12 q-28 0 -60 6t-57 20l44 122q19 -11 47 -11q31 0 47.5 16.5t23.5 56.5z" />
<glyph unicode="&#x14c;" horiz-adv-x="776" d="M46 0zM632 883l-17 -101h-301l16 101h302zM52 351q23 183 119 273.5t274 90.5q160 0 232.5 -70t72.5 -207q0 -42 -6 -88q-23 -183 -119.5 -274t-273.5 -91q-159 0 -232 70.5t-73 208.5q0 40 6 87zM548 422q0 69 -30.5 98.5t-89.5 29.5q-36 0 -65 -10.5t-51 -34t-37 -62 t-24 -94.5q-3 -20 -5 -38t-2 -34q0 -69 30.5 -98.5t89.5 -29.5q36 0 65 10.5t51 34.5t37.5 62.5t24.5 94.5q6 40 6 71z" />
<glyph unicode="&#x14d;" horiz-adv-x="605" d="M30 0zM511 685l-17 -101h-301l16 101h302zM34 251q8 68 33 118t63.5 82.5t90.5 48.5t114 16q121 0 180 -50.5t59 -157.5q0 -13 -1 -27.5t-3 -29.5q-17 -132 -93.5 -199t-208.5 -67q-238 0 -238 209q0 14 1 28t3 29zM391 250q4 23 4 45q0 41 -18 59.5t-57 18.5 q-48 0 -73 -29.5t-35 -93.5q-4 -23 -4 -45q0 -42 18 -61t56 -19q46 0 72 29.5t37 95.5z" />
<glyph unicode="&#x14e;" horiz-adv-x="776" d="M46 0zM52 351q23 183 119 273.5t274 90.5q160 0 232.5 -70t72.5 -207q0 -42 -6 -88q-23 -183 -119.5 -274t-273.5 -91q-159 0 -232 70.5t-73 208.5q0 40 6 87zM548 422q0 69 -30.5 98.5t-89.5 29.5q-36 0 -65 -10.5t-51 -34t-37 -62t-24 -94.5q-3 -20 -5 -38t-2 -34 q0 -69 30.5 -98.5t89.5 -29.5q36 0 65 10.5t51 34.5t37.5 62.5t24.5 94.5q6 40 6 71zM551 908h111q-6 -42 -22 -70.5t-41.5 -46t-60.5 -24.5t-78 -7t-76 7t-54 24.5t-29.5 46t-2.5 70.5h109q-5 -35 10 -47t52 -12t56.5 12t25.5 47z" />
<glyph unicode="&#x14f;" horiz-adv-x="605" d="M30 0zM34 251q8 68 33 118t63.5 82.5t90.5 48.5t114 16q121 0 180 -50.5t59 -157.5q0 -13 -1 -27.5t-3 -29.5q-17 -132 -93.5 -199t-208.5 -67q-238 0 -238 209q0 14 1 28t3 29zM391 250q4 23 4 45q0 41 -18 59.5t-57 18.5q-48 0 -73 -29.5t-35 -93.5q-4 -23 -4 -45 q0 -42 18 -61t56 -19q46 0 72 29.5t37 95.5zM431 710h111q-6 -42 -22 -70.5t-41.5 -46t-60.5 -24.5t-78 -7t-76 7t-54 24.5t-29.5 46t-2.5 70.5h109q-5 -35 10 -47t52 -12t56.5 12t25.5 47z" />
<glyph unicode="&#x150;" horiz-adv-x="776" d="M46 0zM585 909h188l-1 -7l-153 -134h-131v5zM377 909h174l-1 -7l-140 -134h-125l1 5zM52 351q23 183 119 273.5t274 90.5q160 0 232.5 -70t72.5 -207q0 -42 -6 -88q-23 -183 -119.5 -274t-273.5 -91q-159 0 -232 70.5t-73 208.5q0 40 6 87zM548 422q0 69 -30.5 98.5 t-89.5 29.5q-36 0 -65 -10.5t-51 -34t-37 -62t-24 -94.5q-3 -20 -5 -38t-2 -34q0 -69 30.5 -98.5t89.5 -29.5q36 0 65 10.5t51 34.5t37.5 62.5t24.5 94.5q6 40 6 71z" />
<glyph unicode="&#x151;" horiz-adv-x="604" d="M30 0zM465 711h188l-1 -7l-153 -134h-131v5zM257 711h174l-1 -7l-140 -134h-125l1 5zM34 251q8 68 33 118t63.5 82.5t90.5 48.5t114 16q121 0 180 -50.5t59 -157.5q0 -13 -1 -27.5t-3 -29.5q-17 -132 -93.5 -199t-208.5 -67q-238 0 -238 209q0 14 1 28t3 29zM391 250 q4 23 4 45q0 41 -18 59.5t-57 18.5q-48 0 -73 -29.5t-35 -93.5q-4 -23 -4 -45q0 -42 18 -61t56 -19q46 0 72 29.5t37 95.5z" />
<glyph unicode="&#x152;" horiz-adv-x="1073" d="M429 700h657l-25 -155h-347l-18 -113h298l-25 -157h-298l-19 -119h357l-25 -156h-645q-146 0 -219.5 66t-73.5 203q0 37 6 79q22 172 114 262t263 90zM242 282q0 -122 105 -122h113l60 380h-100q-69 0 -112 -43t-60 -148q-2 -17 -4 -34.5t-2 -32.5z" />
<glyph unicode="&#x153;" horiz-adv-x="937" d="M629 -15q-56 0 -100 14.5t-74 44.5q-71 -59 -187 -59q-120 0 -179 53t-59 157q0 26 3 56q17 134 96 199.5t206 65.5q119 0 175 -60q37 29 85 44.5t107 15.5q54 0 93.5 -16t64.5 -43.5t37 -65.5t12 -83q0 -51 -14 -109h-322q0 -86 88 -86q37 0 64 11.5t47 37.5l99 -72 q-40 -52 -95.5 -78.5t-146.5 -26.5zM683 384q-35 0 -60 -20t-36 -62h154q0 4 0.5 7.5t0.5 7.5q0 32 -13.5 49.5t-45.5 17.5zM391 249q3 25 3 45q0 80 -74 80q-48 0 -73.5 -31t-35.5 -94q-2 -12 -3 -22.5t-1 -20.5q0 -81 74 -81q92 0 110 124z" />
<glyph unicode="&#x154;" horiz-adv-x="716" d="M41 0zM468 910h195l-1 -7l-154 -134h-146l1 5zM453 536h-132l-26 -165h129q40 0 67 27t27 76q0 27 -15 44.5t-50 17.5zM377 213h-107l-33 -213h-196l111 700h358q104 0 155 -53.5t51 -141.5q0 -95 -38 -159.5t-104 -96.5l71 -249h-216z" />
<glyph unicode="&#x155;" horiz-adv-x="420" d="M15 0zM315 711h195l-1 -7l-154 -134h-146l1 5zM15 0l79 502h156l2 -97q33 53 81.5 83t105.5 30l-27 -184q-78 5 -122.5 -38.5t-56.5 -116.5l-28 -179h-190z" />
<glyph unicode="&#x156;" horiz-adv-x="716" d="M41 0zM223 -351l-21 66q31 8 56.5 25.5t36.5 43.5q-39 1 -60.5 18.5t-21.5 49.5q0 49 29.5 73.5t77.5 24.5q41 0 64 -21t23 -63t-15 -79.5t-40.5 -66t-58.5 -47.5t-70 -24zM453 536h-132l-26 -165h129q40 0 67 27t27 76q0 27 -15 44.5t-50 17.5zM377 213h-107l-33 -213 h-196l111 700h358q104 0 155 -53.5t51 -141.5q0 -95 -38 -159.5t-104 -96.5l71 -249h-216z" />
<glyph unicode="&#x157;" horiz-adv-x="420" d="M0 0zM6 -351l-21 66q31 8 56.5 25.5t36.5 43.5q-39 1 -60.5 18.5t-21.5 49.5q0 49 29.5 73.5t77.5 24.5q41 0 64 -21t23 -63t-15 -79.5t-40.5 -66t-58.5 -47.5t-70 -24zM16 0l79 502h156l2 -97q33 53 81.5 83t105.5 30l-27 -184q-78 5 -122.5 -38.5t-56.5 -116.5 l-28 -179h-190z" />
<glyph unicode="&#x158;" horiz-adv-x="716" d="M41 0zM369 769l-100 138l1 3h141l47 -52l65 52h143l-1 -3l-144 -138h-152zM453 536h-132l-26 -165h129q40 0 67 27t27 76q0 27 -15 44.5t-50 17.5zM377 213h-107l-33 -213h-196l111 700h358q104 0 155 -53.5t51 -141.5q0 -95 -38 -159.5t-104 -96.5l71 -249h-216z" />
<glyph unicode="&#x159;" horiz-adv-x="419" d="M15 0zM222 570l-100 138l1 3h141l47 -52l65 52h143l-1 -3l-144 -138h-152zM15 0l79 502h156l2 -97q33 53 81.5 83t105.5 30l-27 -184q-78 5 -122.5 -38.5t-56.5 -116.5l-28 -179h-190z" />
<glyph unicode="&#x15a;" horiz-adv-x="624" d="M0 0zM407 910h195l-1 -7l-154 -134h-146l1 5zM621 573l-140 -80q-21 35 -47 53.5t-77 18.5q-54 0 -78.5 -17.5t-24.5 -44.5q0 -21 17 -38t67 -31l51 -14q53 -15 89 -34t58.5 -43t32.5 -53t10 -64q0 -55 -22 -99.5t-63 -76t-99.5 -48.5t-131.5 -17q-97 0 -164.5 34 t-102.5 110l141 84q20 -46 55 -65.5t92 -19.5q55 0 79.5 19.5t24.5 45.5q0 23 -16 36t-53 24l-53 16q-55 16 -91.5 37.5t-58.5 47.5t-31.5 56t-9.5 64q0 51 19 95t56.5 76.5t93 51t127.5 18.5q42 0 80.5 -7.5t71 -24t57.5 -43.5t41 -67z" />
<glyph unicode="&#x15b;" horiz-adv-x="508" d="M0 0zM310 711h195l-1 -7l-154 -134h-146l1 5zM222 104q68 0 68 34q0 13 -10.5 19t-39.5 14l-38 10q-29 7 -54.5 20t-45 32t-31 45t-11.5 60q0 36 14 68t42.5 56.5t73 39t104.5 14.5q74 0 123 -23t81 -66l-99 -91q-19 24 -48 39t-68 15q-34 0 -48 -8.5t-14 -23.5 q0 -14 10 -21t36 -15l50 -14q64 -18 103 -52t39 -88q0 -35 -13 -68t-42 -58.5t-75.5 -41t-112.5 -15.5q-83 0 -139 26t-85 75l97 82q21 -32 56.5 -48t76.5 -16z" />
<glyph unicode="&#x15c;" horiz-adv-x="624" d="M0 0zM392 820l-65 -52h-143l1 4l144 137h152l100 -137l-1 -4h-140zM621 573l-140 -80q-21 35 -47 53.5t-77 18.5q-54 0 -78.5 -17.5t-24.5 -44.5q0 -21 17 -38t67 -31l51 -14q53 -15 89 -34t58.5 -43t32.5 -53t10 -64q0 -55 -22 -99.5t-63 -76t-99.5 -48.5t-131.5 -17 q-97 0 -164.5 34t-102.5 110l141 84q20 -46 55 -65.5t92 -19.5q55 0 79.5 19.5t24.5 45.5q0 23 -16 36t-53 24l-53 16q-55 16 -91.5 37.5t-58.5 47.5t-31.5 56t-9.5 64q0 51 19 95t56.5 76.5t93 51t127.5 18.5q42 0 80.5 -7.5t71 -24t57.5 -43.5t41 -67z" />
<glyph unicode="&#x15d;" horiz-adv-x="508" d="M0 0zM296 622l-65 -52h-143l1 4l144 137h152l100 -137l-1 -4h-140zM222 104q68 0 68 34q0 13 -10.5 19t-39.5 14l-38 10q-29 7 -54.5 20t-45 32t-31 45t-11.5 60q0 36 14 68t42.5 56.5t73 39t104.5 14.5q74 0 123 -23t81 -66l-99 -91q-19 24 -48 39t-68 15 q-34 0 -48 -8.5t-14 -23.5q0 -14 10 -21t36 -15l50 -14q64 -18 103 -52t39 -88q0 -35 -13 -68t-42 -58.5t-75.5 -41t-112.5 -15.5q-83 0 -139 26t-85 75l97 82q21 -32 56.5 -48t76.5 -16z" />
<glyph unicode="&#x15e;" horiz-adv-x="624" d="M219 -257q-48 0 -86 18.5t-56 56.5l68 61q13 -23 31 -35.5t48 -12.5q20 0 35 8.5t15 27.5q0 12 -6.5 19t-16 10t-21.5 3t-23 -1l-25 13l39 76q-80 7 -136.5 41t-88.5 101l141 84q20 -46 55 -65.5t92 -19.5q55 0 79.5 19.5t24.5 45.5q0 23 -16 36t-53 24l-53 16 q-55 16 -91.5 37.5t-58.5 47.5t-31.5 56t-9.5 64q0 51 19 95t56.5 76.5t93 51t127.5 18.5q42 0 80.5 -7.5t71 -24t57.5 -43.5t41 -67l-140 -80q-21 35 -47 53.5t-77 18.5q-54 0 -78.5 -17.5t-24.5 -44.5q0 -21 17 -38t67 -31l51 -14q53 -15 89 -34t58.5 -43t32.5 -53t10 -64 q0 -50 -18.5 -92t-53.5 -72.5t-85 -50t-113 -24.5l-19 -32q37 -5 64.5 -27.5t27.5 -65.5q0 -29 -12.5 -51.5t-34.5 -37.5t-52 -22.5t-64 -7.5z" />
<glyph unicode="&#x15f;" horiz-adv-x="508" d="M153 -258q-48 0 -86 18.5t-56 56.5l68 61q13 -23 31 -35.5t48 -12.5q20 0 35 8.5t15 27.5q0 12 -6.5 19t-16 10t-21.5 3t-23 -1l-25 13l40 79q-117 16 -164 97l97 82q21 -32 56.5 -48t76.5 -16q68 0 68 34q0 13 -10.5 19t-39.5 14l-38 10q-29 7 -54.5 20t-45 32t-31 45 t-11.5 60q0 36 14 68t42.5 56.5t73 39t104.5 14.5q74 0 123 -23t81 -66l-99 -91q-19 24 -48 39t-68 15q-34 0 -48 -8.5t-14 -23.5q0 -14 10 -21t36 -15l50 -14q64 -18 103 -52t39 -88q0 -33 -11.5 -64.5t-37.5 -56.5t-67 -41.5t-100 -19.5l-19 -32q37 -5 64.5 -27.5 t27.5 -65.5q0 -29 -12.5 -51.5t-34.5 -37.5t-52 -22.5t-64 -7.5z" />
<glyph unicode="&#x160;" horiz-adv-x="624" d="M0 0zM308 769l-100 138l1 3h141l47 -52l65 52h143l-1 -3l-144 -138h-152zM621 573l-140 -80q-21 35 -47 53.5t-77 18.5q-54 0 -78.5 -17.5t-24.5 -44.5q0 -21 17 -38t67 -31l51 -14q53 -15 89 -34t58.5 -43t32.5 -53t10 -64q0 -55 -22 -99.5t-63 -76t-99.5 -48.5 t-131.5 -17q-97 0 -164.5 34t-102.5 110l141 84q20 -46 55 -65.5t92 -19.5q55 0 79.5 19.5t24.5 45.5q0 23 -16 36t-53 24l-53 16q-55 16 -91.5 37.5t-58.5 47.5t-31.5 56t-9.5 64q0 51 19 95t56.5 76.5t93 51t127.5 18.5q42 0 80.5 -7.5t71 -24t57.5 -43.5t41 -67z" />
<glyph unicode="&#x161;" horiz-adv-x="508" d="M0 0zM211 570l-100 138l1 3h141l47 -52l65 52h143l-1 -3l-144 -138h-152zM222 104q68 0 68 34q0 13 -10.5 19t-39.5 14l-38 10q-29 7 -54.5 20t-45 32t-31 45t-11.5 60q0 36 14 68t42.5 56.5t73 39t104.5 14.5q74 0 123 -23t81 -66l-99 -91q-19 24 -48 39t-68 15 q-34 0 -48 -8.5t-14 -23.5q0 -14 10 -21t36 -15l50 -14q64 -18 103 -52t39 -88q0 -35 -13 -68t-42 -58.5t-75.5 -41t-112.5 -15.5q-83 0 -139 26t-85 75l97 82q21 -32 56.5 -48t76.5 -16z" />
<glyph unicode="&#x162;" horiz-adv-x="634" d="M56 0zM172 -351l-21 66q31 8 56.5 25.5t36.5 43.5q-39 1 -60.5 18.5t-21.5 49.5q0 49 29.5 73.5t77.5 24.5q41 0 64 -21t23 -63t-15 -79.5t-40.5 -66t-58.5 -47.5t-70 -24zM83 700h604l-27 -170h-203l-84 -530h-197l84 530h-204z" />
<glyph unicode="&#x163;" horiz-adv-x="421" d="M26 0zM132 -351l-21 66q31 8 56.5 25.5t36.5 43.5q-39 1 -60.5 18.5t-21.5 49.5q0 49 29.5 73.5t77.5 24.5q41 0 64 -21t23 -63t-15 -79.5t-40.5 -66t-58.5 -47.5t-70 -24zM430 502l-22 -140h-127l-27 -169q-6 -44 10 -56.5t44 -12.5q15 0 30.5 3t30.5 11l10 -117 q-31 -17 -66.5 -26t-75.5 -9q-36 0 -68 7t-56 24t-37.5 45.5t-13.5 70.5q0 11 1.5 25t3.5 27l28 177h-69l22 140h70l22 140h185l-22 -140h127z" />
<glyph unicode="&#x164;" horiz-adv-x="634" d="M56 0zM316 769l-100 138l1 3h141l47 -52l65 52h143l-1 -3l-144 -138h-152zM83 700h604l-27 -170h-203l-84 -530h-197l84 530h-204z" />
<glyph unicode="&#x165;" horiz-adv-x="436" d="M476 554h-111l38 197h137zM430 502l-22 -140h-127l-27 -169q-6 -44 10 -56.5t44 -12.5q15 0 30.5 3t30.5 11l10 -117q-31 -17 -66.5 -26t-75.5 -9q-36 0 -68 7t-56 24t-37.5 45.5t-13.5 70.5q0 11 1.5 25t3.5 27l28 177h-69l22 140h70l22 140h185l-22 -140h127z" />
<glyph unicode="&#x166;" horiz-adv-x="642" d="M87 402h153l20 128h-203l27 170h604l-27 -170h-203l-20 -128h154l-22 -140h-154l-42 -262h-197l41 262h-153z" />
<glyph unicode="&#x167;" horiz-adv-x="423" d="M20 311h67l8 51h-69l22 140h70l22 140h185l-22 -140h127l-22 -140h-127l-8 -51h128l-14 -96h-130l-3 -22q-6 -44 10 -56.5t44 -12.5q15 0 30.5 3t30.5 11l10 -117q-31 -17 -66.5 -26t-75.5 -9q-36 0 -68 7t-56 24t-37.5 45.5t-13.5 70.5q0 11 1.5 25t3.5 27l4 30h-65z " />
<glyph unicode="&#x168;" horiz-adv-x="767" d="M66 0zM505 280l66 420h198l-65 -410q-13 -83 -42 -141t-73 -94.5t-103.5 -53t-133.5 -16.5q-68 0 -121.5 13t-90 41t-55.5 71.5t-19 104.5q0 19 1.5 36.5t5.5 38.5l65 410h197l-65 -420q-3 -18 -3 -34q0 -45 24.5 -70t75.5 -25q117 0 138 129zM565 906h105 q-2 -38 -14 -63.5t-30 -41t-39 -22t-41 -6.5q-23 0 -42 5t-34.5 10.5t-30 10.5t-28.5 5q-17 0 -23.5 -10.5t-8.5 -21.5h-107q2 38 14 63.5t29.5 41t39 22t41.5 6.5q23 0 42 -5t35.5 -10.5t31 -10.5t29.5 -5q17 0 23 9.5t8 22.5z" />
<glyph unicode="&#x169;" horiz-adv-x="638" d="M36 0zM204 -15q-44 0 -76 11.5t-52.5 32t-30 48t-9.5 60.5q0 11 0.5 19.5t2.5 19.5l52 326h190l-41 -260q-3 -21 -3 -37q0 -61 57 -61q32 0 59.5 26t36.5 82l39 250h190l-79 -502h-155l-1 76q-33 -44 -79.5 -67.5t-100.5 -23.5zM469 708h105q-2 -38 -14 -63.5t-30 -41 t-39 -22t-41 -6.5q-23 0 -42 5t-34.5 10.5t-30 10.5t-28.5 5q-17 0 -23.5 -10.5t-8.5 -21.5h-107q2 38 14 63.5t29.5 41t39 22t41.5 6.5q23 0 42 -5t35.5 -10.5t31 -10.5t29.5 -5q17 0 23 9.5t8 22.5z" />
<glyph unicode="&#x16a;" horiz-adv-x="767" d="M66 0zM505 280l66 420h198l-65 -410q-13 -83 -42 -141t-73 -94.5t-103.5 -53t-133.5 -16.5q-68 0 -121.5 13t-90 41t-55.5 71.5t-19 104.5q0 19 1.5 36.5t5.5 38.5l65 410h197l-65 -420q-3 -18 -3 -34q0 -45 24.5 -70t75.5 -25q117 0 138 129zM633 883l-17 -101h-301 l16 101h302z" />
<glyph unicode="&#x16b;" horiz-adv-x="638" d="M36 0zM204 -15q-44 0 -76 11.5t-52.5 32t-30 48t-9.5 60.5q0 11 0.5 19.5t2.5 19.5l52 326h190l-41 -260q-3 -21 -3 -37q0 -61 57 -61q32 0 59.5 26t36.5 82l39 250h190l-79 -502h-155l-1 76q-33 -44 -79.5 -67.5t-100.5 -23.5zM537 685l-17 -101h-301l16 101h302z" />
<glyph unicode="&#x16c;" horiz-adv-x="767" d="M66 0zM505 280l66 420h198l-65 -410q-13 -83 -42 -141t-73 -94.5t-103.5 -53t-133.5 -16.5q-68 0 -121.5 13t-90 41t-55.5 71.5t-19 104.5q0 19 1.5 36.5t5.5 38.5l65 410h197l-65 -420q-3 -18 -3 -34q0 -45 24.5 -70t75.5 -25q117 0 138 129zM553 908h111 q-6 -42 -22 -70.5t-41.5 -46t-60.5 -24.5t-78 -7t-76 7t-54 24.5t-29.5 46t-2.5 70.5h109q-5 -35 10 -47t52 -12t56.5 12t25.5 47z" />
<glyph unicode="&#x16d;" horiz-adv-x="638" d="M36 0zM204 -15q-44 0 -76 11.5t-52.5 32t-30 48t-9.5 60.5q0 11 0.5 19.5t2.5 19.5l52 326h190l-41 -260q-3 -21 -3 -37q0 -61 57 -61q32 0 59.5 26t36.5 82l39 250h190l-79 -502h-155l-1 76q-33 -44 -79.5 -67.5t-100.5 -23.5zM457 710h111q-6 -42 -22 -70.5t-41.5 -46 t-60.5 -24.5t-78 -7t-76 7t-54 24.5t-29.5 46t-2.5 70.5h109q-5 -35 10 -47t52 -12t56.5 12t25.5 47z" />
<glyph unicode="&#x16e;" horiz-adv-x="767" d="M66 0zM462 748q-45 0 -77.5 23t-32.5 71q0 29 10 52t28 38.5t42.5 24t52.5 8.5q51 0 80.5 -24.5t29.5 -68.5q0 -59 -37.5 -91.5t-95.5 -32.5zM480 898q-21 0 -35 -13t-14 -37q0 -17 9.5 -25.5t26.5 -8.5q20 0 34.5 13t14.5 38q0 16 -9.5 24.5t-26.5 8.5zM505 280l66 420 h198l-65 -410q-13 -83 -42 -141t-73 -94.5t-103.5 -53t-133.5 -16.5q-68 0 -121.5 13t-90 41t-55.5 71.5t-19 104.5q0 19 1.5 36.5t5.5 38.5l65 410h197l-65 -420q-3 -18 -3 -34q0 -45 24.5 -70t75.5 -25q117 0 138 129z" />
<glyph unicode="&#x16f;" horiz-adv-x="638" d="M36 0zM366 550q-45 0 -77.5 23t-32.5 71q0 29 10 52t28 38.5t42.5 24t52.5 8.5q51 0 80.5 -24.5t29.5 -68.5q0 -59 -37.5 -91.5t-95.5 -32.5zM384 700q-21 0 -35 -13t-14 -37q0 -17 9.5 -25.5t26.5 -8.5q20 0 34.5 13t14.5 38q0 16 -9.5 24.5t-26.5 8.5zM204 -15 q-44 0 -76 11.5t-52.5 32t-30 48t-9.5 60.5q0 11 0.5 19.5t2.5 19.5l52 326h190l-41 -260q-3 -21 -3 -37q0 -61 57 -61q32 0 59.5 26t36.5 82l39 250h190l-79 -502h-155l-1 76q-33 -44 -79.5 -67.5t-100.5 -23.5z" />
<glyph unicode="&#x170;" horiz-adv-x="767" d="M66 0zM505 280l66 420h198l-65 -410q-13 -83 -42 -141t-73 -94.5t-103.5 -53t-133.5 -16.5q-68 0 -121.5 13t-90 41t-55.5 71.5t-19 104.5q0 19 1.5 36.5t5.5 38.5l65 410h197l-65 -420q-3 -18 -3 -34q0 -45 24.5 -70t75.5 -25q117 0 138 129zM587 909h188l-1 -7 l-153 -134h-131v5zM379 909h174l-1 -7l-140 -134h-125l1 5z" />
<glyph unicode="&#x171;" horiz-adv-x="638" d="M36 0zM204 -15q-44 0 -76 11.5t-52.5 32t-30 48t-9.5 60.5q0 11 0.5 19.5t2.5 19.5l52 326h190l-41 -260q-3 -21 -3 -37q0 -61 57 -61q32 0 59.5 26t36.5 82l39 250h190l-79 -502h-155l-1 76q-33 -44 -79.5 -67.5t-100.5 -23.5zM491 711h188l-1 -7l-153 -134h-131v5z M283 711h174l-1 -7l-140 -134h-125l1 5z" />
<glyph unicode="&#x172;" horiz-adv-x="767" d="M505 281l65 419h199l-64 -409q-20 -127 -77 -196t-145 -94q-17 -5 -29.5 -15t-21 -22t-13 -24.5t-4.5 -24.5q0 -29 17 -40t40 -11q36 0 69 17l15 -90q-49 -29 -109 -29q-26 0 -51.5 6t-45 19.5t-31.5 36.5t-12 56q0 29 9 57t26 48q-132 2 -204 57t-72 173q0 35 7 76 l64 409h200l-66 -419q-3 -18 -3 -34q0 -45 24 -70t75 -25q117 0 138 129z" />
<glyph unicode="&#x173;" horiz-adv-x="638" d="M456 -238q-26 0 -51.5 6t-45 19.5t-31.5 36t-12 55.5q0 45 19.5 78.5t49.5 56.5v62q-34 -45 -80.5 -68t-100.5 -23q-44 0 -76 11.5t-52.5 32t-30 48t-9.5 60.5q0 19 3 39l52 326h191l-42 -259q-3 -23 -3 -38q0 -61 57 -61q32 0 59.5 26t36.5 82l39 250h190l-79 -502h-19 q-49 -4 -73 -31.5t-24 -55.5q0 -29 17 -39t40 -10q36 0 69 17l15 -90q-49 -29 -109 -29z" />
<glyph unicode="&#x174;" horiz-adv-x="979" d="M71 0zM572 820l-65 -52h-143l1 4l144 137h152l100 -137l-1 -4h-140zM472 699h168l36 -425l166 426h195l-302 -700h-194l-31 417l-169 -417h-191l-79 700h201l27 -423z" />
<glyph unicode="&#x175;" horiz-adv-x="802" d="M45 0zM456 622l-65 -52h-143l1 4l144 137h152l100 -137l-1 -4h-140zM369 501h142l38 -280l112 281h172l-231 -502h-163l-32 288l-123 -288h-164l-75 502h172l27 -282z" />
<glyph unicode="&#x176;" horiz-adv-x="686" d="M62 0zM238 251l-176 449h216l89 -274l174 274h212l-320 -455l-38 -245h-197zM425 820l-65 -52h-143l1 4l144 137h152l100 -137l-1 -4h-140z" />
<glyph unicode="&#x177;" horiz-adv-x="587" d="M0 0zM141 -29l15 31l-111 500h192l47 -313l135 313h199l-319 -594q-20 -37 -45 -62t-54 -40t-63 -21.5t-71 -6.5q-38 0 -64 5.5t-49 16.5l33 134q20 -10 37 -14t34 -4q56 0 84 55zM351 622l-65 -52h-143l1 4l144 137h152l100 -137l-1 -4h-140z" />
<glyph unicode="&#x178;" horiz-adv-x="686" d="M62 0zM238 251l-176 449h216l89 -274l174 274h212l-320 -455l-38 -245h-197zM530 764q-42 0 -62.5 16t-20.5 52q0 51 28 75t76 24q41 0 62.5 -16.5t21.5 -51.5q0 -52 -28.5 -75.5t-76.5 -23.5zM304 764q-42 0 -62.5 16.5t-20.5 52.5q0 51 28 74.5t76 23.5q83 0 83 -67 q0 -53 -28 -76.5t-76 -23.5z" />
<glyph unicode="&#x179;" horiz-adv-x="623" d="M0 0zM409 910h195l-1 -7l-154 -134h-146l1 5zM-19 0l20 120l391 423l-315 -4l26 161h556l-18 -118l-392 -425l335 4l-26 -161h-577z" />
<glyph unicode="&#x17a;" horiz-adv-x="516" d="M0 0zM328 711h195l-1 -7l-154 -134h-146l1 5zM-6 0l16 106l263 256h-218l22 140h441l-17 -112l-258 -251h227l-22 -139h-454z" />
<glyph unicode="&#x17b;" horiz-adv-x="623" d="M0 0zM-19 0l20 120l391 423l-315 -4l26 161h556l-18 -118l-392 -425l335 4l-26 -161h-577zM388 763q-89 0 -89 69q0 53 30.5 76.5t79.5 23.5q43 0 66 -17t23 -54q0 -51 -30 -74.5t-80 -23.5z" />
<glyph unicode="&#x17c;" horiz-adv-x="516" d="M0 0zM-6 0l16 106l263 256h-218l22 140h441l-17 -112l-258 -251h227l-22 -139h-454zM307 565q-89 0 -89 69q0 53 30.5 76.5t79.5 23.5q43 0 66 -17t23 -54q0 -51 -30 -74.5t-80 -23.5z" />
<glyph unicode="&#x17d;" horiz-adv-x="623" d="M0 0zM310 769l-100 138l1 3h141l47 -52l65 52h143l-1 -3l-144 -138h-152zM-19 0l20 120l391 423l-315 -4l26 161h556l-18 -118l-392 -425l335 4l-26 -161h-577z" />
<glyph unicode="&#x17e;" horiz-adv-x="516" d="M0 0zM230 570l-100 138l1 3h141l47 -52l65 52h143l-1 -3l-144 -138h-152zM-6 0l16 106l263 256h-218l22 140h441l-17 -112l-258 -251h227l-22 -139h-454z" />
<glyph unicode="&#x192;" horiz-adv-x="416" d="M28 -14l58 256h-73l30 139h74l10 39q24 106 85.5 156.5t152.5 50.5q16 0 34 -2t35.5 -5.5t32 -10t24.5 -15.5l-56 -119q-10 8 -23.5 11.5t-27.5 3.5q-60 0 -76 -71l-9 -38h121l-31 -139h-121l-60 -265q-23 -102 -86.5 -151t-150.5 -49q-28 0 -60.5 6t-53.5 20l51 122 q19 -11 46 -11q30 0 47.5 17t26.5 55z" />
<glyph unicode="&#x218;" horiz-adv-x="624" d="M0 0zM165 -351l-21 66q31 8 56.5 25.5t36.5 43.5q-39 1 -60.5 18.5t-21.5 49.5q0 49 29.5 73.5t77.5 24.5q41 0 64 -21t23 -63t-15 -79.5t-40.5 -66t-58.5 -47.5t-70 -24zM621 573l-140 -80q-21 35 -47 53.5t-77 18.5q-54 0 -78.5 -17.5t-24.5 -44.5q0 -21 17 -38t67 -31 l51 -14q53 -15 89 -34t58.5 -43t32.5 -53t10 -64q0 -55 -22 -99.5t-63 -76t-99.5 -48.5t-131.5 -17q-97 0 -164.5 34t-102.5 110l141 84q20 -46 55 -65.5t92 -19.5q55 0 79.5 19.5t24.5 45.5q0 23 -16 36t-53 24l-53 16q-55 16 -91.5 37.5t-58.5 47.5t-31.5 56t-9.5 64 q0 51 19 95t56.5 76.5t93 51t127.5 18.5q42 0 80.5 -7.5t71 -24t57.5 -43.5t41 -67z" />
<glyph unicode="&#x219;" horiz-adv-x="508" d="M0 0zM100 -351l-21 66q31 8 56.5 25.5t36.5 43.5q-39 1 -60.5 18.5t-21.5 49.5q0 49 29.5 73.5t77.5 24.5q41 0 64 -21t23 -63t-15 -79.5t-40.5 -66t-58.5 -47.5t-70 -24zM222 104q68 0 68 34q0 13 -10.5 19t-39.5 14l-38 10q-29 7 -54.5 20t-45 32t-31 45t-11.5 60 q0 36 14 68t42.5 56.5t73 39t104.5 14.5q74 0 123 -23t81 -66l-99 -91q-19 24 -48 39t-68 15q-34 0 -48 -8.5t-14 -23.5q0 -14 10 -21t36 -15l50 -14q64 -18 103 -52t39 -88q0 -35 -13 -68t-42 -58.5t-75.5 -41t-112.5 -15.5q-83 0 -139 26t-85 75l97 82q21 -32 56.5 -48 t76.5 -16z" />
<glyph unicode="&#x237;" horiz-adv-x="303" d="M13 -13l82 515h189l-83 -524q-16 -102 -79 -151.5t-154 -49.5q-29 0 -60.5 6t-56.5 20l44 122q19 -11 47 -11q31 0 48 16.5t23 56.5z" />
<glyph unicode="&#x2c6;" horiz-adv-x="600" d="M302 622l-65 -52h-143l1 4l144 137h152l100 -137l-1 -4h-140z" />
<glyph unicode="&#x2c7;" horiz-adv-x="600" d="M211 570l-100 138l1 3h141l47 -52l65 52h143l-1 -3l-144 -138h-152z" />
<glyph unicode="&#x2d8;" horiz-adv-x="600" d="M384 710h111q-6 -42 -22 -70.5t-41.5 -46t-60.5 -24.5t-78 -7t-76 7t-54 24.5t-29.5 46t-2.5 70.5h109q-5 -35 10 -47t52 -12t56.5 12t25.5 47z" />
<glyph unicode="&#x2d9;" horiz-adv-x="600" d="M289 565q-89 0 -89 69q0 53 30.5 76.5t79.5 23.5q43 0 66 -17t23 -54q0 -51 -30 -74.5t-80 -23.5z" />
<glyph unicode="&#x2da;" horiz-adv-x="600" d="M290 550q-45 0 -77.5 23t-32.5 71q0 29 10 52t28 38.5t42.5 24t52.5 8.5q51 0 80.5 -24.5t29.5 -68.5q0 -59 -37.5 -91.5t-95.5 -32.5zM308 700q-21 0 -35 -13t-14 -37q0 -17 9.5 -25.5t26.5 -8.5q20 0 34.5 13t14.5 38q0 16 -9.5 24.5t-26.5 8.5z" />
<glyph unicode="&#x2db;" horiz-adv-x="600" d="M310 -238q-26 0 -51.5 6t-45 19.5t-31.5 36t-12 55.5q0 42 17.5 76t46.5 57t66.5 35t77.5 9l-3 -56q-49 -4 -73 -31t-24 -56t17 -39t40 -10q36 0 69 17l15 -90q-49 -29 -109 -29z" />
<glyph unicode="&#x2dc;" horiz-adv-x="600" d="M399 708h105q-2 -38 -14 -63.5t-30 -41t-39 -22t-41 -6.5q-23 0 -42 5t-34.5 10.5t-30 10.5t-28.5 5q-17 0 -23.5 -10.5t-8.5 -21.5h-107q2 38 14 63.5t29.5 41t39 22t41.5 6.5q23 0 42 -5t35.5 -10.5t31 -10.5t29.5 -5q17 0 23 9.5t8 22.5z" />
<glyph unicode="&#x2dd;" horiz-adv-x="600" d="M417 711h188l-1 -7l-153 -134h-131v5zM209 711h174l-1 -7l-140 -134h-125l1 5z" />
<glyph unicode="&#x1e80;" horiz-adv-x="979" d="M71 0zM472 699h168l36 -425l166 426h195l-302 -700h-194l-31 417l-169 -417h-191l-79 700h201l27 -423zM498 768l-113 134l1 7h201l58 -136v-5h-147z" />
<glyph unicode="&#x1e81;" horiz-adv-x="802" d="M45 0zM369 501h142l38 -280l112 281h172l-231 -502h-163l-32 288l-123 -288h-164l-75 502h172l27 -282zM382 570l-113 134l1 7h201l58 -136v-5h-147z" />
<glyph unicode="&#x1e82;" horiz-adv-x="979" d="M71 0zM586 909h195l-1 -7l-154 -134h-146l1 5zM472 699h168l36 -425l166 426h195l-302 -700h-194l-31 417l-169 -417h-191l-79 700h201l27 -423z" />
<glyph unicode="&#x1e83;" horiz-adv-x="802" d="M45 0zM470 711h195l-1 -7l-154 -134h-146l1 5zM369 501h142l38 -280l112 281h172l-231 -502h-163l-32 288l-123 -288h-164l-75 502h172l27 -282z" />
<glyph unicode="&#x1e84;" horiz-adv-x="979" d="M71 0zM677 763q-42 0 -62.5 16t-20.5 52q0 51 28 75t76 24q41 0 62.5 -16.5t21.5 -51.5q0 -52 -28.5 -75.5t-76.5 -23.5zM451 763q-42 0 -62.5 16.5t-20.5 52.5q0 51 28 74.5t76 23.5q83 0 83 -67q0 -53 -28 -76.5t-76 -23.5zM472 699h168l36 -425l166 426h195l-302 -700 h-194l-31 417l-169 -417h-191l-79 700h201l27 -423z" />
<glyph unicode="&#x1e85;" horiz-adv-x="802" d="M45 0zM561 565q-42 0 -62.5 16t-20.5 52q0 51 28 75t76 24q41 0 62.5 -16.5t21.5 -51.5q0 -52 -28.5 -75.5t-76.5 -23.5zM335 565q-42 0 -62.5 16.5t-20.5 52.5q0 51 28 74.5t76 23.5q83 0 83 -67q0 -53 -28 -76.5t-76 -23.5zM369 501h142l38 -280l112 281h172l-231 -502 h-163l-32 288l-123 -288h-164l-75 502h172l27 -282z" />
<glyph unicode="&#x2000;" horiz-adv-x="482" />
<glyph unicode="&#x2001;" horiz-adv-x="965" />
<glyph unicode="&#x2002;" horiz-adv-x="500" />
<glyph unicode="&#x2003;" horiz-adv-x="1000" />
<glyph unicode="&#x2004;" horiz-adv-x="333" />
<glyph unicode="&#x2005;" horiz-adv-x="250" />
<glyph unicode="&#x2006;" horiz-adv-x="167" />
<glyph unicode="&#x2007;" />
<glyph unicode="&#x2008;" horiz-adv-x="265" />
<glyph unicode="&#x2009;" horiz-adv-x="200" />
<glyph unicode="&#x200a;" horiz-adv-x="100" />
<glyph unicode="&#x200b;" horiz-adv-x="0" />
<glyph unicode="&#x2010;" horiz-adv-x="497" d="M450 345l-23 -148h-394l23 148h394z" />
<glyph unicode="&#x2011;" horiz-adv-x="497" d="M450 345l-23 -148h-394l23 148h394z" />
<glyph unicode="&#x2012;" horiz-adv-x="587" d="M538 345l-23 -148h-481l23 148h481z" />
<glyph unicode="&#x2013;" horiz-adv-x="587" d="M538 345l-23 -148h-481l23 148h481z" />
<glyph unicode="&#x2014;" horiz-adv-x="785" d="M733 345l-24 -148h-676l24 148h676z" />
<glyph unicode="&#x2015;" horiz-adv-x="1080" d="M1024 345l-24 -148h-967l24 148h967z" />
<glyph unicode="&#x2018;" horiz-adv-x="256" d="M257 759l24 -74q-30 -8 -54.5 -26.5t-35.5 -44.5q32 -3 49.5 -21.5t17.5 -50.5q0 -53 -28.5 -78.5t-77.5 -25.5q-40 0 -62.5 20t-22.5 64q0 38 12 75.5t36 70t59.5 56.5t82.5 35z" />
<glyph unicode="&#x2019;" horiz-adv-x="256" d="M95 429l-24 73q30 8 54.5 26.5t35.5 44.5q-32 3 -49.5 21.5t-17.5 50.5q0 52 28.5 78t77.5 26q39 0 61.5 -20t22.5 -64q0 -38 -12 -75.5t-36 -70t-59.5 -56.5t-81.5 -34z" />
<glyph unicode="&#x201a;" horiz-adv-x="256" d="M10 -150l-24 72q30 9 54.5 27t35.5 44q-32 3 -49.5 21t-17.5 50q0 53 28.5 78.5t76.5 25.5q39 0 61.5 -20t22.5 -64q0 -38 -12 -75t-35.5 -69t-59 -56t-81.5 -34z" />
<glyph unicode="&#x201c;" horiz-adv-x="479" d="M257 759l24 -74q-30 -8 -54.5 -26.5t-35.5 -44.5q32 -3 49.5 -21.5t17.5 -50.5q0 -53 -28.5 -78.5t-77.5 -25.5q-40 0 -62.5 20t-22.5 64q0 38 12 75.5t36 70t59.5 56.5t82.5 35zM480 759l24 -74q-30 -8 -54.5 -26.5t-35.5 -44.5q32 -3 49.5 -21.5t17.5 -50.5 q0 -53 -28.5 -78.5t-77.5 -25.5q-40 0 -62.5 20t-22.5 64q0 38 12 75.5t36 70t59.5 56.5t82.5 35z" />
<glyph unicode="&#x201d;" horiz-adv-x="479" d="M95 428l-24 73q30 8 54.5 26.5t35.5 44.5q-32 3 -49.5 21.5t-17.5 50.5q0 52 28.5 78t77.5 26q39 0 61.5 -20t22.5 -64q0 -38 -12 -75.5t-36 -70t-59.5 -56.5t-81.5 -34zM319 428l-24 73q30 8 54.5 26.5t35.5 44.5q-32 3 -49.5 21.5t-17.5 50.5q0 52 28.5 78t77.5 26 q39 0 61.5 -20t22.5 -64q0 -38 -12 -75.5t-36 -70t-59.5 -56.5t-81.5 -34z" />
<glyph unicode="&#x201e;" horiz-adv-x="479" d="M10 -150l-24 72q30 9 54.5 27t35.5 44q-32 3 -49.5 21t-17.5 50q0 53 28.5 78.5t76.5 25.5q39 0 61.5 -20t22.5 -64q0 -38 -12 -75t-35.5 -69t-59 -56t-81.5 -34zM234 -150l-24 72q30 9 54.5 27t35.5 44q-32 3 -49.5 21t-17.5 50q0 53 28.5 78.5t76.5 25.5q39 0 61.5 -20 t22.5 -64q0 -38 -12 -75t-35.5 -69t-59 -56t-81.5 -34z" />
<glyph unicode="&#x2020;" horiz-adv-x="320" d="M294 477h-65l-36 -220h-137l35 220h-64l20 124h62l16 114h147l-21 -114h62z" />
<glyph unicode="&#x2021;" horiz-adv-x="320" d="M25 466h65l8 48h-65l19 124h62l11 77h147l-15 -77h61l-19 -124h-64l-8 -48h65l-20 -123h-62l-11 -86h-147l16 86h-62z" />
<glyph unicode="&#x2022;" horiz-adv-x="422" d="M206 158q-73 0 -113 39.5t-40 105.5q0 43 13.5 79t38 61t59 39t75.5 14q74 0 114 -39.5t40 -105.5q0 -43 -13.5 -78.5t-38.5 -61t-59 -39.5t-76 -14z" />
<glyph unicode="&#x2026;" horiz-adv-x="796" d="M626 -8q-89 0 -89 77q0 50 27 81t85 31q44 0 67 -20t23 -59q0 -54 -31 -82t-82 -28zM360 -8q-88 0 -88 77q0 50 27 81t85 31q89 0 89 -79q0 -54 -30.5 -82t-82.5 -28zM95 -8q-89 0 -89 77q0 50 27 81t86 31q89 0 89 -79q0 -54 -30.5 -82t-82.5 -28z" />
<glyph unicode="&#x202f;" horiz-adv-x="193" />
<glyph unicode="&#x2030;" horiz-adv-x="1506" d="M53 0zM862 421q88 0 129 -40.5t41 -121.5q0 -14 -1 -27t-3 -29q-14 -104 -66.5 -160t-155.5 -56q-88 0 -129 40t-41 121q0 13 1.5 26.5t3.5 28.5q14 109 67 163.5t154 54.5zM853 318q-29 0 -49 -25t-31 -89q-2 -15 -3.5 -27.5t-1.5 -23.5q0 -35 12 -49t35 -14 q29 0 49 24.5t31 88.5q2 16 4 28.5t2 23.5q0 35 -12.5 49t-35.5 14zM279 714q88 0 129 -40.5t41 -121.5q0 -14 -1 -27t-3 -29q-14 -104 -66.5 -160t-155.5 -56q-88 0 -129 40t-41 121q0 13 1.5 26.5t3.5 28.5q14 109 67 163.5t154 54.5zM270 611q-29 0 -49 -25t-31 -89 q-2 -15 -3.5 -27.5t-1.5 -23.5q0 -35 12 -49t35 -14q29 0 49 24.5t31 88.5q2 16 4 28.5t2 23.5q0 35 -12.5 49t-35.5 14zM1293 421q88 0 129 -40.5t41 -121.5q0 -14 -1 -27t-3 -29q-14 -104 -66.5 -160t-155.5 -56q-88 0 -129 40t-41 121q0 13 1.5 26.5t3.5 28.5 q14 109 67 163.5t154 54.5zM1284 318q-29 0 -49 -25t-31 -89q-2 -15 -3.5 -27.5t-1.5 -23.5q0 -35 12 -49t35 -14q29 0 49 24.5t31 88.5q2 16 4 28.5t2 23.5q0 35 -12.5 49t-35.5 14zM853 700l-454 -700h-168l454 700h168z" />
<glyph unicode="&#x2039;" horiz-adv-x="435" d="M190 0l-153 250l1 3l232 249h187l-239 -255l154 -247h-182z" />
<glyph unicode="&#x203a;" horiz-adv-x="435" d="M250 502l153 -250l-1 -3l-232 -249h-187l239 255l-154 247h182z" />
<glyph unicode="&#x2044;" horiz-adv-x="574" d="M586 700l-454 -700h-168l454 700h168z" />
<glyph unicode="&#x205f;" horiz-adv-x="241" />
<glyph unicode="&#x2070;" horiz-adv-x="451" d="M53 281zM279 715q88 0 129 -40.5t41 -121.5q0 -14 -1 -27t-3 -29q-14 -104 -66.5 -160t-155.5 -56q-88 0 -129 40t-41 121q0 13 1.5 26.5t3.5 28.5q14 109 67 163.5t154 54.5zM270 612q-29 0 -49 -25t-31 -89q-2 -15 -3.5 -27.5t-1.5 -23.5q0 -35 12 -49t35 -14 q29 0 49 24.5t31 88.5q2 16 4 28.5t2 23.5q0 35 -12.5 49t-35.5 14z" />
<glyph unicode="&#x2074;" horiz-adv-x="438" d="M40 294zM40 367l14 89l154 247h130l-147 -229h90l19 116h123l-18 -116h42l-16 -107h-44l-12 -73h-123l12 73h-224z" />
<glyph unicode="&#x2075;" horiz-adv-x="384" d="M15 281zM199 602l-11 -48q14 4 28.5 6t32.5 2q68 0 100 -29t32 -86q0 -77 -52.5 -121.5t-147.5 -44.5q-55 0 -99 18t-67 60l98 65q13 -23 29 -33t42 -10q29 0 47 13.5t18 39.5q0 22 -14.5 30t-33.5 8q-16 0 -32 -5t-29 -17l-81 39l52 213h299l-16 -100h-195z" />
<glyph unicode="&#x2076;" horiz-adv-x="420" d="M53 281zM408 446q0 -35 -11.5 -65t-34.5 -52t-58 -35t-82 -13q-83 0 -126 41.5t-43 124.5q0 45 9 84q18 87 73 135.5t145 48.5q57 0 98.5 -19t55.5 -56l-87 -67q-8 21 -22 31.5t-40 10.5q-48 0 -70 -29.5t-30 -84.5q36 51 106 51q53 0 85 -27t32 -79zM237 463 q-21 0 -37.5 -12t-16.5 -35q0 -16 10.5 -26.5t32.5 -10.5q25 0 38.5 14.5t13.5 34.5q0 15 -9.5 25t-31.5 10z" />
<glyph unicode="&#x2077;" horiz-adv-x="357" d="M61 294zM80 294q15 100 62.5 174.5t111.5 125.5l-193 -4l18 112h331l-15 -83q-36 -38 -64 -75t-48.5 -76t-34 -82t-20.5 -92h-148z" />
<glyph unicode="&#x2078;" horiz-adv-x="416" d="M44 281zM202 281q-80 0 -119 26t-39 82q0 47 24 76t59 43q-18 12 -27.5 29.5t-9.5 46.5q0 66 49 98.5t132 32.5q71 0 108 -24t37 -78q0 -37 -17.5 -63.5t-49.5 -44.5q27 -14 38.5 -33.5t11.5 -49.5q0 -70 -51.5 -105.5t-145.5 -35.5zM245 549q21 0 36.5 11t15.5 32 q0 14 -11 22.5t-28 8.5q-23 0 -38 -11t-15 -32q0 -16 11.5 -23.5t28.5 -7.5zM216 368q23 0 40.5 12.5t17.5 35.5q0 17 -12.5 26t-32.5 9q-26 0 -41.5 -12.5t-15.5 -35.5q0 -35 44 -35z" />
<glyph unicode="&#x2079;" horiz-adv-x="417" d="M24 281zM231 529q20 0 37 12.5t17 35.5q0 17 -10.5 27t-32.5 10q-24 0 -39 -14t-15 -36q0 -15 10 -25t33 -10zM187 281q-58 0 -101 16t-62 48l86 71q8 -16 27 -26t46 -10q46 0 68 31t31 80q-20 -29 -45.5 -41t-59.5 -12q-54 0 -85 28t-31 81q0 36 11.5 66.5t34.5 53 t57.5 35.5t80.5 13q84 0 127 -41.5t43 -124.5q0 -45 -9 -84q-19 -87 -73.5 -135.5t-145.5 -48.5z" />
<glyph unicode="&#x207a;" horiz-adv-x="318" d="M46 359zM210 359h-96l14 85h-82l10 78h83l14 87h96l-14 -87h83l-11 -78h-83z" />
<glyph unicode="&#x207b;" horiz-adv-x="318" d="M46 444zM318 522l-11 -78h-261l10 78h262z" />
<glyph unicode="&#x207c;" horiz-adv-x="318" d="M39 391zM326 572l-11 -79h-260l10 79h261zM311 470l-11 -79h-261l10 79h262z" />
<glyph unicode="&#x207d;" horiz-adv-x="239" d="M43 195zM190 195q-76 7 -111.5 56t-35.5 140q0 16 1 33.5t4 35.5q18 118 72.5 187t150.5 77v-101q-49 -5 -79.5 -43t-44.5 -120q-2 -14 -4 -33.5t-2 -32.5q0 -51 19.5 -72.5t56.5 -25.5z" />
<glyph unicode="&#x207e;" horiz-adv-x="239" d="M4 195zM58 623l27 101q76 -7 111.5 -56t35.5 -140q0 -16 -1 -33.5t-4 -35.5q-18 -118 -72.5 -187t-150.5 -77v101q49 5 79.5 43t44.5 120q2 14 4 33.5t2 32.5q0 51 -19.5 72.5t-56.5 25.5z" />
<glyph unicode="&#x2080;" horiz-adv-x="450" d="M241 421q88 0 129 -40.5t41 -121.5q0 -14 -1 -27t-3 -29q-14 -104 -66.5 -160t-155.5 -56q-88 0 -129 40t-41 121q0 13 1.5 26.5t3.5 28.5q14 109 67 163.5t154 54.5zM232 318q-29 0 -49 -25t-31 -89q-2 -15 -3.5 -27.5t-1.5 -23.5q0 -35 12 -49t35 -14q29 0 49 24.5 t31 88.5q2 16 4 28.5t2 23.5q0 35 -12.5 49t-35.5 14z" />
<glyph unicode="&#x2081;" horiz-adv-x="284" d="M191 0h-133l42 265q-3 -2 -9.5 -5.5t-13.5 -7t-13 -7.5t-9 -5l-31 102l146 73h88z" />
<glyph unicode="&#x2082;" horiz-adv-x="390" d="M-13 0l13 88l162 122q26 19 42.5 36t16.5 40q0 16 -12.5 21.5t-29.5 5.5q-26 0 -43.5 -11t-36.5 -36l-76 61q36 54 82.5 74t104.5 20q31 0 58.5 -5t48 -17t32.5 -32t12 -50q0 -51 -30.5 -92t-81.5 -79l-52 -40l144 2l-16 -108h-338z" />
<glyph unicode="&#x2083;" horiz-adv-x="388" d="M151 -13q-59 0 -100.5 22t-63.5 72l103 52q13 -23 27.5 -33.5t38.5 -10.5q23 0 39 9t16 29q0 15 -11.5 21.5t-39.5 6.5h-39l15 91h38q25 0 39 11t14 29q0 30 -43 30q-20 0 -35 -9t-30 -30l-83 59q29 42 70.5 63.5t105.5 21.5q80 0 115.5 -28t35.5 -78q0 -40 -19 -66.5 t-50 -45.5q20 -11 32 -28t12 -47q0 -32 -13.5 -57.5t-38.5 -44.5t-59 -29t-76 -10z" />
<glyph unicode="&#x2084;" horiz-adv-x="437" d="M3 73l14 89l154 247h130l-147 -229h90l19 116h123l-18 -116h42l-16 -107h-44l-12 -73h-123l12 73h-224z" />
<glyph unicode="&#x2085;" horiz-adv-x="383" d="M162 308l-11 -48q14 4 28.5 6t32.5 2q68 0 100 -29t32 -86q0 -77 -52.5 -121.5t-147.5 -44.5q-55 0 -99 18t-67 60l98 65q13 -23 29 -33t42 -10q29 0 47 13.5t18 39.5q0 22 -14.5 30t-33.5 8q-16 0 -32 -5t-29 -17l-81 39l52 213h299l-16 -100h-195z" />
<glyph unicode="&#x2086;" horiz-adv-x="418" d="M371 152q0 -35 -11.5 -65t-34.5 -52t-58 -35t-82 -13q-83 0 -126 41.5t-43 124.5q0 45 9 84q18 87 73 135.5t145 48.5q57 0 98.5 -19t55.5 -56l-87 -67q-8 21 -22 31.5t-40 10.5q-48 0 -70 -29.5t-30 -84.5q36 51 106 51q53 0 85 -27t32 -79zM200 169q-21 0 -37.5 -12 t-16.5 -35q0 -16 10.5 -26.5t32.5 -10.5q25 0 38.5 14.5t13.5 34.5q0 15 -9.5 25t-31.5 10z" />
<glyph unicode="&#x2087;" horiz-adv-x="355" d="M43 0q15 100 62.5 174.5t111.5 125.5l-193 -4l18 112h331l-15 -83q-36 -38 -64 -75t-48.5 -76t-34 -82t-20.5 -92h-148z" />
<glyph unicode="&#x2088;" horiz-adv-x="414" d="M165 -13q-80 0 -119 26t-39 82q0 47 24 76t59 43q-18 12 -27.5 29.5t-9.5 46.5q0 66 49 98.5t132 32.5q71 0 108 -24t37 -78q0 -37 -17.5 -63.5t-49.5 -44.5q27 -14 38.5 -33.5t11.5 -49.5q0 -70 -51.5 -105.5t-145.5 -35.5zM208 255q21 0 36.5 11t15.5 32q0 14 -11 22.5 t-28 8.5q-23 0 -38 -11t-15 -32q0 -16 11.5 -23.5t28.5 -7.5zM179 74q23 0 40.5 12.5t17.5 35.5q0 17 -12.5 26t-32.5 9q-26 0 -41.5 -12.5t-15.5 -35.5q0 -35 44 -35z" />
<glyph unicode="&#x2089;" horiz-adv-x="415" d="M194 235q20 0 37 12.5t17 35.5q0 17 -10.5 27t-32.5 10q-24 0 -39 -14t-15 -36q0 -15 10 -25t33 -10zM150 -13q-58 0 -101 16t-62 48l86 71q8 -16 27 -26t46 -10q46 0 68 31t31 80q-20 -29 -45.5 -41t-59.5 -12q-54 0 -85 28t-31 81q0 36 11.5 66.5t34.5 53t57.5 35.5 t80.5 13q84 0 127 -41.5t43 -124.5q0 -45 -9 -84q-19 -87 -73.5 -135.5t-145.5 -48.5z" />
<glyph unicode="&#x208a;" horiz-adv-x="318" d="M173 57h-96l14 85h-82l10 78h83l14 87h96l-14 -87h83l-11 -78h-83z" />
<glyph unicode="&#x208b;" horiz-adv-x="318" d="M281 220l-11 -78h-261l10 78h262z" />
<glyph unicode="&#x208c;" horiz-adv-x="318" d="M289 270l-11 -79h-260l10 79h261zM274 168l-11 -79h-261l10 79h262z" />
<glyph unicode="&#x208d;" horiz-adv-x="238" d="M153 -107q-76 7 -111.5 56t-35.5 140q0 16 1 33.5t4 35.5q18 118 72.5 187t150.5 77v-101q-49 -5 -79.5 -43t-44.5 -120q-2 -14 -4 -33.5t-2 -32.5q0 -51 19.5 -72.5t56.5 -25.5z" />
<glyph unicode="&#x208e;" horiz-adv-x="238" d="M21 321l27 101q76 -7 111.5 -56t35.5 -140q0 -16 -1 -33.5t-4 -35.5q-18 -118 -72.5 -187t-150.5 -77v101q49 5 79.5 43t44.5 120q2 14 4 33.5t2 32.5q0 51 -19.5 72.5t-56.5 25.5z" />
<glyph unicode="&#x20ac;" horiz-adv-x="716" d="M449 316l-37 -88h-141q8 -48 37 -66.5t77 -18.5q43 0 75.5 17.5t56.5 59.5l148 -89q-45 -78 -119 -112t-183 -34q-140 0 -210.5 59t-78.5 184h-70l14 88h56l5 40h-55l13 88h60q38 140 128 205.5t234 65.5q114 0 177 -46.5t83 -135.5l-170 -62q-14 49 -39 67.5t-67 18.5 q-48 0 -86.5 -24t-62.5 -89h211l-38 -88h-197q-2 -8 -3 -19t-2 -21h184z" />
<glyph unicode="&#x2122;" horiz-adv-x="721" d="M80 700h282l-14 -90h-87l-32 -204h-101l32 204h-94zM726 406h-92l22 134l-77 -134h-85l-36 135l-20 -135h-93l47 294h110l49 -190l112 190h110z" />
<glyph unicode="&#x2153;" horiz-adv-x="915" d="M60 0zM674 -13q-59 0 -100.5 22t-63.5 72l103 52q13 -23 27.5 -33.5t38.5 -10.5q23 0 39 9t16 29q0 15 -11.5 21.5t-39.5 6.5h-39l15 91h38q25 0 39 11t14 29q0 30 -43 30q-20 0 -35 -9t-30 -30l-83 59q29 42 70.5 63.5t105.5 21.5q80 0 115.5 -28t35.5 -78 q0 -40 -19 -66.5t-50 -45.5q20 -11 32 -28t12 -47q0 -32 -13.5 -57.5t-38.5 -44.5t-59 -29t-76 -10zM227 293h-133l42 265q-3 -2 -9.5 -5.5t-13.5 -7t-13 -7.5t-9 -5l-31 102l146 73h88zM728 700l-454 -700h-168l454 700h168z" />
<glyph unicode="&#x2154;" horiz-adv-x="1034" d="M23 0zM792 -13q-59 0 -100.5 22t-63.5 72l103 52q13 -23 27.5 -33.5t38.5 -10.5q23 0 39 9t16 29q0 15 -11.5 21.5t-39.5 6.5h-39l15 91h38q25 0 39 11t14 29q0 30 -43 30q-20 0 -35 -9t-30 -30l-83 59q29 42 70.5 63.5t105.5 21.5q80 0 115.5 -28t35.5 -78 q0 -40 -19 -66.5t-50 -45.5q20 -11 32 -28t12 -47q0 -32 -13.5 -57.5t-38.5 -44.5t-59 -29t-76 -10zM23 293l13 88l162 122q26 19 42.5 36t16.5 40q0 16 -12.5 21.5t-29.5 5.5q-26 0 -43.5 -11t-36.5 -36l-76 61q36 54 82.5 74t104.5 20q31 0 58.5 -5t48 -17t32.5 -32 t12 -50q0 -51 -30.5 -92t-81.5 -79l-52 -40l144 2l-16 -108h-338zM847 700l-454 -700h-168l454 700h168z" />
<glyph unicode="&#x2155;" horiz-adv-x="924" d="M60 0zM227 293h-133l42 265q-3 -2 -9.5 -5.5t-13.5 -7t-13 -7.5t-9 -5l-31 102l146 73h88zM699 308l-11 -48q14 4 28.5 6t32.5 2q68 0 100 -29t32 -86q0 -77 -52.5 -121.5t-147.5 -44.5q-55 0 -99 18t-67 60l98 65q13 -23 29 -33t42 -10q29 0 47 13.5t18 39.5 q0 22 -14.5 30t-33.5 8q-16 0 -32 -5t-29 -17l-81 39l52 213h299l-16 -100h-195zM728 700l-454 -700h-168l454 700h168z" />
<glyph unicode="&#x2156;" horiz-adv-x="1043" d="M23 0zM23 293l13 88l162 122q26 19 42.5 36t16.5 40q0 16 -12.5 21.5t-29.5 5.5q-26 0 -43.5 -11t-36.5 -36l-76 61q36 54 82.5 74t104.5 20q31 0 58.5 -5t48 -17t32.5 -32t12 -50q0 -51 -30.5 -92t-81.5 -79l-52 -40l144 2l-16 -108h-338zM818 308l-11 -48q14 4 28.5 6 t32.5 2q68 0 100 -29t32 -86q0 -77 -52.5 -121.5t-147.5 -44.5q-55 0 -99 18t-67 60l98 65q13 -23 29 -33t42 -10q29 0 47 13.5t18 39.5q0 22 -14.5 30t-33.5 8q-16 0 -32 -5t-29 -17l-81 39l52 213h299l-16 -100h-195zM847 700l-454 -700h-168l454 700h168z" />
<glyph unicode="&#x2157;" horiz-adv-x="1027" d="M33 0zM197 280q-59 0 -100.5 22t-63.5 72l103 52q13 -23 27.5 -33.5t38.5 -10.5q23 0 39 9t16 29q0 15 -11.5 21.5t-39.5 6.5h-39l15 91h38q25 0 39 11t14 29q0 30 -43 30q-20 0 -35 -9t-30 -30l-83 59q29 42 70.5 63.5t105.5 21.5q80 0 115.5 -28t35.5 -78 q0 -40 -19 -66.5t-50 -45.5q20 -11 32 -28t12 -47q0 -32 -13.5 -57.5t-38.5 -44.5t-59 -29t-76 -10zM802 308l-11 -48q14 4 28.5 6t32.5 2q68 0 100 -29t32 -86q0 -77 -52.5 -121.5t-147.5 -44.5q-55 0 -99 18t-67 60l98 65q13 -23 29 -33t42 -10q29 0 47 13.5t18 39.5 q0 22 -14.5 30t-33.5 8q-16 0 -32 -5t-29 -17l-81 39l52 213h299l-16 -100h-195zM828 700l-454 -700h-168l454 700h168z" />
<glyph unicode="&#x2158;" horiz-adv-x="1071" d="M40 0zM846 308l-11 -48q14 4 28.5 6t32.5 2q68 0 100 -29t32 -86q0 -77 -52.5 -121.5t-147.5 -44.5q-55 0 -99 18t-67 60l98 65q13 -23 29 -33t42 -10q29 0 47 13.5t18 39.5q0 22 -14.5 30t-33.5 8q-16 0 -32 -5t-29 -17l-81 39l52 213h299l-16 -100h-195zM874 700 l-454 -700h-168l454 700h168zM40 366l14 89l154 247h130l-147 -229h90l19 116h123l-18 -116h42l-16 -107h-44l-12 -73h-123l12 73h-224z" />
<glyph unicode="&#x2159;" horiz-adv-x="931" d="M60 0zM227 293h-133l42 265q-3 -2 -9.5 -5.5t-13.5 -7t-13 -7.5t-9 -5l-31 102l146 73h88zM880 152q0 -35 -11.5 -65t-34.5 -52t-58 -35t-82 -13q-83 0 -126 41.5t-43 124.5q0 45 9 84q18 87 73 135.5t145 48.5q57 0 98.5 -19t55.5 -56l-87 -67q-8 21 -22 31.5t-40 10.5 q-48 0 -70 -29.5t-30 -84.5q36 51 106 51q53 0 85 -27t32 -79zM709 169q-21 0 -37.5 -12t-16.5 -35q0 -16 10.5 -26.5t32.5 -10.5q25 0 38.5 14.5t13.5 34.5q0 15 -9.5 25t-31.5 10zM728 700l-454 -700h-168l454 700h168z" />
<glyph unicode="&#x215a;" horiz-adv-x="1023" d="M15 0zM199 601l-11 -48q14 4 28.5 6t32.5 2q68 0 100 -29t32 -86q0 -77 -52.5 -121.5t-147.5 -44.5q-55 0 -99 18t-67 60l98 65q13 -23 29 -33t42 -10q29 0 47 13.5t18 39.5q0 22 -14.5 30t-33.5 8q-16 0 -32 -5t-29 -17l-81 39l52 213h299l-16 -100h-195zM972 152 q0 -35 -11.5 -65t-34.5 -52t-58 -35t-82 -13q-83 0 -126 41.5t-43 124.5q0 45 9 84q18 87 73 135.5t145 48.5q57 0 98.5 -19t55.5 -56l-87 -67q-8 21 -22 31.5t-40 10.5q-48 0 -70 -29.5t-30 -84.5q36 51 106 51q53 0 85 -27t32 -79zM801 169q-21 0 -37.5 -12t-16.5 -35 q0 -16 10.5 -26.5t32.5 -10.5q25 0 38.5 14.5t13.5 34.5q0 15 -9.5 25t-31.5 10zM820 700l-454 -700h-168l454 700h168z" />
<glyph unicode="&#x215b;" horiz-adv-x="932" d="M60 0zM227 293h-133l42 265q-3 -2 -9.5 -5.5t-13.5 -7t-13 -7.5t-9 -5l-31 102l146 73h88zM679 -13q-80 0 -119 26t-39 82q0 47 24 76t59 43q-18 12 -27.5 29.5t-9.5 46.5q0 66 49 98.5t132 32.5q71 0 108 -24t37 -78q0 -37 -17.5 -63.5t-49.5 -44.5q27 -14 38.5 -33.5 t11.5 -49.5q0 -70 -51.5 -105.5t-145.5 -35.5zM722 255q21 0 36.5 11t15.5 32q0 14 -11 22.5t-28 8.5q-23 0 -38 -11t-15 -32q0 -16 11.5 -23.5t28.5 -7.5zM693 74q23 0 40.5 12.5t17.5 35.5q0 17 -12.5 26t-32.5 9q-26 0 -41.5 -12.5t-15.5 -35.5q0 -35 44 -35zM728 700 l-454 -700h-168l454 700h168z" />
<glyph unicode="&#x215c;" horiz-adv-x="1033" d="M33 0zM197 280q-59 0 -100.5 22t-63.5 72l103 52q13 -23 27.5 -33.5t38.5 -10.5q23 0 39 9t16 29q0 15 -11.5 21.5t-39.5 6.5h-39l15 91h38q25 0 39 11t14 29q0 30 -43 30q-20 0 -35 -9t-30 -30l-83 59q29 42 70.5 63.5t105.5 21.5q80 0 115.5 -28t35.5 -78 q0 -40 -19 -66.5t-50 -45.5q20 -11 32 -28t12 -47q0 -32 -13.5 -57.5t-38.5 -44.5t-59 -29t-76 -10zM780 -13q-80 0 -119 26t-39 82q0 47 24 76t59 43q-18 12 -27.5 29.5t-9.5 46.5q0 66 49 98.5t132 32.5q71 0 108 -24t37 -78q0 -37 -17.5 -63.5t-49.5 -44.5 q27 -14 38.5 -33.5t11.5 -49.5q0 -70 -51.5 -105.5t-145.5 -35.5zM823 255q21 0 36.5 11t15.5 32q0 14 -11 22.5t-28 8.5q-23 0 -38 -11t-15 -32q0 -16 11.5 -23.5t28.5 -7.5zM794 74q23 0 40.5 12.5t17.5 35.5q0 17 -12.5 26t-32.5 9q-26 0 -41.5 -12.5t-15.5 -35.5 q0 -35 44 -35zM828 700l-454 -700h-168l454 700h168z" />
<glyph unicode="&#x215d;" horiz-adv-x="1023" d="M15 0zM769 -13q-80 0 -119 26t-39 82q0 47 24 76t59 43q-18 12 -27.5 29.5t-9.5 46.5q0 66 49 98.5t132 32.5q71 0 108 -24t37 -78q0 -37 -17.5 -63.5t-49.5 -44.5q27 -14 38.5 -33.5t11.5 -49.5q0 -70 -51.5 -105.5t-145.5 -35.5zM812 255q21 0 36.5 11t15.5 32 q0 14 -11 22.5t-28 8.5q-23 0 -38 -11t-15 -32q0 -16 11.5 -23.5t28.5 -7.5zM783 74q23 0 40.5 12.5t17.5 35.5q0 17 -12.5 26t-32.5 9q-26 0 -41.5 -12.5t-15.5 -35.5q0 -35 44 -35zM199 601l-11 -48q14 4 28.5 6t32.5 2q68 0 100 -29t32 -86q0 -77 -52.5 -121.5 t-147.5 -44.5q-55 0 -99 18t-67 60l98 65q13 -23 29 -33t42 -10q29 0 47 13.5t18 39.5q0 22 -14.5 30t-33.5 8q-16 0 -32 -5t-29 -17l-81 39l52 213h299l-16 -100h-195zM820 700l-454 -700h-168l454 700h168z" />
<glyph unicode="&#x215e;" horiz-adv-x="942" d="M61 0zM688 -13q-80 0 -119 26t-39 82q0 47 24 76t59 43q-18 12 -27.5 29.5t-9.5 46.5q0 66 49 98.5t132 32.5q71 0 108 -24t37 -78q0 -37 -17.5 -63.5t-49.5 -44.5q27 -14 38.5 -33.5t11.5 -49.5q0 -70 -51.5 -105.5t-145.5 -35.5zM731 255q21 0 36.5 11t15.5 32 q0 14 -11 22.5t-28 8.5q-23 0 -38 -11t-15 -32q0 -16 11.5 -23.5t28.5 -7.5zM702 74q23 0 40.5 12.5t17.5 35.5q0 17 -12.5 26t-32.5 9q-26 0 -41.5 -12.5t-15.5 -35.5q0 -35 44 -35zM80 293q15 100 62.5 174.5t111.5 125.5l-193 -4l18 112h331l-15 -83q-36 -38 -64 -75 t-48.5 -76t-34 -82t-20.5 -92h-148zM738 700l-454 -700h-168l454 700h168z" />
<glyph unicode="&#x215f;" horiz-adv-x="870" d="M60 0zM227 293h-133l42 265q-3 -2 -9.5 -5.5t-13.5 -7t-13 -7.5t-9 -5l-31 102l146 73h88zM754 700l-454 -700h-168l454 700h168z" />
<glyph unicode="&#x2212;" horiz-adv-x="511" d="M465 363l-17 -104h-403l16 104h404z" />
<glyph unicode="&#x2248;" horiz-adv-x="510" d="M365 415q20 0 52.5 6t60.5 23l-16 -104q-25 -13 -58.5 -19.5t-62.5 -6.5q-26 0 -47 5.5t-40 11.5t-39 11.5t-44 5.5q-21 0 -53.5 -5.5t-62.5 -22.5l16 104q25 13 57.5 19t61.5 6q27 0 48.5 -5.5t41 -11.5t40 -11.5t45.5 -5.5zM341 262q20 0 52.5 6t60.5 23l-16 -103 q-25 -13 -58.5 -19.5t-62.5 -6.5q-26 0 -46.5 5.5t-40 11.5t-39 11.5t-44.5 5.5q-21 0 -54 -5.5t-62 -22.5l16 103q25 13 57.5 19t61.5 6q27 0 48.5 -5.5t41 -11.5t40 -11.5t45.5 -5.5z" />
<glyph unicode="&#x2260;" horiz-adv-x="510" d="M476 437l-16 -104h-134l-40 -48h167l-17 -104h-238l-55 -65h-101l55 65h-64l16 104h135l40 48h-168l17 104h239l55 66h102l-56 -66h63z" />
<glyph unicode="&#x2264;" horiz-adv-x="511" d="M100 314l10 62l295 166l41 -84l-197 -112l161 -110l-67 -87zM45 0l17 104h332l-17 -104h-332z" />
<glyph unicode="&#x2265;" horiz-adv-x="510" d="M424 315l-295 -166l-41 84l197 111l-161 110l67 88l242 -165zM394 104l-17 -104h-332l17 104h332z" />
<glyph unicode="&#x25fc;" horiz-adv-x="500" d="M0 500h500v-500h-500v500z" />
<glyph unicode="&#xf6c3;" horiz-adv-x="600" d="M219 -351l-21 66q31 8 56.5 25.5t36.5 43.5q-39 1 -60.5 18.5t-21.5 49.5q0 49 29.5 73.5t77.5 24.5q41 0 64 -21t23 -63t-15 -79.5t-40.5 -66t-58.5 -47.5t-70 -24z" />
<glyph horiz-adv-x="561" d="M255 -65l131 831h172l-131 -831h-172zM23 -65l130 831h172l-131 -831h-171z" />
<glyph horiz-adv-x="237" d="M247 497l-41 -71q-67 23 -101.5 73t-34.5 124q0 66 23.5 96t68.5 30q48 0 73 -22t25 -63q0 -46 -24.5 -68.5t-62.5 -21.5q5 -26 25 -47t49 -30z" />
<glyph horiz-adv-x="459" d="M247 497l-41 -71q-67 23 -101.5 73t-34.5 124q0 66 23.5 96t68.5 30q48 0 73 -22t25 -63q0 -43 -23.5 -67t-63.5 -22q5 -27 25 -48t49 -30zM470 497l-41 -71q-66 23 -101 73t-35 124q0 66 24 96t69 30q47 0 72.5 -22t25.5 -63q0 -43 -23.5 -67t-64.5 -22q5 -27 25 -48 t49 -30z" />
<glyph horiz-adv-x="633" d="M450 -238q-28 0 -54.5 6.5t-46.5 22t-30 41t-5 63.5q4 36 21 64t41 47v61q-31 -41 -73 -61.5t-93 -20.5q-83 0 -131.5 50t-48.5 150q0 14 1 28t3 30q9 70 31 121.5t55 85.5t75 50t90 16q56 0 94.5 -21.5t55.5 -66.5l26 74h153l-80 -502h-2q-29 -2 -49.5 -10t-33 -20 t-19 -27t-8.5 -30q-3 -27 14.5 -38t40.5 -11q17 0 35 4t35 13l12 -90q-49 -29 -109 -29zM387 250q2 11 3 22t1 19q0 46 -20 65t-52 19q-38 0 -65 -29t-38 -97q-2 -11 -3 -22t-1 -19q0 -80 68 -80q39 0 68.5 29.5t38.5 92.5z" />
<glyph horiz-adv-x="633" d="M387 250q2 11 3 22t1 19q0 46 -20 65t-52 19q-38 0 -65 -29t-38 -97q-2 -11 -3 -22t-1 -19q0 -80 68 -80q39 0 68.5 29.5t38.5 92.5zM210 -15q-83 0 -131.5 50t-48.5 150q0 14 1 28t3 30q9 70 31 121.5t55 85.5t75 50t90 16q56 0 94.5 -21.5t55.5 -66.5l26 74h153 l-80 -502h-158v67q-31 -41 -73 -61.5t-93 -20.5z" />
<glyph horiz-adv-x="633" d="M30 0zM387 250q2 11 3 22t1 19q0 46 -20 65t-52 19q-38 0 -65 -29t-38 -97q-2 -11 -3 -22t-1 -19q0 -80 68 -80q39 0 68.5 29.5t38.5 92.5zM210 -15q-83 0 -131.5 50t-48.5 150q0 14 1 28t3 30q9 70 31 121.5t55 85.5t75 50t90 16q56 0 94.5 -21.5t55.5 -66.5l26 74h153 l-80 -502h-158v67q-31 -41 -73 -61.5t-93 -20.5zM278 570l-113 134l1 7h201l58 -136v-5h-147z" />
<glyph horiz-adv-x="633" d="M30 0zM387 250q2 11 3 22t1 19q0 46 -20 65t-52 19q-38 0 -65 -29t-38 -97q-2 -11 -3 -22t-1 -19q0 -80 68 -80q39 0 68.5 29.5t38.5 92.5zM210 -15q-83 0 -131.5 50t-48.5 150q0 14 1 28t3 30q9 70 31 121.5t55 85.5t75 50t90 16q56 0 94.5 -21.5t55.5 -66.5l26 74h153 l-80 -502h-158v67q-31 -41 -73 -61.5t-93 -20.5zM366 711h195l-1 -7l-154 -134h-146l1 5z" />
<glyph horiz-adv-x="633" d="M30 0zM352 622l-65 -52h-143l1 4l144 137h152l100 -137l-1 -4h-140zM387 250q2 11 3 22t1 19q0 46 -20 65t-52 19q-38 0 -65 -29t-38 -97q-2 -11 -3 -22t-1 -19q0 -80 68 -80q39 0 68.5 29.5t38.5 92.5zM210 -15q-83 0 -131.5 50t-48.5 150q0 14 1 28t3 30q9 70 31 121.5 t55 85.5t75 50t90 16q56 0 94.5 -21.5t55.5 -66.5l26 74h153l-80 -502h-158v67q-31 -41 -73 -61.5t-93 -20.5z" />
<glyph horiz-adv-x="633" d="M30 0zM457 565q-42 0 -62.5 16t-20.5 52q0 51 28 75t76 24q41 0 62.5 -16.5t21.5 -51.5q0 -52 -28.5 -75.5t-76.5 -23.5zM231 565q-42 0 -62.5 16.5t-20.5 52.5q0 51 28 74.5t76 23.5q83 0 83 -67q0 -53 -28 -76.5t-76 -23.5zM387 250q2 11 3 22t1 19q0 46 -20 65t-52 19 q-38 0 -65 -29t-38 -97q-2 -11 -3 -22t-1 -19q0 -80 68 -80q39 0 68.5 29.5t38.5 92.5zM210 -15q-83 0 -131.5 50t-48.5 150q0 14 1 28t3 30q9 70 31 121.5t55 85.5t75 50t90 16q56 0 94.5 -21.5t55.5 -66.5l26 74h153l-80 -502h-158v67q-31 -41 -73 -61.5t-93 -20.5z" />
<glyph horiz-adv-x="633" d="M30 0zM387 250q2 11 3 22t1 19q0 46 -20 65t-52 19q-38 0 -65 -29t-38 -97q-2 -11 -3 -22t-1 -19q0 -80 68 -80q39 0 68.5 29.5t38.5 92.5zM210 -15q-83 0 -131.5 50t-48.5 150q0 14 1 28t3 30q9 70 31 121.5t55 85.5t75 50t90 16q56 0 94.5 -21.5t55.5 -66.5l26 74h153 l-80 -502h-158v67q-31 -41 -73 -61.5t-93 -20.5zM447 708h105q-2 -38 -14 -63.5t-30 -41t-39 -22t-41 -6.5q-23 0 -42 5t-34.5 10.5t-30 10.5t-28.5 5q-17 0 -23.5 -10.5t-8.5 -21.5h-107q2 38 14 63.5t29.5 41t39 22t41.5 6.5q23 0 42 -5t35.5 -10.5t31 -10.5t29.5 -5 q17 0 23 9.5t8 22.5z" />
<glyph horiz-adv-x="633" d="M30 0zM387 250q2 11 3 22t1 19q0 46 -20 65t-52 19q-38 0 -65 -29t-38 -97q-2 -11 -3 -22t-1 -19q0 -80 68 -80q39 0 68.5 29.5t38.5 92.5zM210 -15q-83 0 -131.5 50t-48.5 150q0 14 1 28t3 30q9 70 31 121.5t55 85.5t75 50t90 16q56 0 94.5 -21.5t55.5 -66.5l26 74h153 l-80 -502h-158v67q-31 -41 -73 -61.5t-93 -20.5zM344 550q-45 0 -77.5 23t-32.5 71q0 29 10 52t28 38.5t42.5 24t52.5 8.5q51 0 80.5 -24.5t29.5 -68.5q0 -59 -37.5 -91.5t-95.5 -32.5zM362 700q-21 0 -35 -13t-14 -37q0 -17 9.5 -25.5t26.5 -8.5q20 0 34.5 13t14.5 38 q0 16 -9.5 24.5t-26.5 8.5z" />
<glyph horiz-adv-x="633" d="M30 0zM387 250q2 11 3 22t1 19q0 46 -20 65t-52 19q-38 0 -65 -29t-38 -97q-2 -11 -3 -22t-1 -19q0 -80 68 -80q39 0 68.5 29.5t38.5 92.5zM210 -15q-83 0 -131.5 50t-48.5 150q0 14 1 28t3 30q9 70 31 121.5t55 85.5t75 50t90 16q56 0 94.5 -21.5t55.5 -66.5l26 74h153 l-80 -502h-158v67q-31 -41 -73 -61.5t-93 -20.5zM515 685l-17 -101h-301l16 101h302z" />
<glyph horiz-adv-x="633" d="M30 0zM387 250q2 11 3 22t1 19q0 46 -20 65t-52 19q-38 0 -65 -29t-38 -97q-2 -11 -3 -22t-1 -19q0 -80 68 -80q39 0 68.5 29.5t38.5 92.5zM210 -15q-83 0 -131.5 50t-48.5 150q0 14 1 28t3 30q9 70 31 121.5t55 85.5t75 50t90 16q56 0 94.5 -21.5t55.5 -66.5l26 74h153 l-80 -502h-158v67q-31 -41 -73 -61.5t-93 -20.5zM435 710h111q-6 -42 -22 -70.5t-41.5 -46t-60.5 -24.5t-78 -7t-76 7t-54 24.5t-29.5 46t-2.5 70.5h109q-5 -35 10 -47t52 -12t56.5 12t25.5 47z" />
<glyph horiz-adv-x="636" d="M351 24l7 41q-31 -32 -69.5 -46.5t-81.5 -14.5q-44 0 -75.5 11.5t-52 32.5t-30 49t-9.5 61q0 19 3 40l48 304h190l-38 -241q-3 -21 -3 -38q0 -32 13.5 -46.5t42.5 -14.5q33 0 60 27t36 82l36 231h191l-76 -474q-10 -63 -38.5 -110.5t-71.5 -78.5t-98 -46.5t-119 -15.5 q-38 0 -73 5t-65 17.5t-52.5 32.5t-34.5 50l111 94q17 -35 45.5 -50t73.5 -15q112 0 130 113z" />
<glyph horiz-adv-x="636" d="M0 0zM351 24l7 41q-31 -32 -69.5 -46.5t-81.5 -14.5q-44 0 -75.5 11.5t-52 32.5t-30 49t-9.5 61q0 19 3 40l48 304h190l-38 -241q-3 -21 -3 -38q0 -32 13.5 -46.5t42.5 -14.5q33 0 60 27t36 82l36 231h191l-76 -474q-10 -63 -38.5 -110.5t-71.5 -78.5t-98 -46.5 t-119 -15.5q-38 0 -73 5t-65 17.5t-52.5 32.5t-34.5 50l111 94q17 -35 45.5 -50t73.5 -15q112 0 130 113zM385 711h195l-1 -7l-154 -134h-146l1 5z" />
<glyph horiz-adv-x="636" d="M0 0zM371 622l-65 -52h-143l1 4l144 137h152l100 -137l-1 -4h-140zM351 24l7 41q-31 -32 -69.5 -46.5t-81.5 -14.5q-44 0 -75.5 11.5t-52 32.5t-30 49t-9.5 61q0 19 3 40l48 304h190l-38 -241q-3 -21 -3 -38q0 -32 13.5 -46.5t42.5 -14.5q33 0 60 27t36 82l36 231h191 l-76 -474q-10 -63 -38.5 -110.5t-71.5 -78.5t-98 -46.5t-119 -15.5q-38 0 -73 5t-65 17.5t-52.5 32.5t-34.5 50l111 94q17 -35 45.5 -50t73.5 -15q112 0 130 113z" />
<glyph horiz-adv-x="636" d="M0 0zM476 565q-42 0 -62.5 16t-20.5 52q0 51 28 75t76 24q41 0 62.5 -16.5t21.5 -51.5q0 -52 -28.5 -75.5t-76.5 -23.5zM250 565q-42 0 -62.5 16.5t-20.5 52.5q0 51 28 74.5t76 23.5q83 0 83 -67q0 -53 -28 -76.5t-76 -23.5zM351 24l7 41q-31 -32 -69.5 -46.5 t-81.5 -14.5q-44 0 -75.5 11.5t-52 32.5t-30 49t-9.5 61q0 19 3 40l48 304h190l-38 -241q-3 -21 -3 -38q0 -32 13.5 -46.5t42.5 -14.5q33 0 60 27t36 82l36 231h191l-76 -474q-10 -63 -38.5 -110.5t-71.5 -78.5t-98 -46.5t-119 -15.5q-38 0 -73 5t-65 17.5t-52.5 32.5 t-34.5 50l111 94q17 -35 45.5 -50t73.5 -15q112 0 130 113z" />
<glyph horiz-adv-x="391" d="M304 478l85 -60q-29 -41 -72 -62t-103 -21q-75 0 -119 35.5t-44 114.5q0 17 3 40q14 100 69.5 145t144.5 45q58 0 95 -22t53 -71l-103 -58q-8 23 -19.5 32t-33.5 9q-30 0 -48.5 -18t-25.5 -63q-2 -9 -2.5 -15.5t-0.5 -14.5q0 -26 12 -40.5t41 -14.5q48 0 68 39z" />
<glyph horiz-adv-x="450" d="M301 524q1 8 1.5 15.5t0.5 14.5q0 32 -13.5 45.5t-35.5 13.5q-26 0 -45 -20.5t-27 -68.5q-1 -8 -2 -15t-1 -14q0 -56 47 -56q28 0 48 21t27 64zM229 715q40 0 67.5 -15.5t39.5 -47.5l19 52h110l-57 -357h-114l-1 47q-45 -59 -117 -59q-60 0 -94.5 36t-34.5 108q0 17 3 40 q6 51 22 88t39.5 61t53.5 35.5t64 11.5z" />
<glyph horiz-adv-x="600" d="M359 421h-121l51 279h148z" />
<glyph horiz-adv-x="269" d="M0 -1l103 472h133l-46 -472h-190zM205 708q89 0 89 -77q0 -56 -31 -84t-82 -28q-43 0 -66 20t-23 58q0 55 30.5 83t82.5 28z" />
<glyph horiz-adv-x="526" d="M13 153q0 57 15.5 100.5t43.5 74.5t67 49.5t87 24.5l20 75h139l-20 -185h-64q-51 0 -83.5 -24.5t-32.5 -78.5q0 -28 21 -46t68 -18q39 0 71.5 17.5t61.5 66.5l103 -74q-46 -75 -114.5 -114t-161.5 -39q-109 0 -165 41.5t-56 129.5zM354 714q89 0 89 -78q0 -55 -30.5 -83 t-81.5 -28q-44 0 -67 19.5t-23 58.5q0 54 30.5 82.5t82.5 28.5z" />
<glyph horiz-adv-x="379" d="M333 345l-23 -148h-277l24 148h276z" />
<glyph horiz-adv-x="690" d="M640 345l-23 -148h-584l24 148h583z" />
<glyph horiz-adv-x="725" d="M335 -15q-142 0 -215.5 70t-73.5 213q0 38 6 83q24 187 122 275.5t272 88.5q114 0 177.5 -43.5t83.5 -128.5l-167 -66q-13 39 -39 55.5t-72 16.5q-34 0 -62.5 -10t-51 -33.5t-38.5 -62t-25 -94.5q-4 -21 -5.5 -39.5t-1.5 -34.5q0 -37 8.5 -62t24.5 -40t39 -21.5t53 -6.5 q49 0 85 21.5t49 76.5h-119l24 148h298l-16 -104q-25 -157 -112 -229.5t-244 -72.5z" />
<glyph horiz-adv-x="751" d="M456 0l-168 308l-49 -308h-199l111 700h199l-53 -337l278 337h228l-316 -359l214 -341h-245z" />
<glyph horiz-adv-x="596" d="M353 0l-120 193l-31 -193h-188l111 700h191l-67 -410l182 212h193l-227 -250l162 -252h-206z" />
<glyph horiz-adv-x="795" d="M69 0zM649 101q-52 -48 -121 -74.5t-155 -26.5q-74 0 -130.5 20t-95 57t-58.5 90t-20 118q0 92 29 168t82 131t127 85t164 30q70 0 124 -19t90.5 -53.5t55.5 -84.5t19 -111q0 -118 -54.5 -183.5t-150.5 -65.5q-75 0 -94 53q-20 -28 -51.5 -44t-72.5 -16q-48 0 -76 22 t-28 64q0 33 13.5 58t37 41t54 24t63.5 8h59v6q0 26 -16.5 33.5t-41.5 7.5q-60 0 -98 -36l-37 72q63 61 168 61q32 0 59.5 -6t47.5 -20t31.5 -36.5t11.5 -55.5q0 -14 -3 -32l-12 -80q-1 -4 -2.5 -12.5t-1.5 -13.5q0 -33 35 -33q20 0 38 11t32 33.5t22 56.5t8 80 q0 55 -17 95.5t-47.5 67.5t-73.5 40t-95 13q-68 0 -129.5 -22t-108.5 -67t-75 -112.5t-28 -158.5q0 -58 18 -101t50.5 -71t78 -41.5t101.5 -13.5q69 0 129.5 21t107.5 65zM380 253q58 0 70 70h-48q-27 0 -42 -10t-15 -33q0 -27 35 -27z" />
<glyph horiz-adv-x="716" d="M61 349q12 93 39 161.5t70.5 114t105 68t143.5 22.5q140 0 205 -66t65 -203q0 -23 -1.5 -46.5t-5.5 -50.5q-25 -184 -110.5 -274t-247.5 -90q-140 0 -205 65.5t-65 200.5q0 23 2 47.5t5 50.5zM498 440q0 67 -23.5 94.5t-68.5 27.5q-29 0 -52.5 -11t-42.5 -35.5t-33 -65 t-24 -100.5q-5 -28 -7 -50t-2 -42q0 -67 24 -94t68 -27q29 0 53 10.5t43 35.5t33 66t24 101q4 27 6 49t2 41z" />
<glyph horiz-adv-x="431" d="M304 0h-195l76 480l-83 -46l-47 154l233 122h129z" />
<glyph horiz-adv-x="618" d="M2 0l21 137l260 203q23 18 44.5 36.5t38.5 37t27.5 39t10.5 43.5q0 32 -21 44.5t-56 12.5q-52 0 -85 -21t-64 -64l-115 92q29 43 62 73t71 48t80.5 26t91.5 8q50 0 93.5 -8.5t75.5 -29t50.5 -54t18.5 -82.5q0 -84 -49 -152t-140 -140l-114 -92l272 6l-26 -163h-547z" />
<glyph horiz-adv-x="618" d="M264 -15q-95 0 -160 36.5t-100 114.5l150 79q20 -42 47 -60t72 -18q47 0 79 20.5t32 65.5q0 29 -21.5 42.5t-71.5 13.5h-73l23 140h72q46 0 72.5 21.5t26.5 59.5q0 58 -83 58q-38 0 -66.5 -16t-55.5 -53l-121 90q47 67 114 101.5t170 34.5q124 0 182 -45.5t58 -128.5 q0 -65 -32.5 -110.5t-85.5 -76.5q36 -20 56.5 -49t20.5 -79q0 -54 -22 -98.5t-61.5 -76t-96 -49t-125.5 -17.5z" />
<glyph horiz-adv-x="701" d="M22 136l21 134l264 430h192l-255 -402h176l39 243h181l-38 -243h81l-26 -162h-81l-21 -136h-182l21 136h-372z" />
<glyph horiz-adv-x="609" d="M277 548l-27 -111q51 20 116 20q105 0 159.5 -46t54.5 -140q0 -66 -22 -119t-64 -90t-102.5 -57t-137.5 -20q-88 0 -158 31.5t-105 100.5l143 95q20 -40 50 -60t75 -20q57 0 93 28.5t36 82.5q0 42 -27.5 59.5t-65.5 17.5q-32 0 -62.5 -9.5t-53.5 -30.5l-117 58l88 362 h477l-25 -152h-325z" />
<glyph horiz-adv-x="674" d="M337 -15q-135 0 -208 67t-73 209q0 40 6 85q11 87 39.5 155.5t74 116t109.5 72.5t147 25q45 0 85.5 -7.5t72.5 -22.5t55 -38t33 -53l-130 -100q-5 13 -12.5 26t-20.5 23.5t-32 17t-47 6.5q-44 0 -74.5 -15.5t-52 -43t-34.5 -66.5t-21 -86l-2 -14q28 43 72.5 71t110.5 28 q90 0 145 -46t55 -134q0 -62 -21 -113t-59.5 -87t-93.5 -56t-124 -20zM361 305q-21 0 -40.5 -6.5t-35 -19.5t-24.5 -31.5t-9 -42.5q0 -32 21.5 -53.5t63.5 -21.5q50 0 78.5 29.5t28.5 74.5q0 32 -19.5 51.5t-63.5 19.5z" />
<glyph horiz-adv-x="554" d="M96 0q13 86 42 163.5t68.5 145t89 124.5t104.5 103l-335 -7l27 171h533l-21 -132q-123 -119 -195 -257.5t-97 -310.5h-216z" />
<glyph horiz-adv-x="664" d="M289 -15q-129 0 -193.5 44t-66.5 136q0 40 11 73t30.5 58.5t46.5 43t59 28.5q-35 20 -52.5 49t-17.5 77q0 56 20.5 97.5t58.5 69t92 41t120 13.5q115 0 174.5 -40t59.5 -127q0 -65 -30.5 -111t-88.5 -74q48 -21 70 -54.5t23 -86.5q1 -116 -82 -176.5t-234 -60.5zM355 429 q19 0 37.5 5.5t32 16.5t22 27t8.5 37q0 29 -20.5 45.5t-56.5 16.5q-44 0 -73 -22.5t-29 -64.5q0 -29 21 -45t58 -16zM305 118q22 0 42 6t35 18t24 29.5t9 40.5q0 34 -23 51t-62 17q-48 0 -79 -25t-31 -69q0 -34 22.5 -51t62.5 -17z" />
<glyph horiz-adv-x="664" d="M336 387q21 0 41 7t35 19.5t24.5 31.5t9.5 43q0 34 -22 55t-64 21q-50 0 -78.5 -29.5t-28.5 -74.5q0 -32 19.5 -52.5t63.5 -20.5zM367 715q133 0 203 -68.5t70 -208.5q0 -35 -3 -69t-10 -66q-32 -153 -122 -235.5t-237 -82.5q-93 0 -161 26.5t-97 81.5l128 103 q13 -29 45.5 -46t81.5 -17q43 0 73.5 15t51.5 43t34 66t20 85l3 16q-29 -53 -76.5 -80.5t-110.5 -27.5q-90 0 -142.5 47t-52.5 137q0 58 18.5 109.5t56 89.5t94 60t133.5 22z" />
<glyph d="M31 300q20 160 103.5 237.5t219.5 77.5q118 0 181.5 -60t63.5 -185q0 -17 -1 -34t-4 -36q-11 -80 -38 -139t-68 -98t-95.5 -58.5t-119.5 -19.5q-121 0 -184 60t-63 185q0 17 1 34t4 36zM423 364q0 55 -21.5 77t-61.5 22q-26 0 -47 -8t-38 -27t-29 -50t-19 -77 q-2 -19 -4 -34.5t-2 -29.5q0 -56 22.5 -78t63.5 -22q25 0 46 8.5t37 27.5t28 50t19 77q6 37 6 64z" />
<glyph d="M51 162h154l33 218l-78 -46l-46 154l227 122h125l-70 -448h143l-26 -162h-487z" />
<glyph d="M19 0l17 122l230 166q20 15 40.5 29.5t37.5 29.5t28.5 30.5t12.5 33.5q2 28 -17 39.5t-50 11.5q-40 0 -67 -18t-56 -59l-117 81q57 83 125.5 116t157.5 33q48 0 89.5 -8t71.5 -27t46.5 -50t15.5 -76q-2 -70 -53 -131t-139 -120l-98 -66l256 7l-22 -144h-509z" />
<glyph d="M243 -115q-93 0 -156 34t-96 114l143 86q19 -47 45.5 -66t69.5 -19q49 0 81.5 21.5t32.5 69.5q0 28 -21.5 41.5t-69.5 13.5h-71l22 139h71q45 0 71.5 21t26.5 62q0 29 -21 43.5t-60 14.5q-41 0 -68 -17.5t-53 -52.5l-119 76q53 82 120.5 115.5t160.5 33.5 q115 0 172.5 -46t57.5 -124q0 -28 -7.5 -56.5t-21.5 -54t-34.5 -46.5t-46.5 -35q33 -17 51.5 -46.5t18.5 -74.5q0 -56 -21 -101.5t-60 -78t-94.5 -50t-123.5 -17.5z" />
<glyph d="M-14 36l23 154l286 410h180l-278 -402h142l19 120h177l-19 -120h66l-25 -162h-66l-22 -136h-177l22 136h-328z" />
<glyph d="M268 448l-26 -112q48 21 114 21q99 0 152.5 -45.5t53.5 -134.5q0 -68 -21.5 -122.5t-62 -92t-99 -57.5t-132.5 -20q-88 0 -155 31t-102 100l139 96q19 -42 48 -62.5t74 -20.5q57 0 91 31t34 86q0 39 -24.5 56t-64.5 17q-36 0 -64 -9.5t-51 -30.5l-113 59l86 362h463 l-23 -152h-317z" />
<glyph d="M294 -15q-128 0 -195.5 67.5t-67.5 207.5q0 35 3 69t10 65q29 154 117 237.5t228 83.5q90 0 155.5 -31.5t86.5 -91.5l-125 -98q-13 35 -39.5 54t-71.5 19q-42 0 -71.5 -15.5t-50 -43.5t-33 -67t-19.5 -85l-3 -21q55 105 178 105q86 0 137 -46t51 -133q0 -57 -18 -107.5 t-54 -88t-90.5 -59t-127.5 -21.5zM322 305q-21 0 -40 -6.5t-33.5 -19.5t-23 -31.5t-8.5 -42.5q0 -32 20.5 -53.5t61.5 -21.5q48 0 75 29.5t27 74.5q0 32 -19 51.5t-60 19.5z" />
<glyph d="M98 -100q13 86 41.5 163.5t67.5 145t88 124.5t103 103l-330 -7l26 171h526l-21 -132q-121 -119 -192.5 -257.5t-95.5 -310.5h-213z" />
<glyph d="M271 -15q-125 0 -189 44t-64 136q0 40 11 73t30.5 58t46 43t57.5 29q-33 20 -49.5 49t-16.5 77q0 56 20 97.5t56.5 69t89 41t117.5 13.5q112 0 170 -40t58 -127q0 -65 -30 -111t-85 -74q86 -38 86 -134q0 -120 -79.5 -182t-228.5 -62zM338 429q19 0 37.5 5.5t32 16.5 t22 27t8.5 37q0 29 -20.5 45.5t-56.5 16.5q-44 0 -72 -22.5t-28 -64.5q0 -29 20.5 -45t56.5 -16zM286 118q21 0 41 6t35 18t24 29.5t9 40.5q0 34 -23 51t-62 17q-48 0 -78 -25t-30 -69q0 -34 22 -51t62 -17z" />
<glyph d="M308 287q20 0 39 7t33.5 19.5t23.5 31.5t9 43q0 34 -20.5 55t-60.5 21q-48 0 -75 -29.5t-27 -74.5q0 -32 18 -52.5t60 -20.5zM336 615q128 0 195.5 -68.5t67.5 -208.5q0 -35 -3 -69t-10 -66q-29 -154 -117 -236t-230 -82q-91 0 -158 26.5t-96 81.5l126 103 q12 -29 44.5 -46t80.5 -17q41 0 71 15t50.5 43t33 66t19.5 85l2 16q-27 -51 -72 -78t-105 -27q-87 0 -138 46.5t-51 134.5q0 58 17.5 109.5t53.5 89.5t90.5 60t128.5 22z" />
<glyph horiz-adv-x="648" d="M38 300q20 159 105 237t222 78q122 0 187.5 -60t65.5 -185q0 -17 -1.5 -34t-3.5 -36q-21 -159 -108 -237t-221 -78q-122 0 -187 60t-65 184q0 33 6 71zM435 364q0 55 -22 77t-62 22q-25 0 -45.5 -8t-37 -27t-28 -50t-18.5 -77q-6 -39 -6 -65q0 -55 21 -77t61 -22 q25 0 46 8.5t37.5 27.5t28 50t19.5 77q6 36 6 64z" />
<glyph horiz-adv-x="403" d="M288 0h-194l60 380l-80 -46l-47 154l230 122h128z" />
<glyph horiz-adv-x="554" d="M-10 0l18 118l221 171q22 17 41 33t33.5 31.5t23 32.5t8.5 36q0 21 -16 30.5t-40 9.5q-37 0 -62 -18t-51 -57l-117 80q51 82 116.5 115t152.5 33q44 0 83.5 -7.5t69 -24.5t46.5 -45t17 -69q0 -39 -12.5 -72t-35.5 -64t-56 -61.5t-74 -62.5l-90 -73l229 7l-22 -143h-483z " />
<glyph horiz-adv-x="598" d="M233 -116q-91 0 -154 35t-96 115l144 86q18 -46 44 -66.5t68 -20.5q48 0 80.5 22t32.5 70q0 28 -21 41.5t-69 13.5h-70l22 139h70q45 0 71 21t26 62q0 59 -80 59q-41 0 -66.5 -17t-51.5 -54l-121 76q52 83 121 116t160 33q115 0 173.5 -46t58.5 -124q0 -28 -7.5 -56.5 t-22 -54t-35 -46.5t-47.5 -35q34 -17 52.5 -47t18.5 -75q0 -56 -21.5 -101.5t-60.5 -78t-94.5 -50t-124.5 -17.5z" />
<glyph horiz-adv-x="654" d="M-2 36l20 133l252 432h182l-242 -405h166l38 245h172l-37 -245h77l-25 -160h-76l-21 -136h-173l20 136h-353z" />
<glyph horiz-adv-x="586" d="M254 449l-27 -113q24 11 52.5 16t58.5 5q102 0 155 -46.5t53 -136.5q0 -69 -22 -123t-63 -90.5t-100 -56t-132 -19.5q-87 0 -155 30.5t-102 98.5l140 95q19 -40 47 -59t74 -19q56 0 90 32t34 86q0 38 -25 55t-64 17q-69 0 -112 -42l-115 59l88 362h463l-24 -151h-314z " />
<glyph horiz-adv-x="650" d="M311 -15q-130 0 -198.5 67.5t-68.5 207.5q0 35 3 69t10 65q30 155 118 238t231 83q90 0 155.5 -31.5t86.5 -91.5l-125 -98q-13 35 -39 54t-72 19q-42 0 -72 -15.5t-51 -43.5t-33.5 -66.5t-19.5 -84.5l-3 -21q58 104 184 104q87 0 138 -46t51 -133q0 -57 -18 -107.5 t-54.5 -88t-92 -59t-130.5 -21.5zM339 305q-21 0 -40 -6.5t-33.5 -19t-23.5 -31t-9 -42.5q0 -32 21 -54t62 -22q48 0 76 29.5t28 74.5q0 32 -19 51.5t-62 19.5z" />
<glyph horiz-adv-x="526" d="M71 -100q13 86 40 163.5t65 145t84.5 124.5t99.5 103l-318 -7l25 171h507l-20 -132q-117 -119 -186 -257.5t-91 -310.5h-206z" />
<glyph horiz-adv-x="649" d="M273 -15q-125 0 -188.5 43.5t-63.5 135.5q0 41 11 73.5t30 58t45.5 43.5t56.5 29q-32 20 -49 48.5t-17 76.5q0 56 20.5 98t57.5 69.5t89.5 41t117.5 13.5q112 0 170 -39.5t58 -127.5q0 -65 -29.5 -111t-85.5 -74q86 -38 86 -133q0 -121 -80 -183t-229 -62zM341 429 q39 0 68 23t29 64q0 29 -19.5 45t-54.5 16q-43 0 -71 -22.5t-28 -65.5q0 -29 20.5 -44.5t55.5 -15.5zM291 118q21 0 40.5 6.5t34.5 18.5t23.5 29.5t8.5 39.5q0 34 -22 51t-60 17q-47 0 -77 -25t-30 -70q0 -33 21.5 -50t60.5 -17z" />
<glyph horiz-adv-x="653" d="M316 287q20 0 39 7t34 20t24 32t9 43q0 34 -21 54.5t-62 20.5q-46 0 -75 -28t-29 -76q0 -32 19.5 -52.5t61.5 -20.5zM345 615q131 0 198.5 -68t67.5 -208q0 -35 -3 -69t-10 -66q-30 -155 -118 -237t-233 -82q-91 0 -158.5 26.5t-96.5 82.5l127 102q13 -29 44.5 -46 t79.5 -17q74 0 116.5 48t59.5 160l2 16q-57 -107 -183 -107q-87 0 -138 47t-51 136q0 61 18.5 112.5t56 89t92.5 59t129 21.5z" />
<glyph horiz-adv-x="450" d="M0 0zM214 221q88 0 129 -40.5t41 -121.5q0 -14 -1 -27t-3 -29q-14 -104 -66.5 -160t-155.5 -56q-88 0 -129 40t-41 121q0 13 1.5 26.5t3.5 28.5q14 109 67 163.5t154 54.5zM205 118q-29 0 -49 -25t-31 -89q-2 -15 -3.5 -27.5t-1.5 -23.5q0 -35 12 -49t35 -14 q29 0 49 24.5t31 88.5q2 16 4 28.5t2 23.5q0 35 -12.5 49t-35.5 14z" />
<glyph horiz-adv-x="284" d="M0 0zM164 -200h-133l42 265q-3 -2 -9.5 -5.5t-13.5 -7t-13 -7.5t-9 -5l-31 102l146 73h88z" />
<glyph horiz-adv-x="390" d="M0 0zM-40 -200l13 88l162 122q26 19 42.5 36t16.5 40q0 16 -12.5 21.5t-29.5 5.5q-26 0 -43.5 -11t-36.5 -36l-76 61q36 54 82.5 74t104.5 20q31 0 58.5 -5t48 -17t32.5 -32t12 -50q0 -51 -30.5 -92t-81.5 -79l-52 -40l144 2l-16 -108h-338z" />
<glyph horiz-adv-x="388" d="M0 0zM124 -213q-59 0 -100.5 22t-63.5 72l103 52q13 -23 27.5 -33.5t38.5 -10.5q23 0 39 9t16 29q0 15 -11.5 21.5t-39.5 6.5h-39l15 91h38q25 0 39 11t14 29q0 30 -43 30q-20 0 -35 -9t-30 -30l-83 59q29 42 70.5 63.5t105.5 21.5q80 0 115.5 -28t35.5 -78 q0 -40 -19 -66.5t-50 -45.5q20 -11 32 -28t12 -47q0 -32 -13.5 -57.5t-38.5 -44.5t-59 -29t-76 -10z" />
<glyph horiz-adv-x="437" d="M0 0zM-24 -127l14 89l154 247h130l-147 -229h90l19 116h123l-18 -116h42l-16 -107h-44l-12 -73h-123l12 73h-224z" />
<glyph horiz-adv-x="383" d="M0 0zM135 108l-11 -48q14 4 28.5 6t32.5 2q68 0 100 -29t32 -86q0 -77 -52.5 -121.5t-147.5 -44.5q-55 0 -99 18t-67 60l98 65q13 -23 29 -33t42 -10q29 0 47 13.5t18 39.5q0 22 -14.5 30t-33.5 8q-16 0 -32 -5t-29 -17l-81 39l52 213h299l-16 -100h-195z" />
<glyph horiz-adv-x="418" d="M0 0zM344 -48q0 -35 -11.5 -65t-34.5 -52t-58 -35t-82 -13q-83 0 -126 41.5t-43 124.5q0 45 9 84q18 87 73 135.5t145 48.5q57 0 98.5 -19t55.5 -56l-87 -67q-8 21 -22 31.5t-40 10.5q-48 0 -70 -29.5t-30 -84.5q36 51 106 51q53 0 85 -27t32 -79zM173 -31 q-21 0 -37.5 -12t-16.5 -35q0 -16 10.5 -26.5t32.5 -10.5q25 0 38.5 14.5t13.5 34.5q0 15 -9.5 25t-31.5 10z" />
<glyph horiz-adv-x="355" d="M0 0zM16 -200q15 100 62.5 174.5t111.5 125.5l-193 -4l18 112h331l-15 -83q-36 -38 -64 -75t-48.5 -76t-34 -82t-20.5 -92h-148z" />
<glyph horiz-adv-x="414" d="M0 0zM138 -213q-80 0 -119 26t-39 82q0 47 24 76t59 43q-18 12 -27.5 29.5t-9.5 46.5q0 66 49 98.5t132 32.5q71 0 108 -24t37 -78q0 -37 -17.5 -63.5t-49.5 -44.5q27 -14 38.5 -33.5t11.5 -49.5q0 -70 -51.5 -105.5t-145.5 -35.5zM181 55q21 0 36.5 11t15.5 32 q0 14 -11 22.5t-28 8.5q-23 0 -38 -11t-15 -32q0 -16 11.5 -23.5t28.5 -7.5zM152 -126q23 0 40.5 12.5t17.5 35.5q0 17 -12.5 26t-32.5 9q-26 0 -41.5 -12.5t-15.5 -35.5q0 -35 44 -35z" />
<glyph horiz-adv-x="415" d="M0 0zM174 35q20 0 37 12.5t17 35.5q0 17 -10.5 27t-32.5 10q-24 0 -39 -14t-15 -36q0 -15 10 -25t33 -10zM130 -213q-58 0 -101 16t-62 48l86 71q8 -16 27 -26t46 -10q46 0 68 31t31 80q-20 -29 -45.5 -41t-59.5 -12q-54 0 -85 28t-31 81q0 36 11.5 66.5t34.5 53 t57.5 35.5t80.5 13q84 0 127 -41.5t43 -124.5q0 -45 -9 -84q-19 -87 -73.5 -135.5t-145.5 -48.5z" />
<glyph horiz-adv-x="318" d="M0 0zM146 -143h-96l14 85h-82l10 78h83l14 87h96l-14 -87h83l-11 -78h-83z" />
<glyph horiz-adv-x="318" d="M0 0zM254 20l-11 -78h-261l10 78h262z" />
<glyph horiz-adv-x="318" d="M0 0zM262 70l-11 -79h-260l10 79h261zM247 -32l-11 -79h-261l10 79h262z" />
<glyph horiz-adv-x="238" d="M0 0zM126 -307q-76 7 -111.5 56t-35.5 140q0 16 1 33.5t4 35.5q18 118 72.5 187t150.5 77v-101q-49 -5 -79.5 -43t-44.5 -120q-2 -14 -4 -33.5t-2 -32.5q0 -51 19.5 -72.5t56.5 -25.5z" />
<glyph horiz-adv-x="238" d="M0 0zM15 121l27 101q76 -7 111.5 -56t35.5 -140q0 -16 -1 -33.5t-4 -35.5q-18 -118 -72.5 -187t-150.5 -77v101q49 5 79.5 43t44.5 120q2 14 4 33.5t2 32.5q0 51 -19.5 72.5t-56.5 25.5z" />
<glyph horiz-adv-x="303" d="M200 553q-44 0 -69 17.5t-25 58.5q0 61 34 86.5t84 25.5q93 0 93 -78q0 -55 -30.5 -82.5t-86.5 -27.5zM94 502h191l-79 -502h-190z" />
<glyph horiz-adv-x="596" d="M14 0zM172 -355l-21 66q31 8 56.5 25.5t36.5 43.5q-39 1 -60.5 18.5t-21.5 49.5q0 49 29.5 73.5t77.5 24.5q41 0 64 -21t23 -63t-15 -79.5t-40.5 -66t-58.5 -47.5t-70 -24zM353 0l-120 193l-31 -193h-188l111 700h191l-67 -410l182 212h193l-227 -250l162 -252h-206z" />
<glyph horiz-adv-x="725" d="M46 0zM335 -15q-142 0 -215.5 70t-73.5 213q0 38 6 83q24 187 122 275.5t272 88.5q114 0 177.5 -43.5t83.5 -128.5l-167 -66q-13 39 -39 55.5t-72 16.5q-34 0 -62.5 -10t-51 -33.5t-38.5 -62t-25 -94.5q-4 -21 -5.5 -39.5t-1.5 -34.5q0 -37 8.5 -62t24.5 -40t39 -21.5 t53 -6.5q49 0 85 21.5t49 76.5h-119l24 148h298l-16 -104q-25 -157 -112 -229.5t-244 -72.5zM551 908h111q-6 -42 -22 -70.5t-41.5 -46t-60.5 -24.5t-78 -7t-76 7t-54 24.5t-29.5 46t-2.5 70.5h109q-5 -35 10 -47t52 -12t56.5 12t25.5 47z" />
<glyph horiz-adv-x="725" d="M46 0zM468 820l-65 -52h-143l1 4l144 137h152l100 -137l-1 -4h-140zM335 -15q-142 0 -215.5 70t-73.5 213q0 38 6 83q24 187 122 275.5t272 88.5q114 0 177.5 -43.5t83.5 -128.5l-167 -66q-13 39 -39 55.5t-72 16.5q-34 0 -62.5 -10t-51 -33.5t-38.5 -62t-25 -94.5 q-4 -21 -5.5 -39.5t-1.5 -34.5q0 -37 8.5 -62t24.5 -40t39 -21.5t53 -6.5q49 0 85 21.5t49 76.5h-119l24 148h298l-16 -104q-25 -157 -112 -229.5t-244 -72.5z" />
<glyph horiz-adv-x="725" d="M46 0zM233 -351l-21 66q31 8 56.5 25.5t36.5 43.5q-39 1 -60.5 18.5t-21.5 49.5q0 49 29.5 73.5t77.5 24.5q41 0 64 -21t23 -63t-15 -79.5t-40.5 -66t-58.5 -47.5t-70 -24zM335 -15q-142 0 -215.5 70t-73.5 213q0 38 6 83q24 187 122 275.5t272 88.5q114 0 177.5 -43.5 t83.5 -128.5l-167 -66q-13 39 -39 55.5t-72 16.5q-34 0 -62.5 -10t-51 -33.5t-38.5 -62t-25 -94.5q-4 -21 -5.5 -39.5t-1.5 -34.5q0 -37 8.5 -62t24.5 -40t39 -21.5t53 -6.5q49 0 85 21.5t49 76.5h-119l24 148h298l-16 -104q-25 -157 -112 -229.5t-244 -72.5z" />
<glyph horiz-adv-x="725" d="M46 0zM335 -15q-142 0 -215.5 70t-73.5 213q0 38 6 83q24 187 122 275.5t272 88.5q114 0 177.5 -43.5t83.5 -128.5l-167 -66q-13 39 -39 55.5t-72 16.5q-34 0 -62.5 -10t-51 -33.5t-38.5 -62t-25 -94.5q-4 -21 -5.5 -39.5t-1.5 -34.5q0 -37 8.5 -62t24.5 -40t39 -21.5 t53 -6.5q49 0 85 21.5t49 76.5h-119l24 148h298l-16 -104q-25 -157 -112 -229.5t-244 -72.5zM461 763q-89 0 -89 69q0 53 30.5 76.5t79.5 23.5q43 0 66 -17t23 -54q0 -51 -30 -74.5t-80 -23.5z" />
<glyph horiz-adv-x="751" d="M40 0zM246 -351l-21 66q31 8 56.5 25.5t36.5 43.5q-39 1 -60.5 18.5t-21.5 49.5q0 49 29.5 73.5t77.5 24.5q41 0 64 -21t23 -63t-15 -79.5t-40.5 -66t-58.5 -47.5t-70 -24zM456 0l-168 308l-49 -308h-199l111 700h199l-53 -337l278 337h228l-316 -359l214 -341h-245z" />
<glyph horiz-adv-x="497" d="M463 423l-23 -148h-394l23 148h394z" />
<glyph horiz-adv-x="587" d="M550 423l-23 -148h-481l23 148h481z" />
<glyph horiz-adv-x="785" d="M745 423l-24 -148h-676l24 148h676z" />
<glyph horiz-adv-x="587" d="M550 423l-23 -148h-481l23 148h481z" />
<glyph horiz-adv-x="303" d="M316 700l-111 -700h-189l110 700h190z" />
<glyph horiz-adv-x="724" d="M44 0l57 362h-74l22 140h75l5 27q16 105 77.5 156t150.5 51q16 0 34 -2t35 -5.5t32.5 -10t25.5 -15.5l-49 -119q-10 8 -22.5 11.5t-26.5 3.5q-61 0 -73 -71l-4 -26h123l-22 -140h-123l-57 -362h-186zM721 700l-111 -700h-189l110 700h190z" />
<glyph horiz-adv-x="724" d="M0 0z" />
</font>
</defs>
</svg>
