<?xml version="1.0" standalone="no"?>
<!DOCTYPE svg PUBLIC "-//W3C//DTD SVG 1.1//EN" "http://www.w3.org/Graphics/SVG/1.1/DTD/svg11.dtd" >
<svg xmlns="http://www.w3.org/2000/svg" xmlns:xlink="http://www.w3.org/1999/xlink" version="1.1">
<metadata></metadata>
<defs>
<font id="honeywell_sans_webblack" horiz-adv-x="625" >
<font-face units-per-em="1000" ascent="774" descent="-226" />
<missing-glyph horiz-adv-x="235" />
<glyph unicode="fi" horiz-adv-x="722" d="M460 646q0 50 28 72.5t79 22.5t79 -22.5t28 -72.5q0 -48 -28 -70.5t-79 -22.5t-79 22.5t-28 70.5zM87 0v362h-76v140h76v27q0 54 15 93t41.5 64.5t63.5 37.5t82 12q33 0 72.5 -7.5t63.5 -25.5l-34 -119q-13 8 -27 11.5t-29 3.5q-58 0 -58 -71v-26h125v-140h-125v-362 h-190zM470 502h194v-502h-194v502z" />
<glyph unicode="fl" horiz-adv-x="741" d="M87 0v362h-76v140h76v27q0 54 15 93t42.5 64.5t65.5 37.5t83 12q43 0 75.5 -11t51.5 -25l-34 -119q-11 6 -24 10.5t-27 4.5q-30 0 -44 -16t-14 -52v-26h125v-140h-125v-362h-190zM628 0q-83 0 -121 38.5t-38 116.5v545h194v-526q0 -21 7.5 -30t23.5 -9h33v-135h-99z" />
<glyph horiz-adv-x="235" />
<glyph horiz-adv-x="235" />
<glyph unicode="&#xd;" horiz-adv-x="235" />
<glyph unicode=" "  horiz-adv-x="235" />
<glyph unicode="&#x09;" horiz-adv-x="235" />
<glyph unicode="&#xa0;" horiz-adv-x="235" />
<glyph unicode="!" horiz-adv-x="270" d="M232 701l-29 -472h-136l-29 472h194zM33 86q0 48 26 71.5t76 23.5q49 0 75.5 -23.5t26.5 -71.5q0 -46 -26.5 -70t-75.5 -24q-50 0 -76 23.5t-26 70.5z" />
<glyph unicode="&#x22;" horiz-adv-x="437" d="M248 413l-12 302h158l-25 -302h-121zM190 413h-121l-25 302h157z" />
<glyph unicode="#" horiz-adv-x="792" d="M364 402l-29 -97h100l28 97h-99zM71 402l35 128h107l48 170h185l-48 -170h100l48 170h186l-48 -170h108l-35 -128h-108l-28 -97h110l-35 -128h-110l-50 -177h-186l49 177h-98l-49 -177h-187l50 177h-106l36 128h105l28 97h-107z" />
<glyph unicode="$" horiz-adv-x="609" d="M210 503q0 -23 14 -37t43 -24v114q-32 -5 -44.5 -19t-12.5 -34zM408 196q0 18 -13 31t-45 24v-110q58 11 58 55zM267 -62v62q-76 5 -138.5 34.5t-102.5 95.5l121 94q43 -71 120 -83v130l-11 3q-102 23 -159 77.5t-57 144.5q0 86 56.5 141.5t170.5 63.5v65h83v-67 q69 -7 123.5 -36t88.5 -89l-124 -86q-19 26 -39 42t-49 23v-133l20 -5q63 -15 104.5 -35t66 -45.5t34.5 -56.5t10 -66q0 -95 -58.5 -149.5t-176.5 -62.5v-62h-83z" />
<glyph unicode="%" horiz-adv-x="1087" d="M26 0zM662 203q0 109 47 164t152 55q104 0 151.5 -55t47.5 -164t-47 -163.5t-152 -54.5t-152 54.5t-47 163.5zM924 203q0 65 -16.5 90t-46.5 25t-46.5 -24.5t-16.5 -89.5t16.5 -90t46.5 -25t46.5 24.5t16.5 89.5zM26 496q0 109 47 164t152 55q104 0 151.5 -55t47.5 -164 t-47 -163.5t-152 -54.5t-152 54.5t-47 163.5zM288 496q0 65 -16.5 90t-46.5 25t-46.5 -24.5t-16.5 -89.5t16.5 -90t46.5 -25t46.5 24.5t16.5 89.5zM800 700l-350 -700h-166l352 700h164z" />
<glyph unicode="&#x26;" horiz-adv-x="740" d="M563 487h154q0 -99 -19.5 -182t-58.5 -146q20 -14 41.5 -27.5t45.5 -27.5l-84 -127q-6 4 -22.5 14t-35.5 21.5t-35 22t-21 13.5q-95 -63 -236 -63q-59 0 -107.5 11.5t-83.5 35t-54 59.5t-19 86q0 36 9.5 64.5t26 52t38.5 42.5t47 36q-35 49 -49 88.5t-14 71.5 q0 88 55 135.5t164 47.5q101 0 150 -40t49 -115q0 -67 -33.5 -116t-100.5 -94q26 -24 60.5 -51.5t79.5 -58.5q26 47 40 109t13 138zM237 531q0 -16 7.5 -37.5t29.5 -50.5q44 27 63 48t19 49q0 50 -57 50q-62 0 -62 -59zM302 114q52 0 93 26q-50 37 -89 69.5t-69 62.5 q-21 -15 -34 -33t-13 -44q0 -35 27.5 -58t84.5 -23z" />
<glyph unicode="'" horiz-adv-x="244" d="M62 413l-18 302h157l-18 -302h-121z" />
<glyph unicode="(" horiz-adv-x="376" d="M355 -10l-16 -157q-158 11 -234 125t-76 322q0 209 74.5 322t230.5 124l21 -156q-41 -5 -72 -21.5t-52 -50.5t-32 -87t-11 -131t11 -131.5t32 -87.5t52 -50.5t72 -20.5z" />
<glyph unicode=")" horiz-adv-x="376" d="M21 -10q41 4 72 20.5t52 50.5t32 87.5t11 131.5t-11 131t-32 87t-52 50.5t-72 21.5l21 156q156 -11 230.5 -124t74.5 -322q0 -208 -76 -322t-234 -125z" />
<glyph unicode="*" horiz-adv-x="451" d="M161 313l-111 89l63 77l-90 25l36 131l95 -31l-7 111h153l-6 -111l96 31l36 -133l-90 -23l63 -77l-112 -89l-63 89z" />
<glyph unicode="+" horiz-adv-x="512" d="M317 110h-122v149h-145v104h145v152h122v-152h145v-104h-145v-149z" />
<glyph unicode="," horiz-adv-x="270" d="M73 -160l-39 78q31 9 53.5 27.5t33.5 48.5q-45 3 -67 27t-22 65q0 48 27 71.5t76 23.5t77 -27.5t28 -87.5q0 -91 -43 -148.5t-124 -77.5z" />
<glyph unicode="-" horiz-adv-x="500" d="M451 345v-148h-401v148h401z" />
<glyph unicode="." horiz-adv-x="270" d="M33 86q0 48 26.5 71.5t75.5 23.5t75.5 -23.5t26.5 -71.5q0 -46 -26.5 -70t-75.5 -24t-75.5 23.5t-26.5 70.5z" />
<glyph unicode="/" horiz-adv-x="584" d="M583 700l-368 -700h-213l367 700h214z" />
<glyph unicode="0" d="M21 350q0 186 74 275.5t217 89.5t217 -89.5t74 -275.5q0 -185 -76.5 -275t-214.5 -90q-143 0 -217 89.5t-74 275.5zM423 350q0 60 -7.5 101t-21.5 65.5t-34.5 35t-47.5 10.5t-47.5 -11t-34.5 -36t-21.5 -65.5t-7.5 -99.5t7.5 -100t21.5 -66t34.5 -36t46.5 -11q27 0 48 11 t35 36t21.5 66t7.5 100z" />
<glyph unicode="1" d="M67 0v162h154v318l-74 -46l-70 154l209 121h125v-547h149v-162h-493z" />
<glyph unicode="2" d="M45 0v137l226 203q20 18 38 35t31 34t20.5 35t7.5 38q0 40 -24 55.5t-62 15.5q-52 0 -81 -21.5t-53 -66.5l-127 92q46 88 116.5 123t166.5 35q53 0 100 -10t82 -34t55.5 -63.5t20.5 -97.5q0 -75 -36.5 -135t-107.5 -126l-100 -92l270 6v-163h-543z" />
<glyph unicode="3" d="M314 -15q-94 0 -163.5 33t-114.5 112l133 88q26 -47 56 -65.5t75 -18.5q47 0 74.5 18t27.5 59q0 35 -24 52t-78 17h-72v139h72q88 0 88 68q0 37 -24 55t-69 18q-43 0 -67 -18t-45 -55l-132 74q42 84 107.5 119t159.5 35q128 0 193 -54t65 -147q0 -57 -23.5 -94t-65.5 -62 q47 -23 74 -59t27 -98q0 -49 -18.5 -89t-53.5 -68t-86 -43.5t-116 -15.5z" />
<glyph unicode="4" d="M19 136v154l226 410h183l-218 -402h145v120h181v-120h67v-162h-67v-136h-181v136h-336z" />
<glyph unicode="5" d="M246 548l-10 -112q24 11 54 16t63 5q117 0 179.5 -57.5t62.5 -166.5q0 -120 -72.5 -184t-214.5 -64q-88 0 -160.5 28.5t-117.5 97.5l130 97q26 -40 58 -59.5t77 -19.5q54 0 82.5 26t28.5 72q0 50 -29.5 71t-74.5 21q-38 0 -64.5 -9.5t-46.5 -30.5l-125 59l31 362h472 v-152h-323z" />
<glyph unicode="6" d="M339 -15q-150 0 -231.5 88.5t-81.5 273.5q0 88 19 156.5t58 115.5t98 71.5t139 24.5q89 0 157 -29t98 -89l-115 -102q-7 13 -16.5 26t-24.5 23t-35 16.5t-48 6.5q-75 0 -110 -49.5t-35 -160.5v-20q20 46 63.5 75t108.5 29q48 0 87.5 -14t68 -41.5t44.5 -68.5t16 -95 q0 -51 -16 -94.5t-48 -75t-81 -49.5t-115 -18zM232 219q0 -39 24.5 -63.5t66.5 -24.5q44 0 68.5 23t24.5 65q0 39 -21.5 63.5t-67.5 24.5q-39 0 -67 -21.5t-28 -66.5z" />
<glyph unicode="7" d="M160 0q0 85 16.5 162.5t45.5 145t69.5 125t88.5 103.5l-335 -7v171h535v-130q-48 -60 -85.5 -119t-64 -125.5t-40 -146t-13.5 -179.5h-217z" />
<glyph unicode="8" d="M311 -15q-140 0 -211.5 53t-71.5 159q0 65 29.5 107t84.5 62q-42 22 -65 59t-23 90q0 105 65 152.5t193 47.5t193 -47.5t65 -152.5q0 -53 -23 -90t-65 -59q54 -20 84 -61.5t30 -107.5q0 -212 -285 -212zM401 504q0 35 -23.5 54t-63.5 19q-43 0 -67 -19t-24 -54t24 -54 t66 -19q40 0 64 19t24 54zM409 200q0 38 -26.5 59.5t-68.5 21.5q-45 0 -72 -21.5t-27 -59.5q0 -41 26.5 -61t71.5 -20q43 0 69.5 20t26.5 61z" />
<glyph unicode="9" d="M393 478q0 39 -24 63.5t-66 24.5q-44 0 -68.5 -23.5t-24.5 -66.5q0 -39 21 -63.5t68 -24.5q39 0 66.5 22.5t27.5 67.5zM288 -15q-45 0 -85.5 6.5t-74 19.5t-60 33t-42.5 48l112 104q18 -29 52.5 -46t82.5 -17q75 0 109.5 48.5t34.5 158.5v19q-19 -47 -62 -75.5 t-106 -28.5q-49 0 -89 14t-69 42t-45 70t-16 97q0 52 15.5 95.5t48 75t81 49t114.5 17.5q150 0 231.5 -88.5t81.5 -273.5q0 -175 -76.5 -271.5t-237.5 -96.5z" />
<glyph unicode=":" horiz-adv-x="270" d="M33 0zM33 86q0 48 26.5 71.5t75.5 23.5t75.5 -23.5t26.5 -71.5q0 -46 -26.5 -70t-75.5 -24t-75.5 23.5t-26.5 70.5zM33 408q0 48 26.5 71.5t75.5 23.5t75.5 -23.5t26.5 -71.5q0 -46 -26.5 -70t-75.5 -24t-75.5 23.5t-26.5 70.5z" />
<glyph unicode=";" horiz-adv-x="270" d="M32 0zM73 -160l-39 78q31 9 53.5 27.5t33.5 48.5q-45 3 -67 27t-22 65q0 48 27 71.5t76 23.5t77 -27.5t28 -87.5q0 -91 -43 -148.5t-124 -77.5zM33 408q0 48 26.5 71.5t75.5 23.5t75.5 -23.5t26.5 -71.5q0 -46 -26.5 -70t-75.5 -24t-75.5 23.5t-26.5 70.5z" />
<glyph unicode="&#x3c;" horiz-adv-x="507" d="M364 550l68 -89l-211 -150l214 -150l-71 -93l-291 206v69z" />
<glyph unicode="=" horiz-adv-x="512" d="M462 437v-104h-412v104h412zM462 285v-104h-412v104h412z" />
<glyph unicode="&#x3e;" horiz-adv-x="507" d="M145 68l-68 89l212 149l-215 151l71 93l291 -207v-68z" />
<glyph unicode="?" horiz-adv-x="524" d="M176 229l-9 185h65q51 0 77 21t26 67q0 34 -24.5 56.5t-78.5 22.5q-40 0 -69.5 -18t-51.5 -67l-115 74q37 75 102 114.5t159 39.5q124 0 187 -52t63 -159q0 -49 -13.5 -86t-37.5 -62.5t-57.5 -40.5t-72.5 -19l-7 -76h-143zM141 86q0 48 26.5 71.5t75.5 23.5t75.5 -23.5 t26.5 -71.5q0 -46 -26.5 -70t-75.5 -24t-75.5 23.5t-26.5 70.5z" />
<glyph unicode="@" horiz-adv-x="814" d="M684 -7q-45 -48 -113 -74.5t-156 -26.5q-84 0 -150 25t-111.5 71t-69.5 110.5t-24 143.5t24 143.5t69.5 110t111.5 70.5t150 25q82 0 145 -24t106 -67.5t65 -104.5t22 -136q0 -90 -46.5 -137.5t-129.5 -47.5q-81 0 -106 51q-17 -27 -46.5 -42.5t-69.5 -15.5 q-53 0 -85.5 26.5t-32.5 74.5q0 30 11.5 52t32 36t48.5 21t61 7h59q-2 29 -21 38t-47 9q-30 0 -54 -9t-40 -27l-44 72q26 30 67 45.5t93 15.5q36 0 67.5 -8t54.5 -25.5t36 -46t13 -70.5v-88q0 -26 9.5 -38.5t32.5 -12.5q34 0 55.5 29t21.5 91q0 70 -20.5 122.5t-57.5 86.5 t-88 51t-112 17q-65 0 -119 -18t-93 -54.5t-60.5 -92t-21.5 -129.5q0 -75 21.5 -130t60.5 -91t93 -54t119 -18q71 0 129.5 21t98.5 65zM389 145q28 0 43.5 17t16.5 46v7h-49q-26 0 -38.5 -8t-12.5 -28q0 -34 40 -34z" />
<glyph unicode="A" horiz-adv-x="721" d="M357 502l-78 -258h156zM508 0l-29 94h-244l-28 -94h-200l233 700h241l233 -700h-206z" />
<glyph unicode="B" horiz-adv-x="721" d="M84 0v700h377q54 0 93.5 -14t65 -39t38 -59.5t12.5 -76.5q0 -49 -23.5 -86.5t-65.5 -57.5q28 -8 48 -24.5t32.5 -38.5t18.5 -48.5t6 -53.5q0 -202 -235 -202h-367zM411 553h-132v-133h130q34 0 50 19t16 47q0 32 -17.5 49.5t-46.5 17.5zM423 279h-144v-135h138 q37 0 54.5 18.5t17.5 50.5q0 29 -16 47.5t-50 18.5z" />
<glyph unicode="C" horiz-adv-x="714" d="M394 -15q-179 0 -263 91t-84 275q0 189 88 276.5t267 87.5q110 0 182 -40t107 -131l-162 -78q-22 47 -50.5 65t-79.5 18q-35 0 -63 -9.5t-47 -32.5t-29 -62t-10 -98q0 -57 10 -96t29.5 -62t47.5 -33t64 -10q48 0 81 21t52 69l164 -75q-36 -84 -110 -130t-194 -46z" />
<glyph unicode="D" horiz-adv-x="775" d="M388 0h-304v700h320q168 0 246.5 -84.5t78.5 -260.5q0 -173 -83 -264t-258 -91zM286 160h86q36 0 64.5 10t48.5 32.5t30.5 59.5t10.5 90q0 97 -34 142.5t-103 45.5h-103v-380z" />
<glyph unicode="E" horiz-adv-x="693" d="M84 0v700h553v-155h-356v-113h306v-157h-306v-119h366v-156h-563z" />
<glyph unicode="F" horiz-adv-x="635" d="M84 0v700h543v-161h-341v-124h292v-165h-292v-250h-202z" />
<glyph unicode="G" horiz-adv-x="754" d="M365 -15q-73 0 -132 22.5t-100 68t-63.5 114t-22.5 161.5q0 187 88.5 275.5t266.5 88.5q108 0 178 -37t104 -122l-162 -82q-21 43 -48 59t-74 16q-37 0 -65 -10t-47 -33.5t-28.5 -61.5t-9.5 -95q0 -58 10 -97t29.5 -63t48.5 -34t66 -10q45 0 80 23t42 75h-122v148h303 v-391h-137l-12 79q-27 -44 -75.5 -69t-117.5 -25z" />
<glyph unicode="H" horiz-adv-x="825" d="M538 0v263h-252v-263h-202v700h202v-266h252v266h202v-700h-202z" />
<glyph unicode="I" horiz-adv-x="371" d="M84 0v700h202v-700h-202z" />
<glyph unicode="J" horiz-adv-x="561" d="M196 -15q-50 0 -104.5 15.5t-99.5 53.5l79 137q25 -22 56.5 -33t61.5 -11q48 0 75 26.5t27 92.5v434h202v-436q0 -77 -22 -130t-61.5 -86t-94 -48t-119.5 -15z" />
<glyph unicode="K" horiz-adv-x="759" d="M84 0v700h202l-1 -298l231 298h237l-257 -310l251 -390h-243l-147 244l-71 -80v-164h-202z" />
<glyph unicode="L" horiz-adv-x="652" d="M287 166h340v-166h-543v700h203v-534z" />
<glyph unicode="M" horiz-adv-x="1003" d="M426 0l-168 386l8 -386h-182v700h216l199 -470l197 470h222v-700h-189l9 403l-172 -403h-140z" />
<glyph unicode="N" horiz-adv-x="821" d="M567 0l-298 382l5 -382h-190v700h150l317 -415l-4 415h190v-700h-170z" />
<glyph unicode="O" horiz-adv-x="798" d="M398 -15q-185 0 -268 92t-83 274q0 183 86 273.5t267 90.5q93 0 160 -23t109.5 -69t62.5 -114t20 -159q0 -183 -86.5 -274t-267.5 -91zM399 550q-38 0 -65.5 -10.5t-46.5 -34t-28 -62t-9 -94.5q0 -55 9.5 -93t28 -62t46 -34.5t64.5 -10.5t65 10.5t46.5 34.5t27.5 62.5 t9 94.5q0 55 -9 93t-27.5 61.5t-46 34t-64.5 10.5z" />
<glyph unicode="P" horiz-adv-x="715" d="M84 0v700h355q62 0 108.5 -19t78 -53.5t47 -82t15.5 -105.5q0 -62 -19.5 -109t-55 -79.5t-86 -49t-112.5 -16.5h-129v-186h-202zM400 531h-114v-183h115q42 0 65 24.5t23 70.5q0 16 -5 32t-15.5 28.5t-27.5 20t-41 7.5z" />
<glyph unicode="Q" horiz-adv-x="797" d="M626 43l76 -129h-170l-46 77q-41 -6 -88 -6q-185 0 -268 92t-83 274q0 183 86 273.5t267 90.5q93 0 160 -23t109.5 -69t62.5 -114t20 -159q0 -220 -126 -307zM399 555q-38 0 -65.5 -11t-46.5 -35.5t-28 -64t-9 -97.5q0 -56 9 -94.5t27.5 -62.5t46 -35t63.5 -11l-61 104 h172l18 -32q22 47 22 133q0 113 -37.5 159.5t-110.5 46.5z" />
<glyph unicode="R" horiz-adv-x="733" d="M416 536h-134v-165h131q38 0 60 21.5t22 62.5q0 33 -18 57t-61 24zM84 0v700h373q60 0 104.5 -17.5t74.5 -49t45 -76t15 -97.5q0 -75 -28.5 -127.5t-80.5 -81.5l114 -251h-221l-88 213h-110v-213h-198z" />
<glyph unicode="S" horiz-adv-x="641" d="M588 582l-129 -91q-26 37 -56.5 55.5t-80.5 18.5q-54 0 -75.5 -17t-21.5 -42t21 -40t73 -26l64 -14q65 -14 107.5 -35.5t67.5 -49.5t35 -61t10 -70q0 -51 -19 -92.5t-56.5 -71t-93 -45.5t-129.5 -16q-43 0 -85 6.5t-79.5 22.5t-68.5 42t-52 65l123 96q27 -48 65 -69 t96 -21q53 0 82.5 15.5t29.5 45.5q0 25 -17.5 38.5t-66.5 24.5l-69 16q-63 15 -105 38.5t-66.5 53t-35 63t-10.5 67.5q0 50 18 91.5t52.5 71.5t86 46.5t118.5 16.5q87 0 156.5 -29.5t110.5 -103.5z" />
<glyph unicode="T" horiz-adv-x="645" d="M15 700h615v-170h-207v-530h-201v530h-207v170z" />
<glyph unicode="U" horiz-adv-x="781" d="M512 279v421h201v-410q0 -83 -22 -141t-63 -94.5t-100.5 -53t-135.5 -16.5q-158 0 -241 71.5t-83 233.5v410h201v-421q0 -63 31.5 -95.5t90.5 -32.5t90 32.5t31 95.5z" />
<glyph unicode="V" horiz-adv-x="719" d="M6 700h210l146 -480l148 480h203l-237 -700h-234z" />
<glyph unicode="W" horiz-adv-x="997" d="M415 699h172l106 -427l101 428h198l-196 -700h-198l-101 419l-103 -419h-193l-195 700h205l97 -424z" />
<glyph unicode="X" horiz-adv-x="727" d="M482 0l-130 214l-128 -214h-217l234 352l-222 348h237l119 -218l117 218h217l-227 -343l238 -357h-238z" />
<glyph unicode="Y" horiz-adv-x="718" d="M258 251l-251 449h224l135 -275l133 275h212l-251 -455v-245h-202v251z" />
<glyph unicode="Z" horiz-adv-x="634" d="M21 0v120l332 423l-320 -4v161h567v-118l-330 -425l339 4v-161h-588z" />
<glyph unicode="[" horiz-adv-x="367" d="M60 -174v891h286v-139h-112v-613h113v-139h-287z" />
<glyph unicode="\" horiz-adv-x="586" d="M369 0l-367 700h212l367 -700h-212z" />
<glyph unicode="]" horiz-adv-x="367" d="M20 -174v139h113v613h-112v139h286v-891h-287z" />
<glyph unicode="^" horiz-adv-x="520" d="M172 700h176l147 -339v-4h-156l-83 211l-82 -211h-149v4z" />
<glyph unicode="_" horiz-adv-x="480" d="M485 0v-146h-490v146h490z" />
<glyph unicode="`" horiz-adv-x="600" d="M243 570l-136 134v7h206l81 -136v-5h-151z" />
<glyph unicode="a" horiz-adv-x="589" d="M264 101q38 0 60 23.5t22 67.5v13h-63q-79 0 -79 -56q0 -23 15 -35.5t45 -12.5zM200 -14q-76 0 -122 37.5t-46 108.5q0 43 17 75.5t47.5 54.5t72 32.5t90.5 10.5h86q-3 42 -28.5 56t-63.5 14q-49 0 -84 -14t-60 -40l-66 107q39 44 100.5 66t141.5 22q53 0 99 -11 t79.5 -36.5t53 -67.5t19.5 -104v-297h-163l-12 67q-24 -38 -64 -59.5t-97 -21.5z" />
<glyph unicode="b" horiz-adv-x="642" d="M251 700v-263q28 42 68.5 60.5t88.5 18.5q92 0 146 -63.5t54 -191.5q0 -62 -14 -113t-42.5 -87t-71 -56t-98.5 -20q-57 0 -100.5 21t-69.5 60l-10 -66h-145v700h194zM247 247q0 -63 23.5 -92.5t64.5 -29.5q88 0 88 123q0 68 -23.5 96.5t-63.5 28.5q-41 0 -65 -29t-24 -97 z" />
<glyph unicode="c" horiz-adv-x="546" d="M297 -15q-60 0 -108.5 15t-83 47t-53 82t-18.5 121q0 139 72 202.5t200 63.5q80 0 134.5 -26t87.5 -85l-132 -96q-15 32 -36 43.5t-50 11.5q-44 0 -67.5 -24t-23.5 -91q0 -57 19.5 -89t69.5 -32q72 0 94 58l131 -75q-32 -61 -89 -93.5t-147 -32.5z" />
<glyph unicode="d" horiz-adv-x="641" d="M394 250q0 68 -25.5 96.5t-65.5 28.5q-39 0 -61.5 -29t-22.5 -97q0 -121 85 -121q40 0 65 29.5t25 92.5zM423 0l-10 73q-25 -42 -66.5 -65t-101.5 -23q-47 0 -86 16.5t-67 48.5t-43.5 80.5t-15.5 112.5q0 68 16.5 119t45.5 85.5t70 51.5t89 17q46 0 80 -16t57 -45v245 h194v-700h-162z" />
<glyph unicode="e" horiz-adv-x="580" d="M305 -15q-62 0 -112 16t-85.5 48.5t-55 81.5t-19.5 115q0 63 18 113t52 85t83 53.5t112 18.5q66 0 113 -20.5t77 -55.5t43.5 -82t13.5 -101q0 -14 -1 -28t-3 -30h-326q7 -46 34.5 -66t72.5 -20q35 0 59.5 12t40.5 40l112 -71q-32 -55 -90.5 -82t-138.5 -27zM296 384 q-34 0 -55.5 -20.5t-26.5 -61.5h156q-2 39 -20.5 60.5t-53.5 21.5z" />
<glyph unicode="f" horiz-adv-x="412" d="M11 502h76v27q0 54 15 93t42.5 64.5t65 37.5t82.5 12q16 0 35 -2t37.5 -5.5t35 -10t28.5 -15.5l-34 -119q-12 8 -26.5 11.5t-28.5 3.5q-62 0 -62 -71v-26h125v-140h-125v-362h-190v362h-76v140z" />
<glyph unicode="g" horiz-adv-x="638" d="M390 263q0 55 -24.5 83.5t-64.5 28.5q-41 0 -63 -28t-22 -85q0 -60 21.5 -88t63.5 -28t65.5 30t23.5 87zM582 502v-474q0 -64 -22 -111t-61.5 -78t-94 -46.5t-118.5 -15.5q-37 0 -73 5.5t-67 18.5t-56 32.5t-40 48.5l102 94q22 -35 54.5 -50t70.5 -15q54 0 82.5 28 t28.5 85v62q-23 -38 -59 -58t-89 -20q-46 0 -84.5 15.5t-66 46.5t-42.5 78.5t-15 110.5q0 64 16 112.5t45.5 80.5t70 48t89.5 16q54 0 94.5 -20.5t64.5 -62.5l14 69h156z" />
<glyph unicode="h" horiz-adv-x="654" d="M251 700v-287q26 50 70.5 76.5t99.5 26.5q47 0 81 -15t56 -42t32.5 -63.5t10.5 -79.5v-316h-194v247q0 58 -18 79t-54 21t-59.5 -25t-24.5 -78v-244h-194v700h194z" />
<glyph unicode="i" horiz-adv-x="309" d="M47 646q0 50 28 72.5t80 22.5q51 0 78.5 -22.5t27.5 -72.5q0 -48 -27.5 -70.5t-78.5 -22.5q-52 0 -80 22.5t-28 70.5zM58 502h194v-502h-194v502z" />
<glyph unicode="j" horiz-adv-x="309" d="M47 646q0 50 28 72.5t80 22.5q51 0 78.5 -22.5t27.5 -72.5q0 -48 -27.5 -70.5t-78.5 -22.5q-52 0 -80 22.5t-28 70.5zM58 -13v515h194v-525q0 -51 -15.5 -88.5t-44 -62.5t-67.5 -37t-86 -12q-29 0 -62 6t-60 20l31 122q21 -11 50 -11q32 0 46 16.5t14 56.5z" />
<glyph unicode="k" horiz-adv-x="614" d="M57 0v700h194l-6 -407l158 209h205l-183 -222l186 -280h-211l-101 156l-51 -58v-98h-191z" />
<glyph unicode="l" horiz-adv-x="328" d="M216 0q-83 0 -121 38.5t-38 116.5v545h194v-526q0 -21 7.5 -30t23.5 -9h33v-135h-99z" />
<glyph unicode="m" horiz-adv-x="964" d="M57 0v502h158l16 -85q28 48 73 73.5t99 25.5q65 0 102.5 -32.5t51.5 -80.5q25 54 71 83.5t107 29.5q46 0 79.5 -15t54.5 -41.5t31 -62.5t10 -79v-318h-194v255q0 48 -13.5 69.5t-45.5 21.5t-54 -22.5t-22 -73.5v-250h-194v254q0 49 -15 70.5t-47 21.5t-52.5 -22.5 t-21.5 -73.5v-250h-194z" />
<glyph unicode="n" horiz-adv-x="654" d="M57 502h159l15 -89q29 49 76 76t107 27q50 0 85.5 -15t58 -42t33 -63.5t10.5 -79.5v-316h-194v247q0 58 -18 79t-54 21t-59.5 -25t-24.5 -78v-244h-194v502z" />
<glyph unicode="o" horiz-adv-x="616" d="M34 251q0 68 19 118t54.5 82.5t86 48.5t114.5 16q138 0 206 -64t68 -201q0 -132 -69.5 -199t-204.5 -67q-274 0 -274 266zM399 250q0 64 -21 93.5t-70 29.5q-50 0 -71 -29.5t-21 -93.5q0 -66 22 -95.5t70 -29.5t69.5 29.5t21.5 95.5z" />
<glyph unicode="p" horiz-adv-x="642" d="M247 247q0 -62 24.5 -92t62.5 -30q89 0 89 123q0 68 -23 96.5t-65 28.5q-38 0 -63 -29t-25 -97zM57 502h160l15 -86q29 49 75.5 74.5t98.5 25.5q98 0 150 -65.5t52 -190.5q0 -62 -14 -112.5t-42.5 -86.5t-71.5 -56t-101 -20q-82 0 -128 49v-220h-194v688z" />
<glyph unicode="q" horiz-adv-x="642" d="M585 -186h-194v236q-51 -65 -143 -65q-96 0 -155 64.5t-59 192.5q0 70 16.5 122t46 85.5t70 50t89.5 16.5q55 0 95.5 -20.5t64.5 -62.5l13 69h156v-688zM395 250q0 68 -25.5 96.5t-65.5 28.5q-39 0 -61.5 -29t-22.5 -96q0 -122 84 -122q41 0 66 29.5t25 92.5z" />
<glyph unicode="r" horiz-adv-x="427" d="M57 0v502h159l16 -97q26 53 71 83t103 30l2 -184q-81 5 -118.5 -38.5t-38.5 -116.5v-179h-194z" />
<glyph unicode="s" horiz-adv-x="510" d="M242 103q71 0 71 27q0 16 -17 23t-51 14l-46 9q-34 7 -63.5 20t-51.5 33t-34.5 46.5t-12.5 61.5q0 38 13 71t40 57t68.5 37.5t98.5 13.5q72 0 127 -20.5t93 -68.5l-91 -93q-20 23 -49 40t-75 17q-29 0 -46 -7.5t-17 -24.5q0 -12 12.5 -22t42.5 -16l63 -12q86 -17 124 -57 t38 -94q0 -33 -12.5 -64t-40 -55t-72.5 -38.5t-110 -14.5q-81 0 -141.5 23t-92.5 69l83 92q23 -32 62 -49.5t87 -17.5z" />
<glyph unicode="t" horiz-adv-x="432" d="M13 502h71v140h190v-140h129v-140h-129v-173q0 -67 64 -67q35 0 62 14l25 -115q-29 -17 -65 -26.5t-79 -9.5q-40 0 -76 9t-63 30t-42.5 56.5t-15.5 89.5v192h-71v140z" />
<glyph unicode="u" horiz-adv-x="650" d="M435 0l-15 83q-27 -48 -72.5 -73t-101.5 -25q-52 0 -88.5 15t-60 40.5t-34 60.5t-10.5 75v326h194v-267q0 -48 16.5 -69.5t54.5 -21.5q32 0 56 25.5t25 76.5v256h193v-502h-157z" />
<glyph unicode="v" horiz-adv-x="595" d="M7 502h200l95 -301l88 301h198l-192 -502h-198z" />
<glyph unicode="w" horiz-adv-x="813" d="M337 501h145l83 -276l70 277h173l-155 -502h-167l-79 285l-79 -285h-166l-157 502h178l73 -275z" />
<glyph unicode="x" horiz-adv-x="588" d="M16 502h209l78 -137l77 137h193l-169 -252l181 -250h-210l-88 137l-90 -137h-193l182 254z" />
<glyph unicode="y" horiz-adv-x="595" d="M189 -29l10 31l-194 500h200l96 -293l90 293h199l-230 -594q-15 -37 -36.5 -62t-49.5 -40t-62 -21.5t-72 -6.5t-66.5 5.5t-54.5 16.5l17 134q21 -10 40 -14t36 -4q58 0 77 55z" />
<glyph unicode="z" horiz-adv-x="519" d="M27 0v106l230 256h-226v140h451v-112l-227 -251h236v-139h-464z" />
<glyph unicode="{" horiz-adv-x="396" d="M352 -166q-48 1 -89.5 12.5t-72 32.5t-48 52t-17.5 72q0 35 3.5 65t3.5 62q0 44 -27.5 63t-80.5 19h-21v138h21q53 0 80.5 19.5t27.5 62.5q0 32 -3.5 62t-3.5 65q0 40 17.5 71.5t48 52.5t72 32.5t89.5 12.5l23 -152q-45 1 -68 -20t-23 -62q0 -26 3.5 -50.5t3.5 -52.5 q0 -36 -21.5 -63.5t-60.5 -46.5q39 -20 60.5 -47.5t21.5 -62.5q0 -27 -3.5 -52t-3.5 -51q0 -41 23 -62t68 -20z" />
<glyph unicode="|" horiz-adv-x="324" d="M75 -65v831h175v-831h-175z" />
<glyph unicode="}" horiz-adv-x="396" d="M20 -14q45 -1 68 20t23 62q0 26 -3.5 51t-3.5 52q0 35 21.5 62.5t60.5 47.5q-39 19 -60.5 46.5t-21.5 63.5q0 28 3.5 52.5t3.5 50.5q0 41 -23 62t-68 20l23 152q48 -1 89.5 -12.5t72 -32.5t48 -52.5t17.5 -71.5q0 -35 -3.5 -65t-3.5 -62q0 -43 27.5 -62.5t80.5 -19.5h21 v-138h-21q-53 0 -80.5 -19t-27.5 -63q0 -32 3.5 -62t3.5 -65q0 -41 -17.5 -72t-48 -52t-72 -32.5t-89.5 -12.5z" />
<glyph unicode="~" horiz-adv-x="576" d="M422 430l129 -21q-6 -85 -50 -127.5t-110 -42.5q-29 0 -55 8t-49.5 17t-45 17t-42.5 8q-19 0 -31 -11t-14 -39l-129 21q6 85 50 127.5t111 42.5q29 0 54.5 -8t49 -17t45 -17t42.5 -8q20 0 31.5 11t13.5 39z" />
<glyph unicode="&#xa1;" horiz-adv-x="270" d="M38 -189l29 472h136l29 -472h-194zM237 426q0 -48 -26 -71.5t-76 -23.5q-49 0 -75.5 23.5t-26.5 71.5q0 46 26.5 70t75.5 24q50 0 76 -23.5t26 -70.5z" />
<glyph unicode="&#xa2;" horiz-adv-x="551" d="M263 -62v65q-106 8 -163.5 69t-57.5 185q0 123 56 185t165 72v66h84v-66q123 -13 174 -111l-116 -79q-22 38 -58 47v-229q43 10 61 52l120 -64q-26 -55 -72.5 -86.5t-108.5 -39.5v-66h-84zM207 255q0 -48 13.5 -75t42.5 -36v225q-30 -9 -43 -36t-13 -78z" />
<glyph unicode="&#xa3;" horiz-adv-x="649" d="M29 0v153h30q41 0 38 84l-2 43h-66v119h62l-3 79q-2 71 21 117t62 72.5t89 37t100 10.5q47 0 84 -7.5t67 -25t54.5 -45.5t45.5 -68l-131 -92q-20 37 -44.5 58t-66.5 21q-49 0 -69 -26t-18 -74l2 -57h146v-119h-139l1 -45v-20q0 -11 -1.5 -23t-3.5 -23t-6 -17h131 q79 0 137 58l83 -120q-44 -55 -98.5 -72.5t-124.5 -17.5h-380z" />
<glyph unicode="&#xa5;" horiz-adv-x="718" d="M631 292v-88h-170v-204h-203v204h-168v88h145l-23 40h-122v88h74l-157 280h224l135 -275l133 275h212l-155 -280h75v-88h-124l-22 -40h146z" />
<glyph unicode="&#xa6;" horiz-adv-x="324" d="M75 381v385h175v-385h-175zM75 -65v385h175v-385h-175z" />
<glyph unicode="&#xa7;" horiz-adv-x="519" d="M329 327q0 20 -14.5 32.5t-48.5 20.5l-14 3q-34 8 -50 -4.5t-16 -32.5q0 -18 14.5 -31.5t48.5 -21.5l14 -3q34 -8 50 4.5t16 32.5zM247 -37q-75 0 -129 20t-87 64l90 88q20 -24 48.5 -39t73.5 -15q68 0 68 39q0 17 -16.5 26.5t-48.5 16.5l-33 8q-93 23 -132 66t-39 102 q0 32 13.5 60.5t43.5 46.5q-26 21 -37 47.5t-11 56.5q0 72 52.5 118.5t159.5 46.5q133 0 195 -78l-88 -90q-23 22 -47 33.5t-58 11.5q-61 0 -61 -39q0 -12 11.5 -23t46.5 -19l53 -12q83 -19 122.5 -57.5t39.5 -103.5q0 -31 -13 -59t-45 -47q53 -38 53 -105q0 -32 -11.5 -62 t-38 -52.5t-69.5 -36t-106 -13.5z" />
<glyph unicode="&#xa8;" horiz-adv-x="600" d="M326 649q0 43 25 63t71 20t70.5 -20t24.5 -63q0 -45 -24.5 -64.5t-70.5 -19.5t-71 19.5t-25 64.5zM97 649q0 43 25 63t70 20q46 0 70.5 -20t24.5 -63q0 -45 -24.5 -64.5t-70.5 -19.5q-45 0 -70 19.5t-25 64.5z" />
<glyph unicode="&#xa9;" horiz-adv-x="830" d="M61 350q0 79 24 143t69 110t111 71t150 25t149.5 -25t111 -71t69.5 -110t24 -143t-24 -143.5t-69.5 -110.5t-111 -71t-149.5 -25t-150 25t-111 71t-69 110.5t-24 143.5zM122 350q0 -75 21.5 -130t60.5 -91t93 -54t118 -18t118 18t93 54t60.5 91t21.5 130t-21.5 130 t-60.5 91.5t-93 54.5t-118 18t-118 -18t-93 -54.5t-60.5 -91.5t-21.5 -130zM422 155q-95 0 -146.5 47.5t-51.5 151.5q0 105 51 154t151 49q61 0 101 -21t63 -62l-96 -70q-11 25 -27.5 34.5t-39.5 9.5q-39 0 -56.5 -22t-17.5 -73q0 -50 18.5 -71t55.5 -21q26 0 45 11t27 33 l95 -55q-24 -48 -68 -71.5t-104 -23.5z" />
<glyph unicode="&#xaa;" horiz-adv-x="420" d="M191 422q27 0 42 16t15 45v10h-43q-55 0 -55 -39q0 -32 41 -32zM144 337q-54 0 -86.5 27t-32.5 78q0 30 12.5 53t34.5 38.5t52 23t65 7.5h59q-2 31 -20.5 40.5t-44.5 9.5q-35 0 -60 -10.5t-43 -29.5l-48 78q57 63 175 63q38 0 70.5 -8t56.5 -26t38 -48t14 -74v-212h-119 l-8 45q-17 -26 -46 -40.5t-69 -14.5z" />
<glyph unicode="&#xab;" horiz-adv-x="700" d="M496 0l-206 252v3l198 247h186l-200 -246l211 -256h-189zM232 0l-198 249v3l197 250h186l-199 -249l203 -253h-189z" />
<glyph unicode="&#xad;" horiz-adv-x="412" d="M363 345v-148h-313v148h313z" />
<glyph unicode="&#xae;" horiz-adv-x="473" d="M39 521q0 89 51.5 141.5t146.5 52.5q94 0 145.5 -52.5t51.5 -141.5q0 -87 -51.5 -140.5t-145.5 -53.5q-47 0 -84 14t-62.5 39.5t-38.5 61t-13 79.5zM78 521q0 -80 45 -120.5t114 -40.5q34 0 63 10t50 30.5t33 50.5t12 70t-12 70t-33 50.5t-50 30.5t-63 10 q-69 0 -114 -40.5t-45 -120.5zM238 572h-27v-44h24q30 0 30 23q0 21 -27 21zM152 429v192h101q35 0 52.5 -19.5t17.5 -52.5q0 -21 -7.5 -35t-21.5 -23l32 -62h-64l-23 49h-28v-49h-59z" />
<glyph unicode="&#xaf;" horiz-adv-x="600" d="M444 685v-101h-306v101h306z" />
<glyph unicode="&#xb0;" horiz-adv-x="471" d="M236 349q-89 0 -137 50.5t-48 132.5q0 84 48 133.5t137 49.5q88 0 136.5 -49.5t48.5 -133.5q0 -82 -48.5 -132.5t-136.5 -50.5zM236 617q-34 0 -55 -21.5t-21 -63.5t21 -63t55 -21q33 0 54.5 21t21.5 63t-21.5 63.5t-54.5 21.5z" />
<glyph unicode="&#xb1;" horiz-adv-x="512" d="M317 153h-122v127h-145v104h145v131h122v-131h145v-104h-145v-127zM462 104v-104h-412v104h412z" />
<glyph unicode="&#xb2;" horiz-adv-x="391" d="M5 294zM23 294v88l141 118q21 19 36 36t15 37t-13 27t-31 7q-28 0 -44 -12t-32 -37l-90 63q31 54 76 74t107 20q33 0 63 -6t53 -20t37 -37.5t14 -59.5q0 -45 -23.5 -81t-62.5 -70l-47 -42l148 4v-109h-347z" />
<glyph unicode="&#xb3;" horiz-adv-x="390" d="M11 280zM188 280q-59 0 -103.5 20t-73.5 68l95 59q16 -26 32.5 -35t41.5 -9q23 0 36.5 8t13.5 26q0 16 -13 24t-43 8h-38v91h38q47 0 47 35q0 33 -46 33q-23 0 -36.5 -10t-24.5 -31l-96 52q29 53 70.5 74.5t101.5 21.5q84 0 126 -33.5t42 -89.5q0 -32 -15 -54.5 t-40 -37.5q28 -14 44.5 -34.5t16.5 -56.5q0 -60 -46.5 -94.5t-129.5 -34.5z" />
<glyph unicode="&#xb4;" horiz-adv-x="600" d="M484 704l-136 -134h-147v5l84 136h199v-7z" />
<glyph unicode="&#xb6;" horiz-adv-x="692" d="M477 542h-53v-208h53v208zM196 443q0 -47 24 -76.5t62 -29.5v202q-21 0 -37 -8t-27 -21.5t-16.5 -31t-5.5 -35.5zM622 700v-700h-145v186h-53v-186h-142v187q-54 4 -100.5 22.5t-80.5 50.5t-53 77.5t-19 102.5t17.5 104.5t50.5 82t80.5 54t107.5 19.5h337z" />
<glyph unicode="&#xb7;" horiz-adv-x="270" d="M33 245zM33 339q0 48 26.5 71.5t75.5 23.5t75.5 -23.5t26.5 -71.5q0 -46 -26.5 -70t-75.5 -24t-75.5 23.5t-26.5 70.5z" />
<glyph unicode="&#xb8;" horiz-adv-x="600" d="M292 0h90l-19 -45h1q21 -2 40.5 -8.5t35 -18.5t24.5 -29.5t9 -39.5q0 -30 -12 -52t-33 -36.5t-48.5 -21.5t-57.5 -7q-48 0 -89 18t-64 56l60 62q16 -23 36.5 -35.5t49.5 -12.5q20 0 33.5 8t13.5 27q0 14 -13.5 24t-38.5 10q-6 0 -11.5 -1t-11.5 -2l-27 15z" />
<glyph unicode="&#xb9;" horiz-adv-x="284" d="M5 294zM234 294h-138v263l-41 -23l-50 102l138 73h91v-415z" />
<glyph unicode="&#xba;" horiz-adv-x="434" d="M27 526q0 97 52.5 143t143.5 46q99 0 147.5 -45.5t48.5 -143.5q0 -94 -49.5 -142t-146.5 -48q-196 0 -196 190zM285 526q0 44 -14.5 64.5t-48.5 20.5q-33 0 -47 -20.5t-14 -64.5q0 -45 14.5 -65.5t46.5 -20.5q63 0 63 86z" />
<glyph unicode="&#xbb;" horiz-adv-x="700" d="M204 502l206 -252v-3l-198 -247h-186l200 246l-211 256h189zM468 502l198 -249v-3l-197 -250h-186l199 249l-203 253h189z" />
<glyph unicode="&#xbc;" horiz-adv-x="943" d="M5 0zM234 293h-138v263l-41 -23l-50 102l138 73h91v-415zM676 700l-350 -700h-166l352 700h164zM526 73v89l117 247h134l-114 -228h92v120h129v-120h42v-108h-42v-73h-129v73h-229z" />
<glyph unicode="&#xbd;" horiz-adv-x="958" d="M5 0zM589 0v88l141 118q21 19 36 36t15 37t-13 27t-31 7q-28 0 -44 -12t-32 -37l-90 63q31 54 76 74t107 20q33 0 63 -6t53 -20t37 -37.5t14 -59.5q0 -45 -23.5 -81t-62.5 -70l-47 -42l148 4v-109h-347zM234 293h-138v263l-41 -23l-50 102l138 73h91v-415zM676 700 l-350 -700h-166l352 700h164z" />
<glyph unicode="&#xbe;" horiz-adv-x="1024" d="M11 0zM188 279q-59 0 -103.5 20t-73.5 68l95 59q16 -26 32.5 -35t41.5 -9q23 0 36.5 8t13.5 26q0 16 -13 24t-43 8h-38v91h38q47 0 47 35q0 33 -46 33q-23 0 -36.5 -10t-24.5 -31l-96 52q29 53 70.5 74.5t101.5 21.5q84 0 126 -33.5t42 -89.5q0 -32 -15 -54.5t-40 -37.5 q28 -14 44.5 -34.5t16.5 -56.5q0 -60 -46.5 -94.5t-129.5 -34.5zM765 700l-350 -700h-166l352 700h164zM607 73v89l117 247h134l-114 -228h92v120h129v-120h42v-108h-42v-73h-129v73h-229z" />
<glyph unicode="&#xbf;" horiz-adv-x="524" d="M348 282l9 -185h-65q-51 0 -77 -21t-26 -67q0 -34 24.5 -56.5t78.5 -22.5q40 0 69.5 18t51.5 67l115 -74q-37 -75 -102 -114.5t-159 -39.5q-124 0 -187 52t-63 159q0 49 13.5 86t37.5 62.5t57.5 40t72.5 19.5l7 76h143zM383 425q0 -48 -26.5 -71.5t-75.5 -23.5 t-75.5 23.5t-26.5 71.5q0 46 26.5 70t75.5 24t75.5 -23.5t26.5 -70.5z" />
<glyph unicode="&#xc0;" horiz-adv-x="721" d="M7 0zM357 502l-78 -258h156zM508 0l-29 94h-244l-28 -94h-200l233 700h241l233 -700h-206zM300 769l-136 134v7h206l81 -136v-5h-151z" />
<glyph unicode="&#xc1;" horiz-adv-x="721" d="M7 0zM357 502l-78 -258h156zM508 0l-29 94h-244l-28 -94h-200l233 700h241l233 -700h-206zM556 903l-136 -134h-147v5l84 136h199v-7z" />
<glyph unicode="&#xc2;" horiz-adv-x="721" d="M7 0zM357 502l-78 -258h156zM508 0l-29 94h-244l-28 -94h-200l233 700h241l233 -700h-206zM358 820l-56 -52h-141v4l124 137h155l125 -137v-4h-149z" />
<glyph unicode="&#xc3;" horiz-adv-x="721" d="M7 0zM357 502l-78 -258h156zM508 0l-29 94h-244l-28 -94h-200l233 700h241l233 -700h-206zM446 906h109q3 -38 -6 -63.5t-25 -41t-37 -22t-41 -6.5q-23 0 -42.5 5t-37 10.5t-32.5 10.5t-30 5q-17 0 -22.5 -10.5t-5.5 -21.5h-109q-3 38 6 63.5t25 41t36.5 22t41.5 6.5 q23 0 42.5 -5t37 -10.5t32.5 -10.5t30 -5q18 0 23 9.5t5 22.5z" />
<glyph unicode="&#xc4;" horiz-adv-x="721" d="M7 0zM357 502l-78 -258h156zM508 0l-29 94h-244l-28 -94h-200l233 700h241l233 -700h-206zM381 847q0 43 25 63t71 20t70.5 -20t24.5 -63q0 -45 -24.5 -64.5t-70.5 -19.5t-71 19.5t-25 64.5zM152 847q0 43 25 63t70 20q46 0 70.5 -20t24.5 -63q0 -45 -24.5 -64.5 t-70.5 -19.5q-45 0 -70 19.5t-25 64.5z" />
<glyph unicode="&#xc5;" horiz-adv-x="721" d="M7 0zM357 502l-78 -258h156zM508 0l-29 94h-244l-28 -94h-200l233 700h241l233 -700h-206zM237 857q0 53 35 80.5t89 27.5t88.5 -27.5t34.5 -80.5q0 -54 -35 -81.5t-89 -27.5t-88.5 27.5t-34.5 81.5zM317 857q0 -20 12 -31.5t31 -11.5q20 0 32 11.5t12 31.5t-12 30.5 t-31 10.5q-20 0 -32 -10.5t-12 -30.5z" />
<glyph unicode="&#xc6;" horiz-adv-x="1042" d="M361 494l-80 -250h159zM515 0l-29 94h-253l-30 -94h-196l248 700h732v-155h-444l37 -113h356v-157h-303l39 -119h325v-156h-482z" />
<glyph unicode="&#xc7;" horiz-adv-x="714" d="M396 -258q-48 0 -89 18t-64 56l60 62q16 -23 36.5 -35.5t49.5 -12.5q20 0 33.5 8t13.5 27q0 14 -13.5 24t-38.5 10q-6 0 -11.5 -1t-11.5 -2l-27 15l27 75q-162 8 -238 98.5t-76 266.5q0 189 88 276.5t267 87.5q110 0 182 -40t107 -131l-162 -78q-22 47 -50.5 65t-79.5 18 q-35 0 -63 -9.5t-47 -32.5t-29 -62t-10 -98q0 -57 10 -96t29.5 -62t47.5 -33t64 -10q48 0 81 21t52 69l164 -75q-32 -74 -92 -118t-155 -55l-14 -33h1q21 -2 40.5 -8.5t35 -18.5t24.5 -29.5t9 -39.5q0 -30 -12 -52t-33 -36.5t-48.5 -21.5t-57.5 -7z" />
<glyph unicode="&#xc8;" horiz-adv-x="693" d="M84 0zM84 0v700h553v-155h-356v-113h306v-157h-306v-119h366v-156h-563zM306 768l-136 134v7h206l81 -136v-5h-151z" />
<glyph unicode="&#xc9;" horiz-adv-x="693" d="M84 0zM563 903l-136 -134h-147v5l84 136h199v-7zM84 0v700h553v-155h-356v-113h306v-157h-306v-119h366v-156h-563z" />
<glyph unicode="&#xca;" horiz-adv-x="693" d="M84 0zM364 820l-56 -52h-141v4l124 137h155l125 -137v-4h-149zM84 0v700h553v-155h-356v-113h306v-157h-306v-119h366v-156h-563z" />
<glyph unicode="&#xcb;" horiz-adv-x="693" d="M84 0zM388 847q0 43 25 63t71 20t70.5 -20t24.5 -63q0 -45 -24.5 -64.5t-70.5 -19.5t-71 19.5t-25 64.5zM159 847q0 43 25 63t70 20q46 0 70.5 -20t24.5 -63q0 -45 -24.5 -64.5t-70.5 -19.5q-45 0 -70 19.5t-25 64.5zM84 0v700h553v-155h-356v-113h306v-157h-306v-119 h366v-156h-563z" />
<glyph unicode="&#xcc;" horiz-adv-x="371" d="M0 0zM84 0v700h202v-700h-202zM123 768l-136 134v7h206l81 -136v-5h-151z" />
<glyph unicode="&#xcd;" horiz-adv-x="371" d="M84 0zM84 0v700h202v-700h-202zM380 903l-136 -134h-147v5l84 136h199v-7z" />
<glyph unicode="&#xce;" horiz-adv-x="371" d="M0 0zM84 0v700h202v-700h-202zM182 820l-56 -52h-141v4l124 137h155l125 -137v-4h-149z" />
<glyph unicode="&#xcf;" horiz-adv-x="371" d="M0 0zM84 0v700h202v-700h-202zM205 847q0 43 25 63t71 20t70.5 -20t24.5 -63q0 -45 -24.5 -64.5t-70.5 -19.5t-71 19.5t-25 64.5zM-24 847q0 43 25 63t70 20q46 0 70.5 -20t24.5 -63q0 -45 -24.5 -64.5t-70.5 -19.5q-45 0 -70 19.5t-25 64.5z" />
<glyph unicode="&#xd0;" horiz-adv-x="788" d="M401 0h-303v270h-67v148h67v282h319q169 0 247 -84.5t78 -260.5q0 -173 -83 -264t-258 -91zM299 160h86q36 0 64.5 10t48.5 32.5t31 59.5t11 90q0 97 -34.5 142.5t-103.5 45.5h-103v-122h101v-148h-101v-110z" />
<glyph unicode="&#xd1;" horiz-adv-x="821" d="M84 0zM567 0l-298 382l5 -382h-190v700h150l317 -415l-4 415h190v-700h-170zM495 906h109q3 -38 -6 -63.5t-25 -41t-37 -22t-41 -6.5q-23 0 -42.5 5t-37 10.5t-32.5 10.5t-30 5q-17 0 -22.5 -10.5t-5.5 -21.5h-109q-3 38 6 63.5t25 41t36.5 22t41.5 6.5q23 0 42.5 -5 t37 -10.5t32.5 -10.5t30 -5q18 0 23 9.5t5 22.5z" />
<glyph unicode="&#xd2;" horiz-adv-x="798" d="M47 0zM398 -15q-185 0 -268 92t-83 274q0 183 86 273.5t267 90.5q93 0 160 -23t109.5 -69t62.5 -114t20 -159q0 -183 -86.5 -274t-267.5 -91zM399 550q-38 0 -65.5 -10.5t-46.5 -34t-28 -62t-9 -94.5q0 -55 9.5 -93t28 -62t46 -34.5t64.5 -10.5t65 10.5t46.5 34.5 t27.5 62.5t9 94.5q0 55 -9 93t-27.5 61.5t-46 34t-64.5 10.5zM333 769l-136 134v7h206l81 -136v-5h-151z" />
<glyph unicode="&#xd3;" horiz-adv-x="798" d="M47 0zM590 903l-136 -134h-147v5l84 136h199v-7zM398 -15q-185 0 -268 92t-83 274q0 183 86 273.5t267 90.5q93 0 160 -23t109.5 -69t62.5 -114t20 -159q0 -183 -86.5 -274t-267.5 -91zM399 550q-38 0 -65.5 -10.5t-46.5 -34t-28 -62t-9 -94.5q0 -55 9.5 -93t28 -62 t46 -34.5t64.5 -10.5t65 10.5t46.5 34.5t27.5 62.5t9 94.5q0 55 -9 93t-27.5 61.5t-46 34t-64.5 10.5z" />
<glyph unicode="&#xd4;" horiz-adv-x="798" d="M47 0zM392 821l-56 -52h-141v4l124 137h155l125 -137v-4h-149zM398 -15q-185 0 -268 92t-83 274q0 183 86 273.5t267 90.5q93 0 160 -23t109.5 -69t62.5 -114t20 -159q0 -183 -86.5 -274t-267.5 -91zM399 550q-38 0 -65.5 -10.5t-46.5 -34t-28 -62t-9 -94.5 q0 -55 9.5 -93t28 -62t46 -34.5t64.5 -10.5t65 10.5t46.5 34.5t27.5 62.5t9 94.5q0 55 -9 93t-27.5 61.5t-46 34t-64.5 10.5z" />
<glyph unicode="&#xd5;" horiz-adv-x="798" d="M47 0zM398 -15q-185 0 -268 92t-83 274q0 183 86 273.5t267 90.5q93 0 160 -23t109.5 -69t62.5 -114t20 -159q0 -183 -86.5 -274t-267.5 -91zM399 550q-38 0 -65.5 -10.5t-46.5 -34t-28 -62t-9 -94.5q0 -55 9.5 -93t28 -62t46 -34.5t64.5 -10.5t65 10.5t46.5 34.5 t27.5 62.5t9 94.5q0 55 -9 93t-27.5 61.5t-46 34t-64.5 10.5zM480 907h109q3 -38 -6 -63.5t-25 -41t-37 -22t-41 -6.5q-23 0 -42.5 5t-37 10.5t-32.5 10.5t-30 5q-17 0 -22.5 -10.5t-5.5 -21.5h-109q-3 38 6 63.5t25 41t36.5 22t41.5 6.5q23 0 42.5 -5t37 -10.5t32.5 -10.5 t30 -5q18 0 23 9.5t5 22.5z" />
<glyph unicode="&#xd6;" horiz-adv-x="798" d="M47 0zM418 848q0 43 25 63t71 20t70.5 -20t24.5 -63q0 -45 -24.5 -64.5t-70.5 -19.5t-71 19.5t-25 64.5zM189 848q0 43 25 63t70 20q46 0 70.5 -20t24.5 -63q0 -45 -24.5 -64.5t-70.5 -19.5q-45 0 -70 19.5t-25 64.5zM398 -15q-185 0 -268 92t-83 274q0 183 86 273.5 t267 90.5q93 0 160 -23t109.5 -69t62.5 -114t20 -159q0 -183 -86.5 -274t-267.5 -91zM399 550q-38 0 -65.5 -10.5t-46.5 -34t-28 -62t-9 -94.5q0 -55 9.5 -93t28 -62t46 -34.5t64.5 -10.5t65 10.5t46.5 34.5t27.5 62.5t9 94.5q0 55 -9 93t-27.5 61.5t-46 34t-64.5 10.5z" />
<glyph unicode="&#xd7;" horiz-adv-x="508" d="M131 119l-72 73l118 118l-120 121l77 78l121 -121l120 120l72 -73l-120 -119l123 -123l-78 -78l-122 123z" />
<glyph unicode="&#xd8;" horiz-adv-x="808" d="M161 0h-125l85 97q-36 47 -52.5 110t-16.5 143q0 183 86 274t267 91q132 0 212 -50l31 35h127l-86 -99q35 -46 51.5 -109t16.5 -142q0 -184 -85.5 -274.5t-263.5 -90.5q-136 0 -217 50zM493 524q-33 26 -89 26q-38 0 -65.5 -10.5t-46.5 -34t-28 -61.5t-9 -94 q0 -53 10 -86zM312 175q17 -14 40 -20t52 -6q37 0 64.5 10t46 33.5t27.5 62.5t9 96q0 50 -9 85z" />
<glyph unicode="&#xd9;" horiz-adv-x="781" d="M68 0zM512 279v421h201v-410q0 -83 -22 -141t-63 -94.5t-100.5 -53t-135.5 -16.5q-158 0 -241 71.5t-83 233.5v410h201v-421q0 -63 31.5 -95.5t90.5 -32.5t90 32.5t31 95.5zM329 769l-136 134v7h206l81 -136v-5h-151z" />
<glyph unicode="&#xda;" horiz-adv-x="781" d="M68 0zM586 903l-136 -134h-147v5l84 136h199v-7zM512 279v421h201v-410q0 -83 -22 -141t-63 -94.5t-100.5 -53t-135.5 -16.5q-158 0 -241 71.5t-83 233.5v410h201v-421q0 -63 31.5 -95.5t90.5 -32.5t90 32.5t31 95.5z" />
<glyph unicode="&#xdb;" horiz-adv-x="781" d="M68 0zM387 820l-56 -52h-141v4l124 137h155l125 -137v-4h-149zM512 279v421h201v-410q0 -83 -22 -141t-63 -94.5t-100.5 -53t-135.5 -16.5q-158 0 -241 71.5t-83 233.5v410h201v-421q0 -63 31.5 -95.5t90.5 -32.5t90 32.5t31 95.5z" />
<glyph unicode="&#xdc;" horiz-adv-x="781" d="M68 0zM411 847q0 43 25 63t71 20t70.5 -20t24.5 -63q0 -45 -24.5 -64.5t-70.5 -19.5t-71 19.5t-25 64.5zM182 847q0 43 25 63t70 20q46 0 70.5 -20t24.5 -63q0 -45 -24.5 -64.5t-70.5 -19.5q-45 0 -70 19.5t-25 64.5zM512 279v421h201v-410q0 -83 -22 -141t-63 -94.5 t-100.5 -53t-135.5 -16.5q-158 0 -241 71.5t-83 233.5v410h201v-421q0 -63 31.5 -95.5t90.5 -32.5t90 32.5t31 95.5z" />
<glyph unicode="&#xdd;" horiz-adv-x="718" d="M7 0zM258 251l-251 449h224l135 -275l133 275h212l-251 -455v-245h-202v251zM554 903l-136 -134h-147v5l84 136h199v-7z" />
<glyph unicode="&#xde;" horiz-adv-x="709" d="M84 0v700h202v-96h152q61 0 106.5 -18.5t76 -52.5t46 -80.5t15.5 -103.5q0 -60 -19.5 -106.5t-54.5 -78t-85 -48t-110 -16.5h-127v-100h-202zM399 435h-113v-173h114q39 0 61 23t22 66q0 16 -4.5 31t-14.5 27t-26 19t-39 7z" />
<glyph unicode="&#xdf;" horiz-adv-x="679" d="M368 294h-53v144h39q38 0 60 20.5t22 53.5q0 38 -26 55.5t-64 17.5q-100 0 -100 -106v-479h-190v481q0 118 71.5 184t217.5 66q74 0 125.5 -15.5t84 -42.5t47 -63t14.5 -77q0 -55 -23.5 -91.5t-61.5 -58.5q63 -20 90.5 -68.5t27.5 -110.5q0 -51 -18 -90.5t-49.5 -66.5 t-75 -41t-94.5 -14q-30 0 -59.5 4t-52.5 14l13 133q23 -11 55 -11q40 0 67.5 20.5t27.5 62.5q0 39 -26 59t-69 20z" />
<glyph unicode="&#xe0;" horiz-adv-x="589" d="M32 0zM264 101q38 0 60 23.5t22 67.5v13h-63q-79 0 -79 -56q0 -23 15 -35.5t45 -12.5zM200 -14q-76 0 -122 37.5t-46 108.5q0 43 17 75.5t47.5 54.5t72 32.5t90.5 10.5h86q-3 42 -28.5 56t-63.5 14q-49 0 -84 -14t-60 -40l-66 107q39 44 100.5 66t141.5 22q53 0 99 -11 t79.5 -36.5t53 -67.5t19.5 -104v-297h-163l-12 67q-24 -38 -64 -59.5t-97 -21.5zM223 570l-136 134v7h206l81 -136v-5h-151z" />
<glyph unicode="&#xe1;" horiz-adv-x="589" d="M32 0zM264 101q38 0 60 23.5t22 67.5v13h-63q-79 0 -79 -56q0 -23 15 -35.5t45 -12.5zM200 -14q-76 0 -122 37.5t-46 108.5q0 43 17 75.5t47.5 54.5t72 32.5t90.5 10.5h86q-3 42 -28.5 56t-63.5 14q-49 0 -84 -14t-60 -40l-66 107q39 44 100.5 66t141.5 22q53 0 99 -11 t79.5 -36.5t53 -67.5t19.5 -104v-297h-163l-12 67q-24 -38 -64 -59.5t-97 -21.5zM479 704l-136 -134h-147v5l84 136h199v-7z" />
<glyph unicode="&#xe2;" horiz-adv-x="589" d="M32 0zM264 101q38 0 60 23.5t22 67.5v13h-63q-79 0 -79 -56q0 -23 15 -35.5t45 -12.5zM200 -14q-76 0 -122 37.5t-46 108.5q0 43 17 75.5t47.5 54.5t72 32.5t90.5 10.5h86q-3 42 -28.5 56t-63.5 14q-49 0 -84 -14t-60 -40l-66 107q39 44 100.5 66t141.5 22q53 0 99 -11 t79.5 -36.5t53 -67.5t19.5 -104v-297h-163l-12 67q-24 -38 -64 -59.5t-97 -21.5zM281 622l-56 -52h-141v4l124 137h155l125 -137v-4h-149z" />
<glyph unicode="&#xe3;" horiz-adv-x="589" d="M32 0zM264 101q38 0 60 23.5t22 67.5v13h-63q-79 0 -79 -56q0 -23 15 -35.5t45 -12.5zM200 -14q-76 0 -122 37.5t-46 108.5q0 43 17 75.5t47.5 54.5t72 32.5t90.5 10.5h86q-3 42 -28.5 56t-63.5 14q-49 0 -84 -14t-60 -40l-66 107q39 44 100.5 66t141.5 22q53 0 99 -11 t79.5 -36.5t53 -67.5t19.5 -104v-297h-163l-12 67q-24 -38 -64 -59.5t-97 -21.5zM369 708h109q3 -38 -6 -63.5t-25 -41t-37 -22t-41 -6.5q-23 0 -42.5 5t-37 10.5t-32.5 10.5t-30 5q-17 0 -22.5 -10.5t-5.5 -21.5h-109q-3 38 6 63.5t25 41t36.5 22t41.5 6.5q23 0 42.5 -5 t37 -10.5t32.5 -10.5t30 -5q18 0 23 9.5t5 22.5z" />
<glyph unicode="&#xe4;" horiz-adv-x="589" d="M32 0zM264 101q38 0 60 23.5t22 67.5v13h-63q-79 0 -79 -56q0 -23 15 -35.5t45 -12.5zM200 -14q-76 0 -122 37.5t-46 108.5q0 43 17 75.5t47.5 54.5t72 32.5t90.5 10.5h86q-3 42 -28.5 56t-63.5 14q-49 0 -84 -14t-60 -40l-66 107q39 44 100.5 66t141.5 22q53 0 99 -11 t79.5 -36.5t53 -67.5t19.5 -104v-297h-163l-12 67q-24 -38 -64 -59.5t-97 -21.5zM304 649q0 43 25 63t71 20t70.5 -20t24.5 -63q0 -45 -24.5 -64.5t-70.5 -19.5t-71 19.5t-25 64.5zM75 649q0 43 25 63t70 20q46 0 70.5 -20t24.5 -63q0 -45 -24.5 -64.5t-70.5 -19.5 q-45 0 -70 19.5t-25 64.5z" />
<glyph unicode="&#xe5;" horiz-adv-x="589" d="M32 0zM264 101q38 0 60 23.5t22 67.5v13h-63q-79 0 -79 -56q0 -23 15 -35.5t45 -12.5zM200 -14q-76 0 -122 37.5t-46 108.5q0 43 17 75.5t47.5 54.5t72 32.5t90.5 10.5h86q-3 42 -28.5 56t-63.5 14q-49 0 -84 -14t-60 -40l-66 107q39 44 100.5 66t141.5 22q53 0 99 -11 t79.5 -36.5t53 -67.5t19.5 -104v-297h-163l-12 67q-24 -38 -64 -59.5t-97 -21.5zM160 659q0 53 35 80.5t89 27.5t88.5 -27.5t34.5 -80.5q0 -54 -35 -81.5t-89 -27.5t-88.5 27.5t-34.5 81.5zM240 659q0 -20 12 -31.5t31 -11.5q20 0 32 11.5t12 31.5t-12 30.5t-31 10.5 q-20 0 -32 -10.5t-12 -30.5z" />
<glyph unicode="&#xe6;" horiz-adv-x="901" d="M217 -14q-84 0 -134.5 37.5t-50.5 108.5q0 43 17 75.5t47.5 54t72 32t90.5 10.5h86q-3 44 -28.5 57.5t-63.5 13.5q-45 0 -82 -13.5t-62 -40.5l-66 107q39 44 100 66t139 22q51 0 93 -14t71 -47q32 29 75.5 45t99.5 16q65 0 111.5 -20t76 -55t43.5 -81.5t14 -99.5 q0 -16 -1 -29t-3 -28h-326q5 -46 32 -68t74 -22q36 0 60.5 12t40.5 40l112 -71q-64 -109 -232 -109q-66 0 -117.5 20.5t-85.5 63.5q-30 -39 -81 -61t-122 -22zM619 384q-34 0 -56 -19.5t-27 -60.5h155q-6 80 -72 80zM264 101q38 0 60 24t22 68v10h-63q-79 0 -79 -56 q0 -46 60 -46z" />
<glyph unicode="&#xe7;" horiz-adv-x="546" d="M295 -258q-48 0 -89 18t-64 56l60 62q16 -23 36.5 -35.5t49.5 -12.5q20 0 33.5 8t13.5 27q0 14 -13.5 24t-38.5 10q-6 0 -11.5 -1t-11.5 -2l-27 15l27 75q-52 4 -93.5 21.5t-71 50t-45.5 80t-16 112.5q0 139 72 202.5t200 63.5q80 0 134.5 -26t87.5 -85l-132 -96 q-15 32 -36 43.5t-50 11.5q-44 0 -67.5 -24t-23.5 -91q0 -57 19.5 -89t69.5 -32q72 0 94 58l131 -75q-27 -51 -71.5 -82.5t-111.5 -40.5l-14 -33h1q21 -2 40.5 -8.5t35 -18.5t24.5 -29.5t9 -39.5q0 -30 -12 -52t-33 -36.5t-48.5 -21.5t-57.5 -7z" />
<glyph unicode="&#xe8;" horiz-adv-x="580" d="M33 0zM305 -15q-62 0 -112 16t-85.5 48.5t-55 81.5t-19.5 115q0 63 18 113t52 85t83 53.5t112 18.5q66 0 113 -20.5t77 -55.5t43.5 -82t13.5 -101q0 -14 -1 -28t-3 -30h-326q7 -46 34.5 -66t72.5 -20q35 0 59.5 12t40.5 40l112 -71q-32 -55 -90.5 -82t-138.5 -27z M296 384q-34 0 -55.5 -20.5t-26.5 -61.5h156q-2 39 -20.5 60.5t-53.5 21.5zM230 570l-136 134v7h206l81 -136v-5h-151z" />
<glyph unicode="&#xe9;" horiz-adv-x="580" d="M33 0zM486 704l-136 -134h-147v5l84 136h199v-7zM305 -15q-62 0 -112 16t-85.5 48.5t-55 81.5t-19.5 115q0 63 18 113t52 85t83 53.5t112 18.5q66 0 113 -20.5t77 -55.5t43.5 -82t13.5 -101q0 -14 -1 -28t-3 -30h-326q7 -46 34.5 -66t72.5 -20q35 0 59.5 12t40.5 40 l112 -71q-32 -55 -90.5 -82t-138.5 -27zM296 384q-34 0 -55.5 -20.5t-26.5 -61.5h156q-2 39 -20.5 60.5t-53.5 21.5z" />
<glyph unicode="&#xea;" horiz-adv-x="580" d="M33 0zM288 622l-56 -52h-141v4l124 137h155l125 -137v-4h-149zM305 -15q-62 0 -112 16t-85.5 48.5t-55 81.5t-19.5 115q0 63 18 113t52 85t83 53.5t112 18.5q66 0 113 -20.5t77 -55.5t43.5 -82t13.5 -101q0 -14 -1 -28t-3 -30h-326q7 -46 34.5 -66t72.5 -20q35 0 59.5 12 t40.5 40l112 -71q-32 -55 -90.5 -82t-138.5 -27zM296 384q-34 0 -55.5 -20.5t-26.5 -61.5h156q-2 39 -20.5 60.5t-53.5 21.5z" />
<glyph unicode="&#xeb;" horiz-adv-x="580" d="M33 0zM309 649q0 43 25 63t71 20t70.5 -20t24.5 -63q0 -45 -24.5 -64.5t-70.5 -19.5t-71 19.5t-25 64.5zM80 649q0 43 25 63t70 20q46 0 70.5 -20t24.5 -63q0 -45 -24.5 -64.5t-70.5 -19.5q-45 0 -70 19.5t-25 64.5zM305 -15q-62 0 -112 16t-85.5 48.5t-55 81.5 t-19.5 115q0 63 18 113t52 85t83 53.5t112 18.5q66 0 113 -20.5t77 -55.5t43.5 -82t13.5 -101q0 -14 -1 -28t-3 -30h-326q7 -46 34.5 -66t72.5 -20q35 0 59.5 12t40.5 40l112 -71q-32 -55 -90.5 -82t-138.5 -27zM296 384q-34 0 -55.5 -20.5t-26.5 -61.5h156 q-2 39 -20.5 60.5t-53.5 21.5z" />
<glyph unicode="&#xec;" horiz-adv-x="309" d="M0 0zM58 502h194v-502h-194v502zM92 570l-136 134v7h206l81 -136v-5h-151z" />
<glyph unicode="&#xed;" horiz-adv-x="309" d="M58 0zM349 704l-136 -134h-147v5l84 136h199v-7zM58 502h194v-502h-194v502z" />
<glyph unicode="&#xee;" horiz-adv-x="309" d="M0 0zM150 622l-56 -52h-141v4l124 137h155l125 -137v-4h-149zM58 502h194v-502h-194v502z" />
<glyph unicode="&#xef;" horiz-adv-x="309" d="M0 0zM174 649q0 43 25 63t71 20t70.5 -20t24.5 -63q0 -45 -24.5 -64.5t-70.5 -19.5t-71 19.5t-25 64.5zM-55 649q0 43 25 63t70 20q46 0 70.5 -20t24.5 -63q0 -45 -24.5 -64.5t-70.5 -19.5q-45 0 -70 19.5t-25 64.5zM58 502h194v-502h-194v502z" />
<glyph unicode="&#xf0;" horiz-adv-x="613" d="M485 742l37 -54l-63 -40q61 -60 92.5 -150.5t31.5 -200.5v-31q0 -149 -70 -215t-204 -66q-137 0 -206.5 64.5t-69.5 190.5q0 66 18 114t50.5 79t78.5 46t103 15q61 0 102 -29q-20 58 -58 97l-75 -48l-37 53l54 36q-21 12 -45.5 20.5t-52.5 14.5l41 118q113 -9 195 -65z M399 239q0 63 -21.5 91.5t-69.5 28.5t-70 -28.5t-22 -91.5q0 -61 23 -88.5t69 -27.5t68.5 27.5t22.5 88.5z" />
<glyph unicode="&#xf1;" horiz-adv-x="654" d="M57 0zM57 502h159l15 -89q29 49 76 76t107 27q50 0 85.5 -15t58 -42t33 -63.5t10.5 -79.5v-316h-194v247q0 58 -18 79t-54 21t-59.5 -25t-24.5 -78v-244h-194v502zM434 708h109q3 -38 -6 -63.5t-25 -41t-37 -22t-41 -6.5q-23 0 -42.5 5t-37 10.5t-32.5 10.5t-30 5 q-17 0 -22.5 -10.5t-5.5 -21.5h-109q-3 38 6 63.5t25 41t36.5 22t41.5 6.5q23 0 42.5 -5t37 -10.5t32.5 -10.5t30 -5q18 0 23 9.5t5 22.5z" />
<glyph unicode="&#xf2;" horiz-adv-x="616" d="M34 0zM34 251q0 68 19 118t54.5 82.5t86 48.5t114.5 16q138 0 206 -64t68 -201q0 -132 -69.5 -199t-204.5 -67q-274 0 -274 266zM399 250q0 64 -21 93.5t-70 29.5q-50 0 -71 -29.5t-21 -93.5q0 -66 22 -95.5t70 -29.5t69.5 29.5t21.5 95.5zM247 570l-136 134v7h206 l81 -136v-5h-151z" />
<glyph unicode="&#xf3;" horiz-adv-x="616" d="M34 0zM503 704l-136 -134h-147v5l84 136h199v-7zM34 251q0 68 19 118t54.5 82.5t86 48.5t114.5 16q138 0 206 -64t68 -201q0 -132 -69.5 -199t-204.5 -67q-274 0 -274 266zM399 250q0 64 -21 93.5t-70 29.5q-50 0 -71 -29.5t-21 -93.5q0 -66 22 -95.5t70 -29.5t69.5 29.5 t21.5 95.5z" />
<glyph unicode="&#xf4;" horiz-adv-x="616" d="M34 0zM304 622l-56 -52h-141v4l124 137h155l125 -137v-4h-149zM34 251q0 68 19 118t54.5 82.5t86 48.5t114.5 16q138 0 206 -64t68 -201q0 -132 -69.5 -199t-204.5 -67q-274 0 -274 266zM399 250q0 64 -21 93.5t-70 29.5q-50 0 -71 -29.5t-21 -93.5q0 -66 22 -95.5 t70 -29.5t69.5 29.5t21.5 95.5z" />
<glyph unicode="&#xf5;" horiz-adv-x="616" d="M34 0zM34 251q0 68 19 118t54.5 82.5t86 48.5t114.5 16q138 0 206 -64t68 -201q0 -132 -69.5 -199t-204.5 -67q-274 0 -274 266zM399 250q0 64 -21 93.5t-70 29.5q-50 0 -71 -29.5t-21 -93.5q0 -66 22 -95.5t70 -29.5t69.5 29.5t21.5 95.5zM393 708h109q3 -38 -6 -63.5 t-25 -41t-37 -22t-41 -6.5q-23 0 -42.5 5t-37 10.5t-32.5 10.5t-30 5q-17 0 -22.5 -10.5t-5.5 -21.5h-109q-3 38 6 63.5t25 41t36.5 22t41.5 6.5q23 0 42.5 -5t37 -10.5t32.5 -10.5t30 -5q18 0 23 9.5t5 22.5z" />
<glyph unicode="&#xf6;" horiz-adv-x="616" d="M34 0zM327 649q0 43 25 63t71 20t70.5 -20t24.5 -63q0 -45 -24.5 -64.5t-70.5 -19.5t-71 19.5t-25 64.5zM98 649q0 43 25 63t70 20q46 0 70.5 -20t24.5 -63q0 -45 -24.5 -64.5t-70.5 -19.5q-45 0 -70 19.5t-25 64.5zM34 251q0 68 19 118t54.5 82.5t86 48.5t114.5 16 q138 0 206 -64t68 -201q0 -132 -69.5 -199t-204.5 -67q-274 0 -274 266zM399 250q0 64 -21 93.5t-70 29.5q-50 0 -71 -29.5t-21 -93.5q0 -66 22 -95.5t70 -29.5t69.5 29.5t21.5 95.5z" />
<glyph unicode="&#xf7;" horiz-adv-x="512" d="M171 495q0 36 24 59.5t60 23.5q37 0 61 -23.5t24 -59.5q0 -35 -24 -58.5t-61 -23.5q-36 0 -60 23.5t-24 58.5zM462 363v-104h-412v104h412zM171 127q0 36 24 59.5t60 23.5q37 0 61 -23.5t24 -59.5q0 -35 -24 -58.5t-61 -23.5q-36 0 -60 23.5t-24 58.5z" />
<glyph unicode="&#xf8;" horiz-adv-x="626" d="M614 502l-74 -76q47 -65 47 -175q0 -132 -69.5 -199t-204.5 -67q-103 0 -169 40l-25 -25h-105l74 75q-49 64 -49 176q0 68 19 118t54.5 82.5t86 48.5t114.5 16q106 0 172 -39l24 25h105zM222 210l150 153q-23 17 -59 17q-52 0 -73.5 -31.5t-21.5 -98.5q0 -10 1 -22t3 -18 zM407 250q0 8 -0.5 20.5t-2.5 18.5l-151 -154q21 -17 60 -17q50 0 72 31.5t22 100.5z" />
<glyph unicode="&#xf9;" horiz-adv-x="652" d="M53 0zM435 0l-15 83q-27 -48 -72.5 -73t-101.5 -25q-52 0 -88.5 15t-60 40.5t-34 60.5t-10.5 75v326h194v-267q0 -48 16.5 -69.5t54.5 -21.5q32 0 56 25.5t25 76.5v256h193v-502h-157zM260 570l-136 134v7h206l81 -136v-5h-151z" />
<glyph unicode="&#xfa;" horiz-adv-x="652" d="M53 0zM517 704l-136 -134h-147v5l84 136h199v-7zM435 0l-15 83q-27 -48 -72.5 -73t-101.5 -25q-52 0 -88.5 15t-60 40.5t-34 60.5t-10.5 75v326h194v-267q0 -48 16.5 -69.5t54.5 -21.5q32 0 56 25.5t25 76.5v256h193v-502h-157z" />
<glyph unicode="&#xfb;" horiz-adv-x="652" d="M53 0zM318 622l-56 -52h-141v4l124 137h155l125 -137v-4h-149zM435 0l-15 83q-27 -48 -72.5 -73t-101.5 -25q-52 0 -88.5 15t-60 40.5t-34 60.5t-10.5 75v326h194v-267q0 -48 16.5 -69.5t54.5 -21.5q32 0 56 25.5t25 76.5v256h193v-502h-157z" />
<glyph unicode="&#xfc;" horiz-adv-x="652" d="M53 0zM342 649q0 43 25 63t71 20t70.5 -20t24.5 -63q0 -45 -24.5 -64.5t-70.5 -19.5t-71 19.5t-25 64.5zM113 649q0 43 25 63t70 20q46 0 70.5 -20t24.5 -63q0 -45 -24.5 -64.5t-70.5 -19.5q-45 0 -70 19.5t-25 64.5zM435 0l-15 83q-27 -48 -72.5 -73t-101.5 -25 q-52 0 -88.5 15t-60 40.5t-34 60.5t-10.5 75v326h194v-267q0 -48 16.5 -69.5t54.5 -21.5q32 0 56 25.5t25 76.5v256h193v-502h-157z" />
<glyph unicode="&#xfd;" horiz-adv-x="595" d="M5 0zM189 -29l10 31l-194 500h200l96 -293l90 293h199l-230 -594q-15 -37 -36.5 -62t-49.5 -40t-62 -21.5t-72 -6.5t-66.5 5.5t-54.5 16.5l17 134q21 -10 40 -14t36 -4q58 0 77 55zM492 704l-136 -134h-147v5l84 136h199v-7z" />
<glyph unicode="&#xfe;" horiz-adv-x="643" d="M247 247q0 -62 24.5 -92t62.5 -30q89 0 89 123q0 68 -23 96.5t-65 28.5q-38 0 -63 -29t-25 -97zM251 700v-259q26 39 67.5 57t87.5 18q98 0 150 -65.5t52 -190.5q0 -62 -14 -112.5t-42.5 -86.5t-71.5 -56t-101 -20q-84 0 -128 52v-223h-194v886h194z" />
<glyph unicode="&#xff;" horiz-adv-x="595" d="M5 0zM189 -29l10 31l-194 500h200l96 -293l90 293h199l-230 -594q-15 -37 -36.5 -62t-49.5 -40t-62 -21.5t-72 -6.5t-66.5 5.5t-54.5 16.5l17 134q21 -10 40 -14t36 -4q58 0 77 55zM317 649q0 43 25 63t71 20t70.5 -20t24.5 -63q0 -45 -24.5 -64.5t-70.5 -19.5t-71 19.5 t-25 64.5zM88 649q0 43 25 63t70 20q46 0 70.5 -20t24.5 -63q0 -45 -24.5 -64.5t-70.5 -19.5q-45 0 -70 19.5t-25 64.5z" />
<glyph unicode="&#x100;" horiz-adv-x="721" d="M7 0zM357 502l-78 -258h156zM508 0l-29 94h-244l-28 -94h-200l233 700h241l233 -700h-206zM514 883v-101h-306v101h306z" />
<glyph unicode="&#x101;" horiz-adv-x="589" d="M32 0zM264 101q38 0 60 23.5t22 67.5v13h-63q-79 0 -79 -56q0 -23 15 -35.5t45 -12.5zM200 -14q-76 0 -122 37.5t-46 108.5q0 43 17 75.5t47.5 54.5t72 32.5t90.5 10.5h86q-3 42 -28.5 56t-63.5 14q-49 0 -84 -14t-60 -40l-66 107q39 44 100.5 66t141.5 22q53 0 99 -11 t79.5 -36.5t53 -67.5t19.5 -104v-297h-163l-12 67q-24 -38 -64 -59.5t-97 -21.5zM438 685v-101h-306v101h306z" />
<glyph unicode="&#x102;" horiz-adv-x="721" d="M7 0zM357 502l-78 -258h156zM508 0l-29 94h-244l-28 -94h-200l233 700h241l233 -700h-206zM434 908h113q0 -42 -12.5 -70.5t-36.5 -46t-58.5 -24.5t-78.5 -7t-78.5 7t-58 24.5t-36 46t-12.5 70.5h112q0 -35 17.5 -47t55.5 -12t55.5 12t17.5 47z" />
<glyph unicode="&#x103;" horiz-adv-x="589" d="M32 0zM264 101q38 0 60 23.5t22 67.5v13h-63q-79 0 -79 -56q0 -23 15 -35.5t45 -12.5zM200 -14q-76 0 -122 37.5t-46 108.5q0 43 17 75.5t47.5 54.5t72 32.5t90.5 10.5h86q-3 42 -28.5 56t-63.5 14q-49 0 -84 -14t-60 -40l-66 107q39 44 100.5 66t141.5 22q53 0 99 -11 t79.5 -36.5t53 -67.5t19.5 -104v-297h-163l-12 67q-24 -38 -64 -59.5t-97 -21.5zM357 710h113q0 -42 -12.5 -70.5t-36.5 -46t-58.5 -24.5t-78.5 -7t-78.5 7t-58 24.5t-36 46t-12.5 70.5h112q0 -35 17.5 -47t55.5 -12t55.5 12t17.5 47z" />
<glyph unicode="&#x104;" horiz-adv-x="721" d="M503 14l-24 80h-244l-28 -94h-200l233 700h241l233 -700h-74q-48 -4 -68 -29t-20 -56q0 -29 19.5 -40t45.5 -11q18 0 35.5 4t33.5 13l26 -90q-47 -29 -108 -29q-29 0 -57.5 7t-51 22.5t-36.5 41.5t-14 65q0 38 16 67t42 49zM357 502l-78 -258h156z" />
<glyph unicode="&#x105;" horiz-adv-x="589" d="M587 -209q-47 -29 -108 -29q-29 0 -57.5 7t-51 22.5t-36.5 41.5t-14 65q0 36 14 64.5t37 48.5l-10 56q-24 -38 -64 -59.5t-97 -21.5q-76 0 -122 37.5t-46 108.5q0 43 17 75.5t47.5 54.5t72 32.5t90.5 10.5h86q-3 42 -28.5 56t-63.5 14q-49 0 -84 -14t-60 -40l-66 107 q39 44 100.5 66t141.5 22q53 0 99 -11t79.5 -36.5t53 -67.5t19.5 -104v-297h-21q-48 -4 -68 -29t-20 -56q0 -29 20 -40t46 -11q17 0 34.5 4t33.5 13zM264 101q38 0 60 23.5t22 67.5v13h-63q-79 0 -79 -56q0 -23 15 -35.5t45 -12.5z" />
<glyph unicode="&#x106;" horiz-adv-x="714" d="M47 0zM597 903l-136 -134h-147v5l84 136h199v-7zM394 -15q-179 0 -263 91t-84 275q0 189 88 276.5t267 87.5q110 0 182 -40t107 -131l-162 -78q-22 47 -50.5 65t-79.5 18q-35 0 -63 -9.5t-47 -32.5t-29 -62t-10 -98q0 -57 10 -96t29.5 -62t47.5 -33t64 -10q48 0 81 21 t52 69l164 -75q-36 -84 -110 -130t-194 -46z" />
<glyph unicode="&#x107;" horiz-adv-x="546" d="M34 0zM499 704l-136 -134h-147v5l84 136h199v-7zM297 -15q-60 0 -108.5 15t-83 47t-53 82t-18.5 121q0 139 72 202.5t200 63.5q80 0 134.5 -26t87.5 -85l-132 -96q-15 32 -36 43.5t-50 11.5q-44 0 -67.5 -24t-23.5 -91q0 -57 19.5 -89t69.5 -32q72 0 94 58l131 -75 q-32 -61 -89 -93.5t-147 -32.5z" />
<glyph unicode="&#x108;" horiz-adv-x="714" d="M47 0zM398 821l-56 -52h-141v4l124 137h155l125 -137v-4h-149zM394 -15q-179 0 -263 91t-84 275q0 189 88 276.5t267 87.5q110 0 182 -40t107 -131l-162 -78q-22 47 -50.5 65t-79.5 18q-35 0 -63 -9.5t-47 -32.5t-29 -62t-10 -98q0 -57 10 -96t29.5 -62t47.5 -33t64 -10 q48 0 81 21t52 69l164 -75q-36 -84 -110 -130t-194 -46z" />
<glyph unicode="&#x109;" horiz-adv-x="546" d="M34 0zM304 622l-56 -52h-141v4l124 137h155l125 -137v-4h-149zM297 -15q-60 0 -108.5 15t-83 47t-53 82t-18.5 121q0 139 72 202.5t200 63.5q80 0 134.5 -26t87.5 -85l-132 -96q-15 32 -36 43.5t-50 11.5q-44 0 -67.5 -24t-23.5 -91q0 -57 19.5 -89t69.5 -32q72 0 94 58 l131 -75q-32 -61 -89 -93.5t-147 -32.5z" />
<glyph unicode="&#x10a;" horiz-adv-x="714" d="M47 0zM394 -15q-179 0 -263 91t-84 275q0 189 88 276.5t267 87.5q110 0 182 -40t107 -131l-162 -78q-22 47 -50.5 65t-79.5 18q-35 0 -63 -9.5t-47 -32.5t-29 -62t-10 -98q0 -57 10 -96t29.5 -62t47.5 -33t64 -10q48 0 81 21t52 69l164 -75q-36 -84 -110 -130t-194 -46z M301 848q0 45 26.5 65t74.5 20t74 -20t26 -65q0 -44 -26 -64t-74 -20t-74.5 20t-26.5 64z" />
<glyph unicode="&#x10b;" horiz-adv-x="546" d="M34 0zM297 -15q-60 0 -108.5 15t-83 47t-53 82t-18.5 121q0 139 72 202.5t200 63.5q80 0 134.5 -26t87.5 -85l-132 -96q-15 32 -36 43.5t-50 11.5q-44 0 -67.5 -24t-23.5 -91q0 -57 19.5 -89t69.5 -32q72 0 94 58l131 -75q-32 -61 -89 -93.5t-147 -32.5zM207 649 q0 45 26.5 65t74.5 20t74 -20t26 -65q0 -44 -26 -64t-74 -20t-74.5 20t-26.5 64z" />
<glyph unicode="&#x10c;" horiz-adv-x="714" d="M47 0zM408 858l57 52h140v-3l-124 -138h-156l-124 138v3h148zM394 -15q-179 0 -263 91t-84 275q0 189 88 276.5t267 87.5q110 0 182 -40t107 -131l-162 -78q-22 47 -50.5 65t-79.5 18q-35 0 -63 -9.5t-47 -32.5t-29 -62t-10 -98q0 -57 10 -96t29.5 -62t47.5 -33t64 -10 q48 0 81 21t52 69l164 -75q-36 -84 -110 -130t-194 -46z" />
<glyph unicode="&#x10d;" horiz-adv-x="546" d="M34 0zM311 659l57 52h140v-3l-124 -138h-156l-124 138v3h148zM297 -15q-60 0 -108.5 15t-83 47t-53 82t-18.5 121q0 139 72 202.5t200 63.5q80 0 134.5 -26t87.5 -85l-132 -96q-15 32 -36 43.5t-50 11.5q-44 0 -67.5 -24t-23.5 -91q0 -57 19.5 -89t69.5 -32q72 0 94 58 l131 -75q-32 -61 -89 -93.5t-147 -32.5z" />
<glyph unicode="&#x10e;" horiz-adv-x="775" d="M84 0zM409 858l57 52h140v-3l-124 -138h-156l-124 138v3h148zM388 0h-304v700h320q168 0 246.5 -84.5t78.5 -260.5q0 -173 -83 -264t-258 -91zM286 160h86q36 0 64.5 10t48.5 32.5t30.5 59.5t10.5 90q0 97 -34 142.5t-103 45.5h-103v-380z" />
<glyph unicode="&#x10f;" horiz-adv-x="793" d="M33 0zM769 421h-123l7 279h150zM394 250q0 68 -25.5 96.5t-65.5 28.5q-39 0 -61.5 -29t-22.5 -97q0 -121 85 -121q40 0 65 29.5t25 92.5zM423 0l-10 73q-25 -42 -66.5 -65t-101.5 -23q-47 0 -86 16.5t-67 48.5t-43.5 80.5t-15.5 112.5q0 68 16.5 119t45.5 85.5t70 51.5 t89 17q46 0 80 -16t57 -45v245h194v-700h-162z" />
<glyph unicode="&#x110;" horiz-adv-x="788" d="M401 0h-303v270h-67v148h67v282h319q169 0 247 -84.5t78 -260.5q0 -173 -83 -264t-258 -91zM299 160h86q36 0 64.5 10t48.5 32.5t31 59.5t11 90q0 97 -34.5 142.5t-103.5 45.5h-103v-122h101v-148h-101v-110z" />
<glyph unicode="&#x111;" horiz-adv-x="653" d="M395 249q0 64 -25 92t-64 28q-40 0 -63.5 -28.5t-23.5 -91.5q0 -121 87 -121q40 0 64.5 30.5t24.5 90.5zM640 636v-95h-55v-541h-162l-11 77q-25 -43 -66 -67.5t-101 -24.5q-47 0 -86 16t-67 48.5t-43.5 80t-15.5 110.5q0 66 16.5 116t45.5 83.5t70 50.5t89 17 q89 0 136 -58v92h-120v95h120v64h195v-64h55z" />
<glyph unicode="&#x112;" horiz-adv-x="693" d="M84 0zM84 0v700h553v-155h-356v-113h306v-157h-306v-119h366v-156h-563zM521 883v-101h-306v101h306z" />
<glyph unicode="&#x113;" horiz-adv-x="580" d="M33 0zM305 -15q-62 0 -112 16t-85.5 48.5t-55 81.5t-19.5 115q0 63 18 113t52 85t83 53.5t112 18.5q66 0 113 -20.5t77 -55.5t43.5 -82t13.5 -101q0 -14 -1 -28t-3 -30h-326q7 -46 34.5 -66t72.5 -20q35 0 59.5 12t40.5 40l112 -71q-32 -55 -90.5 -82t-138.5 -27z M296 384q-34 0 -55.5 -20.5t-26.5 -61.5h156q-2 39 -20.5 60.5t-53.5 21.5zM445 685v-101h-306v101h306z" />
<glyph unicode="&#x114;" horiz-adv-x="693" d="M84 0zM84 0v700h553v-155h-356v-113h306v-157h-306v-119h366v-156h-563zM441 908h113q0 -42 -12.5 -70.5t-36.5 -46t-58.5 -24.5t-78.5 -7t-78.5 7t-58 24.5t-36 46t-12.5 70.5h112q0 -35 17.5 -47t55.5 -12t55.5 12t17.5 47z" />
<glyph unicode="&#x115;" horiz-adv-x="580" d="M33 0zM305 -15q-62 0 -112 16t-85.5 48.5t-55 81.5t-19.5 115q0 63 18 113t52 85t83 53.5t112 18.5q66 0 113 -20.5t77 -55.5t43.5 -82t13.5 -101q0 -14 -1 -28t-3 -30h-326q7 -46 34.5 -66t72.5 -20q35 0 59.5 12t40.5 40l112 -71q-32 -55 -90.5 -82t-138.5 -27z M296 384q-34 0 -55.5 -20.5t-26.5 -61.5h156q-2 39 -20.5 60.5t-53.5 21.5zM364 710h113q0 -42 -12.5 -70.5t-36.5 -46t-58.5 -24.5t-78.5 -7t-78.5 7t-58 24.5t-36 46t-12.5 70.5h112q0 -35 17.5 -47t55.5 -12t55.5 12t17.5 47z" />
<glyph unicode="&#x116;" horiz-adv-x="693" d="M84 0zM84 0v700h553v-155h-356v-113h306v-157h-306v-119h366v-156h-563zM267 847q0 45 26.5 65t74.5 20t74 -20t26 -65q0 -44 -26 -64t-74 -20t-74.5 20t-26.5 64z" />
<glyph unicode="&#x117;" horiz-adv-x="580" d="M33 0zM305 -15q-62 0 -112 16t-85.5 48.5t-55 81.5t-19.5 115q0 63 18 113t52 85t83 53.5t112 18.5q66 0 113 -20.5t77 -55.5t43.5 -82t13.5 -101q0 -14 -1 -28t-3 -30h-326q7 -46 34.5 -66t72.5 -20q35 0 59.5 12t40.5 40l112 -71q-32 -55 -90.5 -82t-138.5 -27z M296 384q-34 0 -55.5 -20.5t-26.5 -61.5h156q-2 39 -20.5 60.5t-53.5 21.5zM190 649q0 45 26.5 65t74.5 20t74 -20t26 -65q0 -44 -26 -64t-74 -20t-74.5 20t-26.5 64z" />
<glyph unicode="&#x118;" horiz-adv-x="693" d="M84 0v700h553v-154h-358v-114h308v-157h-308v-119h368v-156q-51 -4 -71.5 -29t-20.5 -56q0 -29 20 -40t46 -11q17 0 34.5 4t33.5 13l26 -90q-47 -29 -108 -29q-29 0 -57.5 7t-51 22.5t-36.5 41.5t-14 65q0 32 11 57.5t29 44.5h-404z" />
<glyph unicode="&#x119;" horiz-adv-x="580" d="M239 -104q0 54 28 91q-107 9 -170.5 73t-63.5 186q0 63 18 113t52 85t83 53.5t112 18.5q66 0 113 -20.5t77 -55.5t43.5 -82t13.5 -101q0 -14 -1 -28t-3 -30h-326q7 -46 34.5 -66t72.5 -20q35 0 59.5 12t40.5 40l112 -71q-22 -38 -57 -63t-81 -36q-23 -11 -36.5 -29.5 t-13.5 -46.5q0 -33 20 -44t46 -11q17 0 34.5 4t34.5 13l25 -90q-46 -29 -107 -29q-30 0 -58.5 7t-51 22.5t-36.5 41t-14 63.5zM296 384q-34 0 -55.5 -20.5t-26.5 -61.5h156q-2 39 -20.5 60.5t-53.5 21.5z" />
<glyph unicode="&#x11a;" horiz-adv-x="693" d="M84 0zM374 858l57 52h140v-3l-124 -138h-156l-124 138v3h148zM84 0v700h553v-155h-356v-113h306v-157h-306v-119h366v-156h-563z" />
<glyph unicode="&#x11b;" horiz-adv-x="580" d="M33 0zM298 659l57 52h140v-3l-124 -138h-156l-124 138v3h148zM305 -15q-62 0 -112 16t-85.5 48.5t-55 81.5t-19.5 115q0 63 18 113t52 85t83 53.5t112 18.5q66 0 113 -20.5t77 -55.5t43.5 -82t13.5 -101q0 -14 -1 -28t-3 -30h-326q7 -46 34.5 -66t72.5 -20q35 0 59.5 12 t40.5 40l112 -71q-32 -55 -90.5 -82t-138.5 -27zM296 384q-34 0 -55.5 -20.5t-26.5 -61.5h156q-2 39 -20.5 60.5t-53.5 21.5z" />
<glyph unicode="&#x11c;" horiz-adv-x="754" d="M47 0zM398 821l-56 -52h-141v4l124 137h155l125 -137v-4h-149zM365 -15q-73 0 -132 22.5t-100 68t-63.5 114t-22.5 161.5q0 187 88.5 275.5t266.5 88.5q108 0 178 -37t104 -122l-162 -82q-21 43 -48 59t-74 16q-37 0 -65 -10t-47 -33.5t-28.5 -61.5t-9.5 -95 q0 -58 10 -97t29.5 -63t48.5 -34t66 -10q45 0 80 23t42 75h-122v148h303v-391h-137l-12 79q-27 -44 -75.5 -69t-117.5 -25z" />
<glyph unicode="&#x11d;" horiz-adv-x="638" d="M32 0zM296 622l-56 -52h-141v4l124 137h155l125 -137v-4h-149zM390 263q0 55 -24.5 83.5t-64.5 28.5q-41 0 -63 -28t-22 -85q0 -60 21.5 -88t63.5 -28t65.5 30t23.5 87zM582 502v-474q0 -64 -22 -111t-61.5 -78t-94 -46.5t-118.5 -15.5q-37 0 -73 5.5t-67 18.5t-56 32.5 t-40 48.5l102 94q22 -35 54.5 -50t70.5 -15q54 0 82.5 28t28.5 85v62q-23 -38 -59 -58t-89 -20q-46 0 -84.5 15.5t-66 46.5t-42.5 78.5t-15 110.5q0 64 16 112.5t45.5 80.5t70 48t89.5 16q54 0 94.5 -20.5t64.5 -62.5l14 69h156z" />
<glyph unicode="&#x11e;" horiz-adv-x="754" d="M47 0zM365 -15q-73 0 -132 22.5t-100 68t-63.5 114t-22.5 161.5q0 187 88.5 275.5t266.5 88.5q108 0 178 -37t104 -122l-162 -82q-21 43 -48 59t-74 16q-37 0 -65 -10t-47 -33.5t-28.5 -61.5t-9.5 -95q0 -58 10 -97t29.5 -63t48.5 -34t66 -10q45 0 80 23t42 75h-122v148 h303v-391h-137l-12 79q-27 -44 -75.5 -69t-117.5 -25zM474 909h113q0 -42 -12.5 -70.5t-36.5 -46t-58.5 -24.5t-78.5 -7t-78.5 7t-58 24.5t-36 46t-12.5 70.5h112q0 -35 17.5 -47t55.5 -12t55.5 12t17.5 47z" />
<glyph unicode="&#x11f;" horiz-adv-x="638" d="M32 0zM390 263q0 55 -24.5 83.5t-64.5 28.5q-41 0 -63 -28t-22 -85q0 -60 21.5 -88t63.5 -28t65.5 30t23.5 87zM582 502v-474q0 -64 -22 -111t-61.5 -78t-94 -46.5t-118.5 -15.5q-37 0 -73 5.5t-67 18.5t-56 32.5t-40 48.5l102 94q22 -35 54.5 -50t70.5 -15q54 0 82.5 28 t28.5 85v62q-23 -38 -59 -58t-89 -20q-46 0 -84.5 15.5t-66 46.5t-42.5 78.5t-15 110.5q0 64 16 112.5t45.5 80.5t70 48t89.5 16q54 0 94.5 -20.5t64.5 -62.5l14 69h156zM372 710h113q0 -42 -12.5 -70.5t-36.5 -46t-58.5 -24.5t-78.5 -7t-78.5 7t-58 24.5t-36 46t-12.5 70.5 h112q0 -35 17.5 -47t55.5 -12t55.5 12t17.5 47z" />
<glyph unicode="&#x120;" horiz-adv-x="754" d="M47 0zM365 -15q-73 0 -132 22.5t-100 68t-63.5 114t-22.5 161.5q0 187 88.5 275.5t266.5 88.5q108 0 178 -37t104 -122l-162 -82q-21 43 -48 59t-74 16q-37 0 -65 -10t-47 -33.5t-28.5 -61.5t-9.5 -95q0 -58 10 -97t29.5 -63t48.5 -34t66 -10q45 0 80 23t42 75h-122v148 h303v-391h-137l-12 79q-27 -44 -75.5 -69t-117.5 -25zM300 848q0 45 26.5 65t74.5 20t74 -20t26 -65q0 -44 -26 -64t-74 -20t-74.5 20t-26.5 64z" />
<glyph unicode="&#x121;" horiz-adv-x="638" d="M32 0zM390 263q0 55 -24.5 83.5t-64.5 28.5q-41 0 -63 -28t-22 -85q0 -60 21.5 -88t63.5 -28t65.5 30t23.5 87zM582 502v-474q0 -64 -22 -111t-61.5 -78t-94 -46.5t-118.5 -15.5q-37 0 -73 5.5t-67 18.5t-56 32.5t-40 48.5l102 94q22 -35 54.5 -50t70.5 -15q54 0 82.5 28 t28.5 85v62q-23 -38 -59 -58t-89 -20q-46 0 -84.5 15.5t-66 46.5t-42.5 78.5t-15 110.5q0 64 16 112.5t45.5 80.5t70 48t89.5 16q54 0 94.5 -20.5t64.5 -62.5l14 69h156zM198 649q0 45 26.5 65t74.5 20t74 -20t26 -65q0 -44 -26 -64t-74 -20t-74.5 20t-26.5 64z" />
<glyph unicode="&#x122;" horiz-adv-x="754" d="M47 0zM328 -354l-33 67q33 8 57 26.5t32 44.5q-44 0 -69 20.5t-25 59.5q0 43 25 64.5t73 21.5q47 0 73.5 -27t26.5 -81q0 -39 -11.5 -72t-32.5 -59t-50.5 -42.5t-65.5 -22.5zM365 -15q-73 0 -132 22.5t-100 68t-63.5 114t-22.5 161.5q0 187 88.5 275.5t266.5 88.5 q108 0 178 -37t104 -122l-162 -82q-21 43 -48 59t-74 16q-37 0 -65 -10t-47 -33.5t-28.5 -61.5t-9.5 -95q0 -58 10 -97t29.5 -63t48.5 -34t66 -10q45 0 80 23t42 75h-122v148h303v-391h-137l-12 79q-27 -44 -75.5 -69t-117.5 -25z" />
<glyph unicode="&#x123;" horiz-adv-x="638" d="M359 862l33 -67q-33 -8 -57 -26.5t-32 -44.5q44 0 69 -20.5t25 -59.5q0 -43 -25 -64.5t-73 -21.5q-47 0 -73.5 27t-26.5 81q0 39 11.5 72t32.5 59t50.5 42.5t65.5 22.5zM390 263q0 55 -24.5 83.5t-64.5 28.5q-41 0 -63 -28t-22 -85q0 -60 21.5 -88t63.5 -28t65.5 30 t23.5 87zM582 502v-474q0 -64 -22 -111t-61.5 -78t-94 -46.5t-118.5 -15.5q-37 0 -73 5.5t-67 18.5t-56 32.5t-40 48.5l102 94q22 -35 54.5 -50t70.5 -15q54 0 82.5 28t28.5 85v62q-23 -38 -59 -58t-89 -20q-46 0 -84.5 15.5t-66 46.5t-42.5 78.5t-15 110.5q0 64 16 112.5 t45.5 80.5t70 48t89.5 16q54 0 94.5 -20.5t64.5 -62.5l14 69h156z" />
<glyph unicode="&#x124;" horiz-adv-x="825" d="M84 0zM409 820l-56 -52h-141v4l124 137h155l125 -137v-4h-149zM538 0v263h-252v-263h-202v700h202v-266h252v266h202v-700h-202z" />
<glyph unicode="&#x125;" horiz-adv-x="654" d="M0 0zM150 810l-56 -52h-141v4l124 137h155l125 -137v-4h-149zM251 700v-287q26 50 70.5 76.5t99.5 26.5q47 0 81 -15t56 -42t32.5 -63.5t10.5 -79.5v-316h-194v247q0 58 -18 79t-54 21t-59.5 -25t-24.5 -78v-244h-194v700h194z" />
<glyph unicode="&#x126;" horiz-adv-x="845" d="M296 434h253v73h-253v-73zM549 0v263h-253v-263h-202v507h-62v97h62v96h202v-96h253v96h201v-96h63v-97h-63v-507h-201z" />
<glyph unicode="&#x127;" horiz-adv-x="666" d="M13 541v95h56v64h193v-64h120v-95h-120v-137q26 51 71 78.5t100 27.5q82 0 130.5 -51t48.5 -152v-307h-194v234q0 59 -18 81t-53 22q-36 0 -60 -25t-25 -81v-231h-193v541h-56z" />
<glyph unicode="&#x128;" horiz-adv-x="371" d="M0 0zM84 0v700h202v-700h-202zM270 906h109q3 -38 -6 -63.5t-25 -41t-37 -22t-41 -6.5q-23 0 -42.5 5t-37 10.5t-32.5 10.5t-30 5q-17 0 -22.5 -10.5t-5.5 -21.5h-109q-3 38 6 63.5t25 41t36.5 22t41.5 6.5q23 0 42.5 -5t37 -10.5t32.5 -10.5t30 -5q18 0 23 9.5t5 22.5z " />
<glyph unicode="&#x129;" horiz-adv-x="309" d="M0 0zM58 502h194v-502h-194v502zM239 708h109q3 -38 -6 -63.5t-25 -41t-37 -22t-41 -6.5q-23 0 -42.5 5t-37 10.5t-32.5 10.5t-30 5q-17 0 -22.5 -10.5t-5.5 -21.5h-109q-3 38 6 63.5t25 41t36.5 22t41.5 6.5q23 0 42.5 -5t37 -10.5t32.5 -10.5t30 -5q18 0 23 9.5t5 22.5 z" />
<glyph unicode="&#x12a;" horiz-adv-x="371" d="M33 0zM84 0v700h202v-700h-202zM339 883v-101h-306v101h306z" />
<glyph unicode="&#x12b;" horiz-adv-x="309" d="M1 0zM58 502h194v-502h-194v502zM307 685v-101h-306v101h306z" />
<glyph unicode="&#x12c;" horiz-adv-x="371" d="M0 0zM84 0v700h202v-700h-202zM258 908h113q0 -42 -12.5 -70.5t-36.5 -46t-58.5 -24.5t-78.5 -7t-78.5 7t-58 24.5t-36 46t-12.5 70.5h112q0 -35 17.5 -47t55.5 -12t55.5 12t17.5 47z" />
<glyph unicode="&#x12d;" horiz-adv-x="309" d="M0 0zM58 502h194v-502h-194v502zM227 710h113q0 -42 -12.5 -70.5t-36.5 -46t-58.5 -24.5t-78.5 -7t-78.5 7t-58 24.5t-36 46t-12.5 70.5h112q0 -35 17.5 -47t55.5 -12t55.5 12t17.5 47z" />
<glyph unicode="&#x12e;" horiz-adv-x="371" d="M150 -238q-29 0 -57.5 7t-51 22.5t-36.5 41.5t-14 65q0 51 26.5 86.5t66.5 53.5v662h202v-700h-100q-48 -4 -68 -29t-20 -56q0 -29 20 -40t46 -11q17 0 34.5 4t33.5 13l26 -90q-47 -29 -108 -29z" />
<glyph unicode="&#x12f;" horiz-adv-x="309" d="M47 646q0 50 28 72.5t80 22.5q51 0 78.5 -22.5t27.5 -72.5q0 -48 -27.5 -70.5t-78.5 -22.5q-52 0 -80 22.5t-28 70.5zM119 -238q-29 0 -57 7t-50.5 22.5t-36.5 41.5t-14 65q0 52 27.5 88t69.5 54v462h194v-502h-96q-48 -4 -68 -29t-20 -56q0 -29 20 -40t46 -11 q17 0 34.5 4t33.5 13l26 -90q-47 -29 -109 -29z" />
<glyph unicode="&#x130;" horiz-adv-x="371" d="M84 0zM84 0v700h202v-700h-202zM84 847q0 45 26.5 65t74.5 20t74 -20t26 -65q0 -44 -26 -64t-74 -20t-74.5 20t-26.5 64z" />
<glyph unicode="&#x131;" horiz-adv-x="309" d="M58 502h194v-502h-194v502z" />
<glyph unicode="&#x132;" horiz-adv-x="934" d="M85 0zM85 0v700h202v-700h-202zM569 -15q-50 0 -104.5 15.5t-99.5 53.5l79 137q25 -22 56.5 -33t61.5 -11q48 0 75 26.5t27 92.5v434h202v-436q0 -77 -22 -130t-61.5 -86t-94 -48t-119.5 -15z" />
<glyph unicode="&#x133;" horiz-adv-x="618" d="M47 0zM47 646q0 50 28 72.5t80 22.5q51 0 78.5 -22.5t27.5 -72.5q0 -48 -27.5 -70.5t-78.5 -22.5q-52 0 -80 22.5t-28 70.5zM58 502h194v-502h-194v502zM356 646q0 50 28 72.5t80 22.5q51 0 78.5 -22.5t27.5 -72.5q0 -48 -27.5 -70.5t-78.5 -22.5q-52 0 -80 22.5 t-28 70.5zM367 -13v515h194v-525q0 -51 -15.5 -88.5t-44 -62.5t-67.5 -37t-86 -12q-29 0 -62 6t-60 20l31 122q21 -11 50 -11q32 0 46 16.5t14 56.5z" />
<glyph unicode="&#x134;" horiz-adv-x="561" d="M0 0zM392 820l-56 -52h-141v4l124 137h155l125 -137v-4h-149zM196 -15q-50 0 -104.5 15.5t-99.5 53.5l79 137q25 -22 56.5 -33t61.5 -11q48 0 75 26.5t27 92.5v434h202v-436q0 -77 -22 -130t-61.5 -86t-94 -48t-119.5 -15z" />
<glyph unicode="&#x135;" horiz-adv-x="309" d="M0 0zM58 -13v515h194v-525q0 -51 -15.5 -88.5t-44 -62.5t-67.5 -37t-86 -12q-29 0 -62 6t-60 20l31 122q21 -11 50 -11q32 0 46 16.5t14 56.5zM151 622l-56 -52h-141v4l124 137h155l125 -137v-4h-149z" />
<glyph unicode="&#x136;" horiz-adv-x="759" d="M84 0zM339 -354l-33 67q33 8 57 26.5t32 44.5q-44 0 -69 20.5t-25 59.5q0 43 25 64.5t73 21.5q47 0 73.5 -27t26.5 -81q0 -39 -11.5 -72t-32.5 -59t-50.5 -42.5t-65.5 -22.5zM84 0v700h202l-1 -298l231 298h237l-257 -310l251 -390h-243l-147 244l-71 -80v-164h-202z" />
<glyph unicode="&#x137;" horiz-adv-x="614" d="M57 0zM265 -354l-33 67q33 8 57 26.5t32 44.5q-44 0 -69 20.5t-25 59.5q0 43 25 64.5t73 21.5q47 0 73.5 -27t26.5 -81q0 -39 -11.5 -72t-32.5 -59t-50.5 -42.5t-65.5 -22.5zM57 0v700h194l-6 -407l158 209h205l-183 -222l186 -280h-211l-101 156l-51 -58v-98h-191z" />
<glyph unicode="&#x138;" horiz-adv-x="614" d="M57 0v502h190l-2 -210l158 210h205l-183 -222l186 -280h-211l-101 155l-51 -57v-98h-191z" />
<glyph unicode="&#x139;" horiz-adv-x="652" d="M84 0zM382 902l-136 -134h-147v5l84 136h199v-7zM287 166h340v-166h-543v700h203v-534z" />
<glyph unicode="&#x13a;" horiz-adv-x="328" d="M57 0zM346 902l-136 -134h-147v5l84 136h199v-7zM216 0q-83 0 -121 38.5t-38 116.5v545h194v-526q0 -21 7.5 -30t23.5 -9h33v-135h-99z" />
<glyph unicode="&#x13b;" horiz-adv-x="652" d="M84 0zM300 -354l-33 67q33 8 57 26.5t32 44.5q-44 0 -69 20.5t-25 59.5q0 43 25 64.5t73 21.5q47 0 73.5 -27t26.5 -81q0 -39 -11.5 -72t-32.5 -59t-50.5 -42.5t-65.5 -22.5zM287 166h340v-166h-543v700h203v-534z" />
<glyph unicode="&#x13c;" horiz-adv-x="328" d="M57 0zM127 -354l-33 67q33 8 57 26.5t32 44.5q-44 0 -69 20.5t-25 59.5q0 43 25 64.5t73 21.5q47 0 73.5 -27t26.5 -81q0 -39 -11.5 -72t-32.5 -59t-50.5 -42.5t-65.5 -22.5zM216 0q-83 0 -121 38.5t-38 116.5v545h194v-526q0 -21 7.5 -30t23.5 -9h33v-135h-99z" />
<glyph unicode="&#x13d;" horiz-adv-x="652" d="M84 0zM526 421h-123l7 279h150zM287 166h340v-166h-543v700h203v-534z" />
<glyph unicode="&#x13e;" horiz-adv-x="463" d="M57 0zM439 421h-123l7 279h150zM216 0q-83 0 -121 38.5t-38 116.5v545h194v-526q0 -21 7.5 -30t23.5 -9h33v-135h-99z" />
<glyph unicode="&#x13f;" horiz-adv-x="652" d="M84 0zM287 166h340v-166h-543v700h203v-534zM402 361q0 45 26.5 65t74.5 20t74 -20t26 -65q0 -44 -26 -64t-74 -20t-74.5 20t-26.5 64z" />
<glyph unicode="&#x140;" horiz-adv-x="476" d="M57 0zM216 0q-83 0 -121 38.5t-38 116.5v545h194v-526q0 -21 7.5 -30t23.5 -9h33v-135h-99zM291 303q0 45 26.5 65t74.5 20t74 -20t26 -65q0 -44 -26 -64t-74 -20t-74.5 20t-26.5 64z" />
<glyph unicode="&#x141;" horiz-adv-x="668" d="M303 166h341v-166h-543v201l-79 -42v151l79 41v349h202v-253l160 81v-151l-160 -81v-130z" />
<glyph unicode="&#x142;" horiz-adv-x="339" d="M331 0h-99q-83 0 -121 38.5t-38 116.5v48l-72 -51v151l72 51v346h194v-230l77 55v-151l-77 -54v-146q0 -21 7.5 -30t23.5 -9h33v-135z" />
<glyph unicode="&#x143;" horiz-adv-x="821" d="M84 0zM605 903l-136 -134h-147v5l84 136h199v-7zM567 0l-298 382l5 -382h-190v700h150l317 -415l-4 415h190v-700h-170z" />
<glyph unicode="&#x144;" horiz-adv-x="654" d="M57 0zM545 704l-136 -134h-147v5l84 136h199v-7zM57 502h159l15 -89q29 49 76 76t107 27q50 0 85.5 -15t58 -42t33 -63.5t10.5 -79.5v-316h-194v247q0 58 -18 79t-54 21t-59.5 -25t-24.5 -78v-244h-194v502z" />
<glyph unicode="&#x145;" horiz-adv-x="821" d="M84 0zM355 -354l-33 67q33 8 57 26.5t32 44.5q-44 0 -69 20.5t-25 59.5q0 43 25 64.5t73 21.5q47 0 73.5 -27t26.5 -81q0 -39 -11.5 -72t-32.5 -59t-50.5 -42.5t-65.5 -22.5zM567 0l-298 382l5 -382h-190v700h150l317 -415l-4 415h190v-700h-170z" />
<glyph unicode="&#x146;" horiz-adv-x="654" d="M57 0zM275 -354l-33 67q33 8 57 26.5t32 44.5q-44 0 -69 20.5t-25 59.5q0 43 25 64.5t73 21.5q47 0 73.5 -27t26.5 -81q0 -39 -11.5 -72t-32.5 -59t-50.5 -42.5t-65.5 -22.5zM57 502h159l15 -89q29 49 76 76t107 27q50 0 85.5 -15t58 -42t33 -63.5t10.5 -79.5v-316h-194 v247q0 58 -18 79t-54 21t-59.5 -25t-24.5 -78v-244h-194v502z" />
<glyph unicode="&#x147;" horiz-adv-x="821" d="M84 0zM416 858l57 52h140v-3l-124 -138h-156l-124 138v3h148zM567 0l-298 382l5 -382h-190v700h150l317 -415l-4 415h190v-700h-170z" />
<glyph unicode="&#x148;" horiz-adv-x="654" d="M57 0zM356 659l57 52h140v-3l-124 -138h-156l-124 138v3h148zM57 502h159l15 -89q29 49 76 76t107 27q50 0 85.5 -15t58 -42t33 -63.5t10.5 -79.5v-316h-194v247q0 58 -18 79t-54 21t-59.5 -25t-24.5 -78v-244h-194v502z" />
<glyph unicode="&#x14a;" horiz-adv-x="821" d="M546 -13v37l-277 358l5 -382h-190v700h150l317 -415l-4 415h190v-723q0 -51 -15.5 -88.5t-43.5 -62.5t-67 -37t-86 -12q-29 0 -62.5 6t-59.5 20l30 122q22 -11 51 -11q33 0 47.5 16.5t14.5 56.5z" />
<glyph unicode="&#x14b;" horiz-adv-x="654" d="M407 -13v260q0 58 -18 79t-54 21t-59.5 -25t-24.5 -78v-244h-194v502h159l16 -88q28 51 75 76.5t107 25.5q50 0 85.5 -15t58 -42t33 -63.5t10.5 -79.5v-339q0 -51 -15.5 -88.5t-43.5 -62.5t-67 -37t-86 -12q-29 0 -62 6t-60 20l31 122q21 -11 50 -11q32 0 45.5 16.5 t13.5 56.5z" />
<glyph unicode="&#x14c;" horiz-adv-x="798" d="M47 0zM549 884v-101h-306v101h306zM398 -15q-185 0 -268 92t-83 274q0 183 86 273.5t267 90.5q93 0 160 -23t109.5 -69t62.5 -114t20 -159q0 -183 -86.5 -274t-267.5 -91zM399 550q-38 0 -65.5 -10.5t-46.5 -34t-28 -62t-9 -94.5q0 -55 9.5 -93t28 -62t46 -34.5 t64.5 -10.5t65 10.5t46.5 34.5t27.5 62.5t9 94.5q0 55 -9 93t-27.5 61.5t-46 34t-64.5 10.5z" />
<glyph unicode="&#x14d;" horiz-adv-x="616" d="M34 0zM461 685v-101h-306v101h306zM34 251q0 68 19 118t54.5 82.5t86 48.5t114.5 16q138 0 206 -64t68 -201q0 -132 -69.5 -199t-204.5 -67q-274 0 -274 266zM399 250q0 64 -21 93.5t-70 29.5q-50 0 -71 -29.5t-21 -93.5q0 -66 22 -95.5t70 -29.5t69.5 29.5t21.5 95.5z " />
<glyph unicode="&#x14e;" horiz-adv-x="798" d="M47 0zM398 -15q-185 0 -268 92t-83 274q0 183 86 273.5t267 90.5q93 0 160 -23t109.5 -69t62.5 -114t20 -159q0 -183 -86.5 -274t-267.5 -91zM399 550q-38 0 -65.5 -10.5t-46.5 -34t-28 -62t-9 -94.5q0 -55 9.5 -93t28 -62t46 -34.5t64.5 -10.5t65 10.5t46.5 34.5 t27.5 62.5t9 94.5q0 55 -9 93t-27.5 61.5t-46 34t-64.5 10.5zM468 909h113q0 -42 -12.5 -70.5t-36.5 -46t-58.5 -24.5t-78.5 -7t-78.5 7t-58 24.5t-36 46t-12.5 70.5h112q0 -35 17.5 -47t55.5 -12t55.5 12t17.5 47z" />
<glyph unicode="&#x14f;" horiz-adv-x="616" d="M34 0zM34 251q0 68 19 118t54.5 82.5t86 48.5t114.5 16q138 0 206 -64t68 -201q0 -132 -69.5 -199t-204.5 -67q-274 0 -274 266zM399 250q0 64 -21 93.5t-70 29.5q-50 0 -71 -29.5t-21 -93.5q0 -66 22 -95.5t70 -29.5t69.5 29.5t21.5 95.5zM381 710h113 q0 -42 -12.5 -70.5t-36.5 -46t-58.5 -24.5t-78.5 -7t-78.5 7t-58 24.5t-36 46t-12.5 70.5h112q0 -35 17.5 -47t55.5 -12t55.5 12t17.5 47z" />
<glyph unicode="&#x150;" horiz-adv-x="798" d="M47 0zM690 905l-134 -136h-137v5l79 136h192v-5zM463 903l-123 -134h-124v5l70 136h177v-7zM398 -15q-185 0 -268 92t-83 274q0 183 86 273.5t267 90.5q93 0 160 -23t109.5 -69t62.5 -114t20 -159q0 -183 -86.5 -274t-267.5 -91zM399 550q-38 0 -65.5 -10.5t-46.5 -34 t-28 -62t-9 -94.5q0 -55 9.5 -93t28 -62t46 -34.5t64.5 -10.5t65 10.5t46.5 34.5t27.5 62.5t9 94.5q0 55 -9 93t-27.5 61.5t-46 34t-64.5 10.5z" />
<glyph unicode="&#x151;" horiz-adv-x="616" d="M34 0zM602 706l-134 -136h-137v5l79 136h192v-5zM375 704l-123 -134h-124v5l70 136h177v-7zM34 251q0 68 19 118t54.5 82.5t86 48.5t114.5 16q138 0 206 -64t68 -201q0 -132 -69.5 -199t-204.5 -67q-274 0 -274 266zM399 250q0 64 -21 93.5t-70 29.5q-50 0 -71 -29.5 t-21 -93.5q0 -66 22 -95.5t70 -29.5t69.5 29.5t21.5 95.5z" />
<glyph unicode="&#x152;" horiz-adv-x="1101" d="M1055 0h-669q-168 0 -254 86t-86 265q0 172 83.5 260.5t258.5 88.5h657v-155h-354v-113h304v-157h-304v-119h364v-156zM386 160h108v380h-98q-71 0 -108.5 -43.5t-37.5 -147.5q0 -98 34 -143.5t102 -45.5z" />
<glyph unicode="&#x153;" horiz-adv-x="949" d="M33 251q0 136 73.5 200.5t201.5 64.5q120 0 182 -56q68 56 177 56q66 0 113 -20.5t77 -55.5t43.5 -82t13.5 -101q0 -14 -1 -28t-3 -30h-326q7 -46 34.5 -66t72.5 -20q35 0 59.5 12t40.5 40l112 -71q-32 -55 -90.5 -82t-138.5 -27q-58 0 -105.5 13.5t-82.5 42.5 q-64 -56 -178 -56q-275 0 -275 266zM665 384q-34 0 -55.5 -20.5t-26.5 -61.5h156q-2 39 -20.5 60.5t-53.5 21.5zM399 250q0 64 -21 93.5t-71 29.5q-49 0 -70 -29.5t-21 -93.5q0 -66 21.5 -95.5t69.5 -29.5t70 29.5t22 95.5z" />
<glyph unicode="&#x154;" horiz-adv-x="733" d="M84 0zM585 903l-136 -134h-147v5l84 136h199v-7zM416 536h-134v-165h131q38 0 60 21.5t22 62.5q0 33 -18 57t-61 24zM84 0v700h373q60 0 104.5 -17.5t74.5 -49t45 -76t15 -97.5q0 -75 -28.5 -127.5t-80.5 -81.5l114 -251h-221l-88 213h-110v-213h-198z" />
<glyph unicode="&#x155;" horiz-adv-x="427" d="M57 0zM426 704l-136 -134h-147v5l84 136h199v-7zM57 0v502h159l16 -97q26 53 71 83t103 30l2 -184q-81 5 -118.5 -38.5t-38.5 -116.5v-179h-194z" />
<glyph unicode="&#x156;" horiz-adv-x="733" d="M84 0zM322 -354l-33 67q33 8 57 26.5t32 44.5q-44 0 -69 20.5t-25 59.5q0 43 25 64.5t73 21.5q47 0 73.5 -27t26.5 -81q0 -39 -11.5 -72t-32.5 -59t-50.5 -42.5t-65.5 -22.5zM416 536h-134v-165h131q38 0 60 21.5t22 62.5q0 33 -18 57t-61 24zM84 0v700h373 q60 0 104.5 -17.5t74.5 -49t45 -76t15 -97.5q0 -75 -28.5 -127.5t-80.5 -81.5l114 -251h-221l-88 213h-110v-213h-198z" />
<glyph unicode="&#x157;" horiz-adv-x="427" d="M57 0zM98 -354l-33 67q33 8 57 26.5t32 44.5q-44 0 -69 20.5t-25 59.5q0 43 25 64.5t73 21.5q47 0 73.5 -27t26.5 -81q0 -39 -11.5 -72t-32.5 -59t-50.5 -42.5t-65.5 -22.5zM57 0v502h159l16 -97q26 53 71 83t103 30l2 -184q-81 5 -118.5 -38.5t-38.5 -116.5v-179h-194z " />
<glyph unicode="&#x158;" horiz-adv-x="733" d="M84 0zM396 858l57 52h140v-3l-124 -138h-156l-124 138v3h148zM416 536h-134v-165h131q38 0 60 21.5t22 62.5q0 33 -18 57t-61 24zM84 0v700h373q60 0 104.5 -17.5t74.5 -49t45 -76t15 -97.5q0 -75 -28.5 -127.5t-80.5 -81.5l114 -251h-221l-88 213h-110v-213h-198z" />
<glyph unicode="&#x159;" horiz-adv-x="427" d="M40 0zM247 659l57 52h140v-3l-124 -138h-156l-124 138v3h148zM57 0v502h159l16 -97q26 53 71 83t103 30l2 -184q-81 5 -118.5 -38.5t-38.5 -116.5v-179h-194z" />
<glyph unicode="&#x15a;" horiz-adv-x="641" d="M20 0zM512 903l-136 -134h-147v5l84 136h199v-7zM588 582l-129 -91q-26 37 -56.5 55.5t-80.5 18.5q-54 0 -75.5 -17t-21.5 -42t21 -40t73 -26l64 -14q65 -14 107.5 -35.5t67.5 -49.5t35 -61t10 -70q0 -51 -19 -92.5t-56.5 -71t-93 -45.5t-129.5 -16q-43 0 -85 6.5 t-79.5 22.5t-68.5 42t-52 65l123 96q27 -48 65 -69t96 -21q53 0 82.5 15.5t29.5 45.5q0 25 -17.5 38.5t-66.5 24.5l-69 16q-63 15 -105 38.5t-66.5 53t-35 63t-10.5 67.5q0 50 18 91.5t52.5 71.5t86 46.5t118.5 16.5q87 0 156.5 -29.5t110.5 -103.5z" />
<glyph unicode="&#x15b;" horiz-adv-x="510" d="M10 0zM449 704l-136 -134h-147v5l84 136h199v-7zM242 103q71 0 71 27q0 16 -17 23t-51 14l-46 9q-34 7 -63.5 20t-51.5 33t-34.5 46.5t-12.5 61.5q0 38 13 71t40 57t68.5 37.5t98.5 13.5q72 0 127 -20.5t93 -68.5l-91 -93q-20 23 -49 40t-75 17q-29 0 -46 -7.5t-17 -24.5 q0 -12 12.5 -22t42.5 -16l63 -12q86 -17 124 -57t38 -94q0 -33 -12.5 -64t-40 -55t-72.5 -38.5t-110 -14.5q-81 0 -141.5 23t-92.5 69l83 92q23 -32 62 -49.5t87 -17.5z" />
<glyph unicode="&#x15c;" horiz-adv-x="641" d="M20 0zM313 820l-56 -52h-141v4l124 137h155l125 -137v-4h-149zM588 582l-129 -91q-26 37 -56.5 55.5t-80.5 18.5q-54 0 -75.5 -17t-21.5 -42t21 -40t73 -26l64 -14q65 -14 107.5 -35.5t67.5 -49.5t35 -61t10 -70q0 -51 -19 -92.5t-56.5 -71t-93 -45.5t-129.5 -16 q-43 0 -85 6.5t-79.5 22.5t-68.5 42t-52 65l123 96q27 -48 65 -69t96 -21q53 0 82.5 15.5t29.5 45.5q0 25 -17.5 38.5t-66.5 24.5l-69 16q-63 15 -105 38.5t-66.5 53t-35 63t-10.5 67.5q0 50 18 91.5t52.5 71.5t86 46.5t118.5 16.5q87 0 156.5 -29.5t110.5 -103.5z" />
<glyph unicode="&#x15d;" horiz-adv-x="510" d="M10 0zM247 622l-56 -52h-141v4l124 137h155l125 -137v-4h-149zM242 103q71 0 71 27q0 16 -17 23t-51 14l-46 9q-34 7 -63.5 20t-51.5 33t-34.5 46.5t-12.5 61.5q0 38 13 71t40 57t68.5 37.5t98.5 13.5q72 0 127 -20.5t93 -68.5l-91 -93q-20 23 -49 40t-75 17 q-29 0 -46 -7.5t-17 -24.5q0 -12 12.5 -22t42.5 -16l63 -12q86 -17 124 -57t38 -94q0 -33 -12.5 -64t-40 -55t-72.5 -38.5t-110 -14.5q-81 0 -141.5 23t-92.5 69l83 92q23 -32 62 -49.5t87 -17.5z" />
<glyph unicode="&#x15e;" horiz-adv-x="641" d="M311 -258q-48 0 -89 18t-64 56l60 62q16 -23 36.5 -35.5t49.5 -12.5q20 0 33.5 8t13.5 27q0 14 -13.5 24t-38.5 10q-6 0 -11.5 -1t-11.5 -2l-27 15l27 75q-39 2 -77 10t-71.5 24t-61 40.5t-46.5 60.5l123 96q27 -48 65 -69t96 -21q53 0 82.5 15.5t29.5 45.5 q0 25 -17.5 38.5t-66.5 24.5l-69 16q-63 15 -105 38.5t-66.5 53t-35 63t-10.5 67.5q0 50 18 91.5t52.5 71.5t86 46.5t118.5 16.5q87 0 156.5 -29.5t110.5 -103.5l-129 -91q-26 37 -56.5 55.5t-80.5 18.5q-54 0 -75.5 -17t-21.5 -42t21 -40t73 -26l64 -14q65 -14 107.5 -35.5 t67.5 -49.5t35 -61t10 -70q0 -91 -59.5 -150t-177.5 -72l-14 -33h1q21 -2 40.5 -8.5t35 -18.5t24.5 -29.5t9 -39.5q0 -30 -12 -52t-33 -36.5t-48.5 -21.5t-57.5 -7z" />
<glyph unicode="&#x15f;" horiz-adv-x="510" d="M232 -258q-48 0 -89 18t-64 56l60 62q16 -23 36.5 -35.5t49.5 -12.5q20 0 33.5 8t13.5 27q0 14 -13.5 24t-38.5 10q-6 0 -11.5 -1t-11.5 -2l-27 15l28 77q-64 6 -112 28.5t-76 61.5l83 92q23 -32 62 -49.5t87 -17.5q71 0 71 27q0 16 -17 23t-51 14l-46 9q-34 7 -63.5 20 t-51.5 33t-34.5 46.5t-12.5 61.5q0 38 13 71t40 57t68.5 37.5t98.5 13.5q72 0 127 -20.5t93 -68.5l-91 -93q-20 23 -49 40t-75 17q-29 0 -46 -7.5t-17 -24.5q0 -12 12.5 -22t42.5 -16l63 -12q86 -17 124 -57t38 -94q0 -30 -10.5 -58.5t-33 -51.5t-59.5 -39t-89 -21l-14 -33 h1q21 -2 40.5 -8.5t35 -18.5t24.5 -29.5t9 -39.5q0 -30 -12 -52t-33 -36.5t-48.5 -21.5t-57.5 -7z" />
<glyph unicode="&#x160;" horiz-adv-x="641" d="M20 0zM323 858l57 52h140v-3l-124 -138h-156l-124 138v3h148zM588 582l-129 -91q-26 37 -56.5 55.5t-80.5 18.5q-54 0 -75.5 -17t-21.5 -42t21 -40t73 -26l64 -14q65 -14 107.5 -35.5t67.5 -49.5t35 -61t10 -70q0 -51 -19 -92.5t-56.5 -71t-93 -45.5t-129.5 -16 q-43 0 -85 6.5t-79.5 22.5t-68.5 42t-52 65l123 96q27 -48 65 -69t96 -21q53 0 82.5 15.5t29.5 45.5q0 25 -17.5 38.5t-66.5 24.5l-69 16q-63 15 -105 38.5t-66.5 53t-35 63t-10.5 67.5q0 50 18 91.5t52.5 71.5t86 46.5t118.5 16.5q87 0 156.5 -29.5t110.5 -103.5z" />
<glyph unicode="&#x161;" horiz-adv-x="510" d="M10 0zM257 659l57 52h140v-3l-124 -138h-156l-124 138v3h148zM242 103q71 0 71 27q0 16 -17 23t-51 14l-46 9q-34 7 -63.5 20t-51.5 33t-34.5 46.5t-12.5 61.5q0 38 13 71t40 57t68.5 37.5t98.5 13.5q72 0 127 -20.5t93 -68.5l-91 -93q-20 23 -49 40t-75 17 q-29 0 -46 -7.5t-17 -24.5q0 -12 12.5 -22t42.5 -16l63 -12q86 -17 124 -57t38 -94q0 -33 -12.5 -64t-40 -55t-72.5 -38.5t-110 -14.5q-81 0 -141.5 23t-92.5 69l83 92q23 -32 62 -49.5t87 -17.5z" />
<glyph unicode="&#x162;" horiz-adv-x="645" d="M15 0zM263 -354l-33 67q33 8 57 26.5t32 44.5q-44 0 -69 20.5t-25 59.5q0 43 25 64.5t73 21.5q47 0 73.5 -27t26.5 -81q0 -39 -11.5 -72t-32.5 -59t-50.5 -42.5t-65.5 -22.5zM15 700h615v-170h-207v-530h-201v530h-207v170z" />
<glyph unicode="&#x163;" horiz-adv-x="429" d="M13 0zM220 -354l-33 67q33 8 57 26.5t32 44.5q-44 0 -69 20.5t-25 59.5q0 43 25 64.5t73 21.5q47 0 73.5 -27t26.5 -81q0 -39 -11.5 -72t-32.5 -59t-50.5 -42.5t-65.5 -22.5zM13 502h71v140h190v-140h129v-140h-129v-173q0 -67 64 -67q35 0 62 14l25 -115 q-29 -17 -65 -26.5t-79 -9.5q-40 0 -76 9t-63 30t-42.5 56.5t-15.5 89.5v192h-71v140z" />
<glyph unicode="&#x164;" horiz-adv-x="645" d="M15 0zM328 858l57 52h140v-3l-124 -138h-156l-124 138v3h148zM15 700h615v-170h-207v-530h-201v530h-207v170z" />
<glyph unicode="&#x165;" horiz-adv-x="447" d="M446 554h-118l7 197h135zM13 502h71v140h190v-140h129v-140h-129v-173q0 -67 64 -67q35 0 62 14l25 -115q-29 -17 -65 -26.5t-79 -9.5q-40 0 -76 9t-63 30t-42.5 56.5t-15.5 89.5v192h-71v140z" />
<glyph unicode="&#x166;" horiz-adv-x="646" d="M15 700h615v-170h-206v-128h157v-140h-157v-262h-202v262h-155v140h155v128h-207v170z" />
<glyph unicode="&#x167;" horiz-adv-x="429" d="M403 502v-140h-129v-51h128v-96h-128v-32q3 -61 64 -61q17 0 32.5 3.5t29.5 11.5l25 -116q-29 -17 -65 -26.5t-79 -9.5q-40 0 -76 9t-63 30t-42.5 56.5t-15.5 89.5v45h-71v96h71v51h-71v140h71v140h190v-140h129z" />
<glyph unicode="&#x168;" horiz-adv-x="781" d="M68 0zM512 279v421h201v-410q0 -83 -22 -141t-63 -94.5t-100.5 -53t-135.5 -16.5q-158 0 -241 71.5t-83 233.5v410h201v-421q0 -63 31.5 -95.5t90.5 -32.5t90 32.5t31 95.5zM476 906h109q3 -38 -6 -63.5t-25 -41t-37 -22t-41 -6.5q-23 0 -42.5 5t-37 10.5t-32.5 10.5 t-30 5q-17 0 -22.5 -10.5t-5.5 -21.5h-109q-3 38 6 63.5t25 41t36.5 22t41.5 6.5q23 0 42.5 -5t37 -10.5t32.5 -10.5t30 -5q18 0 23 9.5t5 22.5z" />
<glyph unicode="&#x169;" horiz-adv-x="652" d="M53 0zM435 0l-15 83q-27 -48 -72.5 -73t-101.5 -25q-52 0 -88.5 15t-60 40.5t-34 60.5t-10.5 75v326h194v-267q0 -48 16.5 -69.5t54.5 -21.5q32 0 56 25.5t25 76.5v256h193v-502h-157zM407 708h109q3 -38 -6 -63.5t-25 -41t-37 -22t-41 -6.5q-23 0 -42.5 5t-37 10.5 t-32.5 10.5t-30 5q-17 0 -22.5 -10.5t-5.5 -21.5h-109q-3 38 6 63.5t25 41t36.5 22t41.5 6.5q23 0 42.5 -5t37 -10.5t32.5 -10.5t30 -5q18 0 23 9.5t5 22.5z" />
<glyph unicode="&#x16a;" horiz-adv-x="781" d="M68 0zM512 279v421h201v-410q0 -83 -22 -141t-63 -94.5t-100.5 -53t-135.5 -16.5q-158 0 -241 71.5t-83 233.5v410h201v-421q0 -63 31.5 -95.5t90.5 -32.5t90 32.5t31 95.5zM544 883v-101h-306v101h306z" />
<glyph unicode="&#x16b;" horiz-adv-x="652" d="M53 0zM435 0l-15 83q-27 -48 -72.5 -73t-101.5 -25q-52 0 -88.5 15t-60 40.5t-34 60.5t-10.5 75v326h194v-267q0 -48 16.5 -69.5t54.5 -21.5q32 0 56 25.5t25 76.5v256h193v-502h-157zM475 685v-101h-306v101h306z" />
<glyph unicode="&#x16c;" horiz-adv-x="781" d="M68 0zM512 279v421h201v-410q0 -83 -22 -141t-63 -94.5t-100.5 -53t-135.5 -16.5q-158 0 -241 71.5t-83 233.5v410h201v-421q0 -63 31.5 -95.5t90.5 -32.5t90 32.5t31 95.5zM464 908h113q0 -42 -12.5 -70.5t-36.5 -46t-58.5 -24.5t-78.5 -7t-78.5 7t-58 24.5t-36 46 t-12.5 70.5h112q0 -35 17.5 -47t55.5 -12t55.5 12t17.5 47z" />
<glyph unicode="&#x16d;" horiz-adv-x="652" d="M53 0zM435 0l-15 83q-27 -48 -72.5 -73t-101.5 -25q-52 0 -88.5 15t-60 40.5t-34 60.5t-10.5 75v326h194v-267q0 -48 16.5 -69.5t54.5 -21.5q32 0 56 25.5t25 76.5v256h193v-502h-157zM395 710h113q0 -42 -12.5 -70.5t-36.5 -46t-58.5 -24.5t-78.5 -7t-78.5 7t-58 24.5 t-36 46t-12.5 70.5h112q0 -35 17.5 -47t55.5 -12t55.5 12t17.5 47z" />
<glyph unicode="&#x16e;" horiz-adv-x="781" d="M68 0zM267 857q0 53 35 80.5t89 27.5t88.5 -27.5t34.5 -80.5q0 -54 -35 -81.5t-89 -27.5t-88.5 27.5t-34.5 81.5zM347 857q0 -20 12 -31.5t31 -11.5q20 0 32 11.5t12 31.5t-12 30.5t-31 10.5q-20 0 -32 -10.5t-12 -30.5zM512 279v421h201v-410q0 -83 -22 -141t-63 -94.5 t-100.5 -53t-135.5 -16.5q-158 0 -241 71.5t-83 233.5v410h201v-421q0 -63 31.5 -95.5t90.5 -32.5t90 32.5t31 95.5z" />
<glyph unicode="&#x16f;" horiz-adv-x="652" d="M53 0zM198 659q0 53 35 80.5t89 27.5t88.5 -27.5t34.5 -80.5q0 -54 -35 -81.5t-89 -27.5t-88.5 27.5t-34.5 81.5zM278 659q0 -20 12 -31.5t31 -11.5q20 0 32 11.5t12 31.5t-12 30.5t-31 10.5q-20 0 -32 -10.5t-12 -30.5zM435 0l-15 83q-27 -48 -72.5 -73t-101.5 -25 q-52 0 -88.5 15t-60 40.5t-34 60.5t-10.5 75v326h194v-267q0 -48 16.5 -69.5t54.5 -21.5q32 0 56 25.5t25 76.5v256h193v-502h-157z" />
<glyph unicode="&#x170;" horiz-adv-x="781" d="M68 0zM512 279v421h201v-410q0 -83 -22 -141t-63 -94.5t-100.5 -53t-135.5 -16.5q-158 0 -241 71.5t-83 233.5v410h201v-421q0 -63 31.5 -95.5t90.5 -32.5t90 32.5t31 95.5zM685 904l-134 -136h-137v5l79 136h192v-5zM458 902l-123 -134h-124v5l70 136h177v-7z" />
<glyph unicode="&#x171;" horiz-adv-x="652" d="M53 0zM435 0l-15 83q-27 -48 -72.5 -73t-101.5 -25q-52 0 -88.5 15t-60 40.5t-34 60.5t-10.5 75v326h194v-267q0 -48 16.5 -69.5t54.5 -21.5q32 0 56 25.5t25 76.5v256h193v-502h-157zM614 706l-134 -136h-137v5l79 136h192v-5zM387 704l-123 -134h-124v5l70 136h177v-7z " />
<glyph unicode="&#x172;" horiz-adv-x="781" d="M375 -98q0 24 6 45t17 38h-9q-78 0 -138 17.5t-100.5 54.5t-61.5 94.5t-21 138.5v410h203v-421q0 -63 31 -95t89 -32q59 0 89.5 32t30.5 95v421h203v-410q0 -61 -11.5 -107.5t-34 -81t-55.5 -58t-76 -38.5q-31 -12 -43 -33.5t-12 -45.5q0 -35 20 -48.5t45 -13.5 q37 0 69 18l26 -90q-45 -29 -108 -29q-29 0 -57.5 7t-51 23t-36.5 43t-14 66z" />
<glyph unicode="&#x173;" horiz-adv-x="650" d="M530 -238q-29 0 -57.5 7t-51 22.5t-36.5 41.5t-14 65q0 40 17 69.5t43 49.5l-11 66q-27 -48 -72.5 -73t-101.5 -25q-52 0 -88.5 15t-60 40.5t-34 60.5t-10.5 75v326h194v-267q0 -48 16.5 -69.5t54.5 -21.5q32 0 56 25.5t25 76.5v256h193v-502q-35 0 -57 -7.5t-35 -19.5 t-17.5 -27.5t-4.5 -30.5q0 -29 20 -40t46 -11q17 0 34.5 4t34.5 13l25 -90q-46 -29 -108 -29z" />
<glyph unicode="&#x174;" horiz-adv-x="997" d="M6 0zM495 820l-56 -52h-141v4l124 137h155l125 -137v-4h-149zM415 699h172l106 -427l101 428h198l-196 -700h-198l-101 419l-103 -419h-193l-195 700h205l97 -424z" />
<glyph unicode="&#x175;" horiz-adv-x="813" d="M5 0zM403 622l-56 -52h-141v4l124 137h155l125 -137v-4h-149zM337 501h145l83 -276l70 277h173l-155 -502h-167l-79 285l-79 -285h-166l-157 502h178l73 -275z" />
<glyph unicode="&#x176;" horiz-adv-x="718" d="M7 0zM258 251l-251 449h224l135 -275l133 275h212l-251 -455v-245h-202v251zM356 820l-56 -52h-141v4l124 137h155l125 -137v-4h-149z" />
<glyph unicode="&#x177;" horiz-adv-x="595" d="M5 0zM189 -29l10 31l-194 500h200l96 -293l90 293h199l-230 -594q-15 -37 -36.5 -62t-49.5 -40t-62 -21.5t-72 -6.5t-66.5 5.5t-54.5 16.5l17 134q21 -10 40 -14t36 -4q58 0 77 55zM293 622l-56 -52h-141v4l124 137h155l125 -137v-4h-149z" />
<glyph unicode="&#x178;" horiz-adv-x="718" d="M7 0zM258 251l-251 449h224l135 -275l133 275h212l-251 -455v-245h-202v251zM379 847q0 43 25 63t71 20t70.5 -20t24.5 -63q0 -45 -24.5 -64.5t-70.5 -19.5t-71 19.5t-25 64.5zM150 847q0 43 25 63t70 20q46 0 70.5 -20t24.5 -63q0 -45 -24.5 -64.5t-70.5 -19.5 q-45 0 -70 19.5t-25 64.5z" />
<glyph unicode="&#x179;" horiz-adv-x="634" d="M21 0zM510 903l-136 -134h-147v5l84 136h199v-7zM21 0v120l332 423l-320 -4v161h567v-118l-330 -425l339 4v-161h-588z" />
<glyph unicode="&#x17a;" horiz-adv-x="519" d="M27 0zM454 704l-136 -134h-147v5l84 136h199v-7zM27 0v106l230 256h-226v140h451v-112l-227 -251h236v-139h-464z" />
<glyph unicode="&#x17b;" horiz-adv-x="634" d="M21 0zM21 0v120l332 423l-320 -4v161h567v-118l-330 -425l339 4v-161h-588zM214 847q0 45 26.5 65t74.5 20t74 -20t26 -65q0 -44 -26 -64t-74 -20t-74.5 20t-26.5 64z" />
<glyph unicode="&#x17c;" horiz-adv-x="519" d="M27 0zM27 0v106l230 256h-226v140h451v-112l-227 -251h236v-139h-464zM158 649q0 45 26.5 65t74.5 20t74 -20t26 -65q0 -44 -26 -64t-74 -20t-74.5 20t-26.5 64z" />
<glyph unicode="&#x17d;" horiz-adv-x="634" d="M21 0zM321 858l57 52h140v-3l-124 -138h-156l-124 138v3h148zM21 0v120l332 423l-320 -4v161h567v-118l-330 -425l339 4v-161h-588z" />
<glyph unicode="&#x17e;" horiz-adv-x="519" d="M27 0zM265 659l57 52h140v-3l-124 -138h-156l-124 138v3h148zM27 0v106l230 256h-226v140h451v-112l-227 -251h236v-139h-464z" />
<glyph unicode="&#x192;" horiz-adv-x="433" d="M41 -14l40 257h-73l21 139h74l7 38q17 106 78.5 156.5t150.5 50.5q16 0 34.5 -2t36 -5.5t33 -10t26.5 -15.5l-48 -119q-11 8 -25 11.5t-28 3.5q-60 0 -72 -71l-7 -37h124l-22 -139h-124l-40 -266q-17 -102 -78 -151t-152 -49q-28 0 -61 6t-56 20l44 122q19 -11 47 -11 q30 0 47 16.5t23 55.5z" />
<glyph unicode="&#x218;" horiz-adv-x="641" d="M20 0zM259 -354l-33 67q33 8 57 26.5t32 44.5q-44 0 -69 20.5t-25 59.5q0 43 25 64.5t73 21.5q47 0 73.5 -27t26.5 -81q0 -39 -11.5 -72t-32.5 -59t-50.5 -42.5t-65.5 -22.5zM588 582l-129 -91q-26 37 -56.5 55.5t-80.5 18.5q-54 0 -75.5 -17t-21.5 -42t21 -40t73 -26 l64 -14q65 -14 107.5 -35.5t67.5 -49.5t35 -61t10 -70q0 -51 -19 -92.5t-56.5 -71t-93 -45.5t-129.5 -16q-43 0 -85 6.5t-79.5 22.5t-68.5 42t-52 65l123 96q27 -48 65 -69t96 -21q53 0 82.5 15.5t29.5 45.5q0 25 -17.5 38.5t-66.5 24.5l-69 16q-63 15 -105 38.5t-66.5 53 t-35 63t-10.5 67.5q0 50 18 91.5t52.5 71.5t86 46.5t118.5 16.5q87 0 156.5 -29.5t110.5 -103.5z" />
<glyph unicode="&#x219;" horiz-adv-x="510" d="M10 0zM180 -354l-33 67q33 8 57 26.5t32 44.5q-44 0 -69 20.5t-25 59.5q0 43 25 64.5t73 21.5q47 0 73.5 -27t26.5 -81q0 -39 -11.5 -72t-32.5 -59t-50.5 -42.5t-65.5 -22.5zM242 103q71 0 71 27q0 16 -17 23t-51 14l-46 9q-34 7 -63.5 20t-51.5 33t-34.5 46.5 t-12.5 61.5q0 38 13 71t40 57t68.5 37.5t98.5 13.5q72 0 127 -20.5t93 -68.5l-91 -93q-20 23 -49 40t-75 17q-29 0 -46 -7.5t-17 -24.5q0 -12 12.5 -22t42.5 -16l63 -12q86 -17 124 -57t38 -94q0 -33 -12.5 -64t-40 -55t-72.5 -38.5t-110 -14.5q-81 0 -141.5 23t-92.5 69 l83 92q23 -32 62 -49.5t87 -17.5z" />
<glyph unicode="&#x237;" horiz-adv-x="309" d="M58 -13v515h194v-525q0 -51 -15.5 -88.5t-44 -62.5t-67.5 -37t-86 -12q-29 0 -62 6t-60 20l31 122q21 -11 50 -11q32 0 46 16.5t14 56.5z" />
<glyph unicode="&#x2c6;" horiz-adv-x="600" d="M299 622l-56 -52h-141v4l124 137h155l125 -137v-4h-149z" />
<glyph unicode="&#x2c7;" horiz-adv-x="600" d="M305 659l57 52h140v-3l-124 -138h-156l-124 138v3h148z" />
<glyph unicode="&#x2d8;" horiz-adv-x="600" d="M373 710h113q0 -42 -12.5 -70.5t-36.5 -46t-58.5 -24.5t-78.5 -7t-78.5 7t-58 24.5t-36 46t-12.5 70.5h112q0 -35 17.5 -47t55.5 -12t55.5 12t17.5 47z" />
<glyph unicode="&#x2d9;" horiz-adv-x="600" d="M199 649q0 45 26.5 65t74.5 20t74 -20t26 -65q0 -44 -26 -64t-74 -20t-74.5 20t-26.5 64z" />
<glyph unicode="&#x2da;" horiz-adv-x="600" d="M178 659q0 53 35 80.5t89 27.5t88.5 -27.5t34.5 -80.5q0 -54 -35 -81.5t-89 -27.5t-88.5 27.5t-34.5 81.5zM258 659q0 -20 12 -31.5t31 -11.5q20 0 32 11.5t12 31.5t-12 30.5t-31 10.5q-20 0 -32 -10.5t-12 -30.5z" />
<glyph unicode="&#x2db;" horiz-adv-x="600" d="M329 -238q-29 0 -57.5 7t-51 22.5t-36.5 41.5t-14 65t17 70t44 51.5t62 30t71 6.5l1 -56q-48 -4 -68 -29t-20 -56q0 -29 20 -40t46 -11q17 0 34.5 4t33.5 13l26 -90q-47 -29 -108 -29z" />
<glyph unicode="&#x2dc;" horiz-adv-x="600" d="M391 708h109q3 -38 -6 -63.5t-25 -41t-37 -22t-41 -6.5q-23 0 -42.5 5t-37 10.5t-32.5 10.5t-30 5q-17 0 -22.5 -10.5t-5.5 -21.5h-109q-3 38 6 63.5t25 41t36.5 22t41.5 6.5q23 0 42.5 -5t37 -10.5t32.5 -10.5t30 -5q18 0 23 9.5t5 22.5z" />
<glyph unicode="&#x2dd;" horiz-adv-x="600" d="M598 706l-134 -136h-137v5l79 136h192v-5zM371 704l-123 -134h-124v5l70 136h177v-7z" />
<glyph unicode="&#x1e80;" horiz-adv-x="997" d="M6 0zM415 699h172l106 -427l101 428h198l-196 -700h-198l-101 419l-103 -419h-193l-195 700h205l97 -424zM437 769l-136 134v7h206l81 -136v-5h-151z" />
<glyph unicode="&#x1e81;" horiz-adv-x="813" d="M5 0zM337 501h145l83 -276l70 277h173l-155 -502h-167l-79 285l-79 -285h-166l-157 502h178l73 -275zM341 570l-136 134v7h206l81 -136v-5h-151z" />
<glyph unicode="&#x1e82;" horiz-adv-x="997" d="M6 0zM694 902l-136 -134h-147v5l84 136h199v-7zM415 699h172l106 -427l101 428h198l-196 -700h-198l-101 419l-103 -419h-193l-195 700h205l97 -424z" />
<glyph unicode="&#x1e83;" horiz-adv-x="813" d="M5 0zM598 704l-136 -134h-147v5l84 136h199v-7zM337 501h145l83 -276l70 277h173l-155 -502h-167l-79 285l-79 -285h-166l-157 502h178l73 -275z" />
<glyph unicode="&#x1e84;" horiz-adv-x="997" d="M6 0zM517 847q0 43 25 63t71 20t70.5 -20t24.5 -63q0 -45 -24.5 -64.5t-70.5 -19.5t-71 19.5t-25 64.5zM288 847q0 43 25 63t70 20q46 0 70.5 -20t24.5 -63q0 -45 -24.5 -64.5t-70.5 -19.5q-45 0 -70 19.5t-25 64.5zM415 699h172l106 -427l101 428h198l-196 -700h-198 l-101 419l-103 -419h-193l-195 700h205l97 -424z" />
<glyph unicode="&#x1e85;" horiz-adv-x="813" d="M5 0zM426 649q0 43 25 63t71 20t70.5 -20t24.5 -63q0 -45 -24.5 -64.5t-70.5 -19.5t-71 19.5t-25 64.5zM197 649q0 43 25 63t70 20q46 0 70.5 -20t24.5 -63q0 -45 -24.5 -64.5t-70.5 -19.5q-45 0 -70 19.5t-25 64.5zM337 501h145l83 -276l70 277h173l-155 -502h-167 l-79 285l-79 -285h-166l-157 502h178l73 -275z" />
<glyph unicode="&#x2000;" horiz-adv-x="482" />
<glyph unicode="&#x2001;" horiz-adv-x="965" />
<glyph unicode="&#x2002;" horiz-adv-x="500" />
<glyph unicode="&#x2003;" horiz-adv-x="1000" />
<glyph unicode="&#x2004;" horiz-adv-x="333" />
<glyph unicode="&#x2005;" horiz-adv-x="250" />
<glyph unicode="&#x2006;" horiz-adv-x="167" />
<glyph unicode="&#x2007;" />
<glyph unicode="&#x2008;" horiz-adv-x="270" />
<glyph unicode="&#x2009;" horiz-adv-x="200" />
<glyph unicode="&#x200a;" horiz-adv-x="100" />
<glyph unicode="&#x200b;" horiz-adv-x="0" />
<glyph unicode="&#x2010;" horiz-adv-x="500" d="M451 345v-148h-401v148h401z" />
<glyph unicode="&#x2011;" horiz-adv-x="500" d="M451 345v-148h-401v148h401z" />
<glyph unicode="&#x2012;" horiz-adv-x="590" d="M541 411v-148h-491v148h491z" />
<glyph unicode="&#x2013;" horiz-adv-x="590" d="M541 345v-148h-491v148h491z" />
<glyph unicode="&#x2014;" horiz-adv-x="789" d="M740 345v-148h-690v148h690z" />
<glyph unicode="&#x2015;" horiz-adv-x="1086" d="M1037 345v-148h-987v148h987z" />
<glyph unicode="&#x2018;" horiz-adv-x="256" d="M187 758l37 -74q-29 -8 -50.5 -25.5t-31.5 -45.5q42 -3 63 -26t21 -61q0 -45 -25.5 -67t-71.5 -22t-72.5 26t-26.5 82q0 86 41 140t116 73z" />
<glyph unicode="&#x2019;" horiz-adv-x="256" d="M71 430l-37 73q29 8 50.5 25.5t31.5 45.5q-42 3 -63 26t-21 61q0 45 25.5 67t71.5 22t72 -26t26 -82q0 -86 -40.5 -140t-115.5 -72z" />
<glyph unicode="&#x201a;" horiz-adv-x="256" d="M70 -150l-36 73q29 9 50 26t31 45q-42 3 -62.5 25.5t-20.5 60.5q0 45 25 67t71 22t72 -26t26 -81q0 -85 -40.5 -139t-115.5 -73z" />
<glyph unicode="&#x201c;" horiz-adv-x="479" d="M187 758l37 -74q-29 -8 -50.5 -25.5t-31.5 -45.5q42 -3 63 -26t21 -61q0 -45 -25.5 -67t-71.5 -22t-72.5 26t-26.5 82q0 86 41 140t116 73zM410 758l37 -74q-29 -8 -50.5 -25.5t-31.5 -45.5q42 -3 63 -26t21 -61q0 -45 -25.5 -67t-71.5 -22t-72.5 26t-26.5 82 q0 86 41 140t116 73z" />
<glyph unicode="&#x201d;" horiz-adv-x="479" d="M70 430l-37 73q29 8 50.5 25.5t31.5 45.5q-42 3 -63 26t-21 61q0 45 25.5 67t71.5 22t72 -26t26 -82q0 -86 -40.5 -140t-115.5 -72zM293 430l-37 73q29 8 50.5 25.5t31.5 45.5q-42 3 -63 26t-21 61q0 45 25.5 67t71.5 22t72 -26t26 -82q0 -86 -40.5 -140t-115.5 -72z" />
<glyph unicode="&#x201e;" horiz-adv-x="479" d="M70 -149l-36 72q29 9 50 26t31 45q-42 3 -62.5 25.5t-20.5 60.5q0 45 25 67t71 22t72 -26t26 -81q0 -85 -40.5 -139t-115.5 -72zM293 -149l-36 72q29 9 50 26t31 45q-42 3 -62.5 25.5t-20.5 60.5q0 45 25 67t71 22t72 -26t26 -81q0 -85 -40.5 -139t-115.5 -72z" />
<glyph unicode="&#x2020;" horiz-adv-x="320" d="M296 477h-65l-2 -220h-140v220h-66v124h64l-2 114h150l-3 -114h64v-124z" />
<glyph unicode="&#x2021;" horiz-adv-x="320" d="M23 463h67v47h-67v124h64l-2 81h150l-2 -81h63v-124h-66v-47h66v-124h-63l2 -82h-150l2 82h-64v124z" />
<glyph unicode="&#x2022;" horiz-adv-x="431" d="M44 327q0 77 45.5 123t126.5 46t126 -46t45 -123q0 -78 -45 -123.5t-126 -45.5t-126.5 45.5t-45.5 123.5z" />
<glyph unicode="&#x2026;" horiz-adv-x="811" d="M574 86q0 48 26.5 71.5t75.5 23.5t75 -23.5t26 -71.5q0 -46 -26 -70t-75 -24t-75.5 23.5t-26.5 70.5zM303 86q0 48 26.5 71.5t75.5 23.5q50 0 76 -23.5t26 -71.5q0 -46 -26 -70t-76 -24q-49 0 -75.5 23.5t-26.5 70.5zM33 86q0 48 26.5 71.5t75.5 23.5t75.5 -23.5 t26.5 -71.5q0 -46 -26.5 -70t-75.5 -24t-75.5 23.5t-26.5 70.5z" />
<glyph unicode="&#x202f;" horiz-adv-x="193" />
<glyph unicode="&#x2030;" horiz-adv-x="1528" d="M26 0zM662 203q0 109 47 164t152 55q104 0 151.5 -55t47.5 -164t-47 -163.5t-152 -54.5t-152 54.5t-47 163.5zM924 203q0 65 -16.5 90t-46.5 25t-46.5 -24.5t-16.5 -89.5t16.5 -90t46.5 -25t46.5 24.5t16.5 89.5zM26 496q0 109 47 164t152 55q104 0 151.5 -55t47.5 -164 t-47 -163.5t-152 -54.5t-152 54.5t-47 163.5zM288 496q0 65 -16.5 90t-46.5 25t-46.5 -24.5t-16.5 -89.5t16.5 -90t46.5 -25t46.5 24.5t16.5 89.5zM1102 203q0 109 47 164t152 55q104 0 151.5 -55t47.5 -164t-47 -163.5t-152 -54.5t-152 54.5t-47 163.5zM1364 203 q0 65 -16.5 90t-46.5 25t-46.5 -24.5t-16.5 -89.5t16.5 -90t46.5 -25t46.5 24.5t16.5 89.5zM800 700l-350 -700h-166l352 700h164z" />
<glyph unicode="&#x2039;" horiz-adv-x="435" d="M231 0l-197 249v3l195 250h186l-197 -249l202 -253h-189z" />
<glyph unicode="&#x203a;" horiz-adv-x="435" d="M204 502l197 -249v-3l-195 -250h-186l197 249l-202 253h189z" />
<glyph unicode="&#x2044;" horiz-adv-x="584" d="M536 700l-350 -700h-166l352 700h164z" />
<glyph unicode="&#x205f;" horiz-adv-x="241" />
<glyph unicode="&#x2070;" horiz-adv-x="451" d="M26 279zM26 497q0 109 47 164t152 55q104 0 151.5 -55t47.5 -164t-47 -163.5t-152 -54.5t-152 54.5t-47 163.5zM288 497q0 65 -16.5 90t-46.5 25t-46.5 -24.5t-16.5 -89.5t16.5 -90t46.5 -25t46.5 24.5t16.5 89.5z" />
<glyph unicode="&#x2074;" horiz-adv-x="438" d="M21 294zM21 367v89l117 247h134l-114 -228h92v120h129v-120h42v-108h-42v-73h-129v73h-229z" />
<glyph unicode="&#x2075;" horiz-adv-x="384" d="M3 281zM155 602l-6 -48q14 4 30.5 6.5t33.5 2.5q78 0 116.5 -35t38.5 -100q0 -72 -46.5 -109.5t-136.5 -37.5q-57 0 -104.5 17t-77.5 59l94 66q30 -40 78 -40q27 0 41.5 12t14.5 32q0 24 -17 34.5t-39 10.5q-36 0 -56 -23l-91 40l18 213h306v-101z" />
<glyph unicode="&#x2076;" horiz-adv-x="420" d="M25 281zM227 281q-99 0 -150.5 52.5t-51.5 162.5q0 102 48 160.5t154 58.5q57 0 100 -18t62 -55l-80 -69q-7 13 -22 27t-48 14q-44 0 -63 -26t-19 -85q14 22 39 36t61 14q60 0 97.5 -32.5t37.5 -98.5q0 -61 -40.5 -101t-124.5 -40zM169 422q0 -17 12 -29.5t35 -12.5 q22 0 34.5 11t12.5 31q0 17 -11 28.5t-35 11.5q-19 0 -33.5 -9.5t-14.5 -30.5z" />
<glyph unicode="&#x2077;" horiz-adv-x="357" d="M12 294zM233 294h-153q0 97 36 172.5t92 126.5l-196 -4v113h338v-84q-32 -40 -54 -76t-36 -73.5t-20.5 -79.5t-6.5 -95z" />
<glyph unicode="&#x2078;" horiz-adv-x="416" d="M26 281zM206 281q-89 0 -134.5 31t-45.5 96q0 74 64 99q-22 14 -35.5 36t-13.5 51q0 63 42.5 92t123.5 29t123.5 -29t42.5 -92q0 -29 -14 -51t-37 -36q65 -25 65 -99q0 -127 -181 -127zM251 586q0 16 -12 25.5t-31 9.5q-21 0 -33 -9.5t-12 -25.5q0 -17 12 -26t32 -9t32 9 t12 26zM254 410q0 18 -12 28.5t-33 10.5q-24 0 -37 -10.5t-13 -28.5t13 -28.5t35 -10.5q23 0 35 10.5t12 28.5z" />
<glyph unicode="&#x2079;" horiz-adv-x="417" d="M17 281zM243 571q0 20 -12.5 31t-35.5 11q-44 0 -44 -41q0 -18 10 -30t34 -12q18 0 33 10t15 31zM184 281q-25 0 -50.5 3.5t-48 11.5t-40.5 19.5t-28 28.5l78 73q11 -17 31.5 -26.5t48.5 -9.5q46 0 64 28.5t17 79.5q-28 -52 -100 -52q-60 0 -97.5 34t-37.5 100 q0 63 40 103.5t129 40.5q95 0 146.5 -52.5t51.5 -162.5q0 -102 -48 -160.5t-156 -58.5z" />
<glyph unicode="&#x207a;" horiz-adv-x="318" d="M26 357zM208 357h-98v85h-84v78h84v87h98v-87h84v-78h-84v-85z" />
<glyph unicode="&#x207b;" horiz-adv-x="318" d="M26 442zM292 520v-78h-266v78h266z" />
<glyph unicode="&#x207c;" horiz-adv-x="318" d="M26 389zM292 570v-79h-266v79h266zM292 468v-79h-266v79h266z" />
<glyph unicode="&#x207d;" horiz-adv-x="240" d="M22 193zM223 294l-11 -101q-97 8 -143.5 76t-46.5 189t45.5 188.5t140.5 75.5l15 -101q-24 -3 -42.5 -12.5t-31 -28.5t-19 -49t-6.5 -73q0 -44 6.5 -74t19 -49t31 -28.5t42.5 -12.5z" />
<glyph unicode="&#x207e;" horiz-adv-x="240" d="M16 193zM28 193l-12 101q24 3 43 12.5t31.5 28.5t19 49t6.5 74q0 43 -6.5 73t-19 49t-31.5 28.5t-43 12.5l15 101q95 -8 140.5 -75.5t45.5 -188.5t-46 -189t-143 -76z" />
<glyph unicode="&#x2080;" horiz-adv-x="451" d="M26 203q0 109 47 164t152 55q104 0 151.5 -55t47.5 -164t-47 -163.5t-152 -54.5t-152 54.5t-47 163.5zM288 203q0 65 -16.5 90t-46.5 25t-46.5 -24.5t-16.5 -89.5t16.5 -90t46.5 -25t46.5 24.5t16.5 89.5z" />
<glyph unicode="&#x2081;" horiz-adv-x="284" d="M234 0h-138v263l-41 -23l-50 102l138 73h91v-415z" />
<glyph unicode="&#x2082;" horiz-adv-x="391" d="M23 0v88l141 118q21 19 36 36t15 37t-13 27t-31 7q-28 0 -44 -12t-32 -37l-90 63q31 54 76 74t107 20q33 0 63 -6t53 -20t37 -37.5t14 -59.5q0 -45 -23.5 -81t-62.5 -70l-47 -42l148 4v-109h-347z" />
<glyph unicode="&#x2083;" horiz-adv-x="390" d="M188 -14q-59 0 -103.5 20t-73.5 68l95 59q16 -26 32.5 -35t41.5 -9q23 0 36.5 8t13.5 26q0 16 -13 24t-43 8h-38v91h38q47 0 47 35q0 33 -46 33q-23 0 -36.5 -10t-24.5 -31l-96 52q29 53 70.5 74.5t101.5 21.5q84 0 126 -33.5t42 -89.5q0 -32 -15 -54.5t-40 -37.5 q28 -14 44.5 -34.5t16.5 -56.5q0 -60 -46.5 -94.5t-129.5 -34.5z" />
<glyph unicode="&#x2084;" horiz-adv-x="438" d="M21 73v89l117 247h134l-114 -228h92v120h129v-120h42v-108h-42v-73h-129v73h-229z" />
<glyph unicode="&#x2085;" horiz-adv-x="384" d="M155 308l-6 -48q14 4 30.5 6.5t33.5 2.5q78 0 116.5 -35t38.5 -100q0 -72 -46.5 -109.5t-136.5 -37.5q-57 0 -104.5 17t-77.5 59l94 66q30 -40 78 -40q27 0 41.5 12t14.5 32q0 24 -17 34.5t-39 10.5q-36 0 -56 -23l-91 40l18 213h306v-101z" />
<glyph unicode="&#x2086;" horiz-adv-x="420" d="M227 -13q-99 0 -150.5 52.5t-51.5 162.5q0 102 48 160.5t154 58.5q57 0 100 -18t62 -55l-80 -69q-7 13 -22 27t-48 14q-44 0 -63 -26t-19 -85q14 22 39 36t61 14q60 0 97.5 -32.5t37.5 -98.5q0 -61 -40.5 -101t-124.5 -40zM169 128q0 -17 12 -29.5t35 -12.5q22 0 34.5 11 t12.5 31q0 17 -11 28.5t-35 11.5q-19 0 -33.5 -9.5t-14.5 -30.5z" />
<glyph unicode="&#x2087;" horiz-adv-x="357" d="M233 0h-153q0 97 36 172.5t92 126.5l-196 -4v113h338v-84q-32 -40 -54 -76t-36 -73.5t-20.5 -79.5t-6.5 -95z" />
<glyph unicode="&#x2088;" horiz-adv-x="416" d="M206 -13q-89 0 -134.5 31t-45.5 96q0 74 64 99q-22 14 -35.5 36t-13.5 51q0 63 42.5 92t123.5 29t123.5 -29t42.5 -92q0 -29 -14 -51t-37 -36q65 -25 65 -99q0 -127 -181 -127zM251 292q0 16 -12 25.5t-31 9.5q-21 0 -33 -9.5t-12 -25.5q0 -17 12 -26t32 -9t32 9t12 26z M254 116q0 18 -12 28.5t-33 10.5q-24 0 -37 -10.5t-13 -28.5t13 -28.5t35 -10.5q23 0 35 10.5t12 28.5z" />
<glyph unicode="&#x2089;" horiz-adv-x="417" d="M243 277q0 20 -12.5 31t-35.5 11q-44 0 -44 -41q0 -18 10 -30t34 -12q18 0 33 10t15 31zM184 -13q-25 0 -50.5 3.5t-48 11.5t-40.5 19.5t-28 28.5l78 73q11 -17 31.5 -26.5t48.5 -9.5q46 0 64 28.5t17 79.5q-28 -52 -100 -52q-60 0 -97.5 34t-37.5 100q0 63 40 103.5 t129 40.5q95 0 146.5 -52.5t51.5 -162.5q0 -102 -48 -160.5t-156 -58.5z" />
<glyph unicode="&#x208a;" horiz-adv-x="318" d="M208 57h-98v85h-84v78h84v87h98v-87h84v-78h-84v-85z" />
<glyph unicode="&#x208b;" horiz-adv-x="318" d="M292 220v-78h-266v78h266z" />
<glyph unicode="&#x208c;" horiz-adv-x="318" d="M292 270v-79h-266v79h266zM292 168v-79h-266v79h266z" />
<glyph unicode="&#x208d;" horiz-adv-x="240" d="M223 -6l-11 -101q-97 8 -143.5 76t-46.5 189t45.5 188.5t140.5 75.5l15 -101q-24 -3 -42.5 -12.5t-31 -28.5t-19 -49t-6.5 -73q0 -44 6.5 -74t19 -49t31 -28.5t42.5 -12.5z" />
<glyph unicode="&#x208e;" horiz-adv-x="240" d="M28 -107l-12 101q24 3 43 12.5t31.5 28.5t19 49t6.5 74q0 43 -6.5 73t-19 49t-31.5 28.5t-43 12.5l15 101q95 -8 140.5 -75.5t45.5 -188.5t-46 -189t-143 -76z" />
<glyph unicode="&#x20ac;" horiz-adv-x="721" d="M405 -16q-143 0 -224 59.5t-106 182.5h-69v87h59q-1 8 -1 16v24h-58v87h63q19 142 105 208.5t240 66.5q103 0 172.5 -38t101.5 -127l-156 -77q-21 48 -47.5 65t-73.5 17q-56 0 -93 -25t-51 -90h212l-24 -87h-198v-24q0 -8 1 -16h186l-24 -87h-140q16 -47 48.5 -65 t80.5 -18q45 0 77 18.5t49 61.5l159 -75q-34 -80 -104.5 -122t-184.5 -42z" />
<glyph unicode="&#x2122;" horiz-adv-x="736" d="M12 700h292v-90h-93v-204h-103v204h-96v90zM331 406v294h116l80 -190l85 190h108v-294h-94l1 134l-59 -134h-86l-59 135l2 -135h-94z" />
<glyph unicode="&#x2153;" horiz-adv-x="936" d="M5 0zM734 -14q-59 0 -103.5 20t-73.5 68l95 59q16 -26 32.5 -35t41.5 -9q23 0 36.5 8t13.5 26q0 16 -13 24t-43 8h-38v91h38q47 0 47 35q0 33 -46 33q-23 0 -36.5 -10t-24.5 -31l-96 52q29 53 70.5 74.5t101.5 21.5q84 0 126 -33.5t42 -89.5q0 -32 -15 -54.5t-40 -37.5 q28 -14 44.5 -34.5t16.5 -56.5q0 -60 -46.5 -94.5t-129.5 -34.5zM234 293h-138v263l-41 -23l-50 102l138 73h91v-415zM676 700l-350 -700h-166l352 700h164z" />
<glyph unicode="&#x2154;" horiz-adv-x="1056" d="M5 0zM854 -14q-59 0 -103.5 20t-73.5 68l95 59q16 -26 32.5 -35t41.5 -9q23 0 36.5 8t13.5 26q0 16 -13 24t-43 8h-38v91h38q47 0 47 35q0 33 -46 33q-23 0 -36.5 -10t-24.5 -31l-96 52q29 53 70.5 74.5t101.5 21.5q84 0 126 -33.5t42 -89.5q0 -32 -15 -54.5t-40 -37.5 q28 -14 44.5 -34.5t16.5 -56.5q0 -60 -46.5 -94.5t-129.5 -34.5zM23 293v88l141 118q21 19 36 36t15 37t-13 27t-31 7q-28 0 -44 -12t-32 -37l-90 63q31 54 76 74t107 20q33 0 63 -6t53 -20t37 -37.5t14 -59.5q0 -45 -23.5 -81t-62.5 -70l-47 -42l148 4v-109h-347zM795 700 l-350 -700h-166l352 700h164z" />
<glyph unicode="&#x2155;" horiz-adv-x="944" d="M5 0zM234 293h-138v263l-41 -23l-50 102l138 73h91v-415zM715 308l-6 -48q14 4 30.5 6.5t33.5 2.5q78 0 116.5 -35t38.5 -100q0 -72 -46.5 -109.5t-136.5 -37.5q-57 0 -104.5 17t-77.5 59l94 66q30 -40 78 -40q27 0 41.5 12t14.5 32q0 24 -17 34.5t-39 10.5 q-36 0 -56 -23l-91 40l18 213h306v-101zM676 700l-350 -700h-166l352 700h164z" />
<glyph unicode="&#x2156;" horiz-adv-x="1063" d="M5 0zM23 293v88l141 118q21 19 36 36t15 37t-13 27t-31 7q-28 0 -44 -12t-32 -37l-90 63q31 54 76 74t107 20q33 0 63 -6t53 -20t37 -37.5t14 -59.5q0 -45 -23.5 -81t-62.5 -70l-47 -42l148 4v-109h-347zM834 308l-6 -48q14 4 30.5 6.5t33.5 2.5q78 0 116.5 -35 t38.5 -100q0 -72 -46.5 -109.5t-136.5 -37.5q-57 0 -104.5 17t-77.5 59l94 66q30 -40 78 -40q27 0 41.5 12t14.5 32q0 24 -17 34.5t-39 10.5q-36 0 -56 -23l-91 40l18 213h306v-101zM794 700l-350 -700h-166l352 700h164z" />
<glyph unicode="&#x2157;" horiz-adv-x="1033" d="M11 0zM188 279q-59 0 -103.5 20t-73.5 68l95 59q16 -26 32.5 -35t41.5 -9q23 0 36.5 8t13.5 26q0 16 -13 24t-43 8h-38v91h38q47 0 47 35q0 33 -46 33q-23 0 -36.5 -10t-24.5 -31l-96 52q29 53 70.5 74.5t101.5 21.5q84 0 126 -33.5t42 -89.5q0 -32 -15 -54.5t-40 -37.5 q28 -14 44.5 -34.5t16.5 -56.5q0 -60 -46.5 -94.5t-129.5 -34.5zM804 308l-6 -48q14 4 30.5 6.5t33.5 2.5q78 0 116.5 -35t38.5 -100q0 -72 -46.5 -109.5t-136.5 -37.5q-57 0 -104.5 17t-77.5 59l94 66q30 -40 78 -40q27 0 41.5 12t14.5 32q0 24 -17 34.5t-39 10.5 q-36 0 -56 -23l-91 40l18 213h306v-101zM765 700l-350 -700h-166l352 700h164z" />
<glyph unicode="&#x2158;" horiz-adv-x="1087" d="M21 0zM857 308l-6 -48q14 4 30.5 6.5t33.5 2.5q78 0 116.5 -35t38.5 -100q0 -72 -46.5 -109.5t-136.5 -37.5q-57 0 -104.5 17t-77.5 59l94 66q30 -40 78 -40q27 0 41.5 12t14.5 32q0 24 -17 34.5t-39 10.5q-36 0 -56 -23l-91 40l18 213h306v-101zM818 700l-350 -700h-166 l352 700h164zM21 366v89l117 247h134l-114 -228h92v120h129v-120h42v-108h-42v-73h-129v73h-229z" />
<glyph unicode="&#x2159;" horiz-adv-x="947" d="M5 0zM234 293h-138v263l-41 -23l-50 102l138 73h91v-415zM754 -13q-99 0 -150.5 52.5t-51.5 162.5q0 102 48 160.5t154 58.5q57 0 100 -18t62 -55l-80 -69q-7 13 -22 27t-48 14q-44 0 -63 -26t-19 -85q14 22 39 36t61 14q60 0 97.5 -32.5t37.5 -98.5q0 -61 -40.5 -101 t-124.5 -40zM696 128q0 -17 12 -29.5t35 -12.5q22 0 34.5 11t12.5 31q0 17 -11 28.5t-35 11.5q-19 0 -33.5 -9.5t-14.5 -30.5zM676 700l-350 -700h-166l352 700h164z" />
<glyph unicode="&#x215a;" horiz-adv-x="1036" d="M3 0zM155 601l-6 -48q14 4 30.5 6.5t33.5 2.5q78 0 116.5 -35t38.5 -100q0 -72 -46.5 -109.5t-136.5 -37.5q-57 0 -104.5 17t-77.5 59l94 66q30 -40 78 -40q27 0 41.5 12t14.5 32q0 24 -17 34.5t-39 10.5q-36 0 -56 -23l-91 40l18 213h306v-101zM844 -13 q-99 0 -150.5 52.5t-51.5 162.5q0 102 48 160.5t154 58.5q57 0 100 -18t62 -55l-80 -69q-7 13 -22 27t-48 14q-44 0 -63 -26t-19 -85q14 22 39 36t61 14q60 0 97.5 -32.5t37.5 -98.5q0 -61 -40.5 -101t-124.5 -40zM786 128q0 -17 12 -29.5t35 -12.5q22 0 34.5 11t12.5 31 q0 17 -11 28.5t-35 11.5q-19 0 -33.5 -9.5t-14.5 -30.5zM765 700l-350 -700h-166l352 700h164z" />
<glyph unicode="&#x215b;" horiz-adv-x="951" d="M5 0zM234 293h-138v263l-41 -23l-50 102l138 73h91v-415zM742 -13q-89 0 -134.5 31t-45.5 96q0 74 64 99q-22 14 -35.5 36t-13.5 51q0 63 42.5 92t123.5 29t123.5 -29t42.5 -92q0 -29 -14 -51t-37 -36q65 -25 65 -99q0 -127 -181 -127zM787 292q0 16 -12 25.5t-31 9.5 q-21 0 -33 -9.5t-12 -25.5q0 -17 12 -26t32 -9t32 9t12 26zM790 116q0 18 -12 28.5t-33 10.5q-24 0 -37 -10.5t-13 -28.5t13 -28.5t35 -10.5q23 0 35 10.5t12 28.5zM676 700l-350 -700h-166l352 700h164z" />
<glyph unicode="&#x215c;" horiz-adv-x="1041" d="M11 0zM188 279q-59 0 -103.5 20t-73.5 68l95 59q16 -26 32.5 -35t41.5 -9q23 0 36.5 8t13.5 26q0 16 -13 24t-43 8h-38v91h38q47 0 47 35q0 33 -46 33q-23 0 -36.5 -10t-24.5 -31l-96 52q29 53 70.5 74.5t101.5 21.5q84 0 126 -33.5t42 -89.5q0 -32 -15 -54.5t-40 -37.5 q28 -14 44.5 -34.5t16.5 -56.5q0 -60 -46.5 -94.5t-129.5 -34.5zM831 -13q-89 0 -134.5 31t-45.5 96q0 74 64 99q-22 14 -35.5 36t-13.5 51q0 63 42.5 92t123.5 29t123.5 -29t42.5 -92q0 -29 -14 -51t-37 -36q65 -25 65 -99q0 -127 -181 -127zM876 292q0 16 -12 25.5 t-31 9.5q-21 0 -33 -9.5t-12 -25.5q0 -17 12 -26t32 -9t32 9t12 26zM879 116q0 18 -12 28.5t-33 10.5q-24 0 -37 -10.5t-13 -28.5t13 -28.5t35 -10.5q23 0 35 10.5t12 28.5zM765 700l-350 -700h-166l352 700h164z" />
<glyph unicode="&#x215d;" horiz-adv-x="1041" d="M3 0zM831 -13q-89 0 -134.5 31t-45.5 96q0 74 64 99q-22 14 -35.5 36t-13.5 51q0 63 42.5 92t123.5 29t123.5 -29t42.5 -92q0 -29 -14 -51t-37 -36q65 -25 65 -99q0 -127 -181 -127zM876 292q0 16 -12 25.5t-31 9.5q-21 0 -33 -9.5t-12 -25.5q0 -17 12 -26t32 -9t32 9 t12 26zM879 116q0 18 -12 28.5t-33 10.5q-24 0 -37 -10.5t-13 -28.5t13 -28.5t35 -10.5q23 0 35 10.5t12 28.5zM155 601l-6 -48q14 4 30.5 6.5t33.5 2.5q78 0 116.5 -35t38.5 -100q0 -72 -46.5 -109.5t-136.5 -37.5q-57 0 -104.5 17t-77.5 59l94 66q30 -40 78 -40 q27 0 41.5 12t14.5 32q0 24 -17 34.5t-39 10.5q-36 0 -56 -23l-91 40l18 213h306v-101zM765 700l-350 -700h-166l352 700h164z" />
<glyph unicode="&#x215e;" horiz-adv-x="961" d="M12 0zM751 -13q-89 0 -134.5 31t-45.5 96q0 74 64 99q-22 14 -35.5 36t-13.5 51q0 63 42.5 92t123.5 29t123.5 -29t42.5 -92q0 -29 -14 -51t-37 -36q65 -25 65 -99q0 -127 -181 -127zM796 292q0 16 -12 25.5t-31 9.5q-21 0 -33 -9.5t-12 -25.5q0 -17 12 -26t32 -9t32 9 t12 26zM799 116q0 18 -12 28.5t-33 10.5q-24 0 -37 -10.5t-13 -28.5t13 -28.5t35 -10.5q23 0 35 10.5t12 28.5zM233 293h-153q0 97 36 172.5t92 126.5l-196 -4v113h338v-84q-32 -40 -54 -76t-36 -73.5t-20.5 -79.5t-6.5 -95zM685 700l-350 -700h-166l352 700h164z" />
<glyph unicode="&#x215f;" horiz-adv-x="831" d="M5 0zM234 293h-138v263l-41 -23l-50 102l138 73h91v-415zM676 700l-350 -700h-166l352 700h164z" />
<glyph unicode="&#x2212;" horiz-adv-x="512" d="M462 363v-104h-412v104h412z" />
<glyph unicode="&#x2248;" horiz-adv-x="512" d="M351 415q20 0 52.5 6t58.5 23v-104q-23 -13 -56.5 -19.5t-62.5 -6.5q-27 0 -49.5 5.5t-43 11.5t-41.5 11.5t-46 5.5q-21 0 -53 -5.5t-60 -22.5v104q23 13 55 19t61 6q28 0 51 -5.5t44 -11.5t42.5 -11.5t47.5 -5.5zM351 262q20 0 52.5 6t58.5 23v-103q-23 -13 -56.5 -19.5 t-62.5 -6.5q-27 0 -49.5 5.5t-43 11.5t-41.5 11.5t-46 5.5q-21 0 -53 -5.5t-60 -22.5v103q23 13 55 19t61 6q28 0 51 -5.5t44 -11.5t42.5 -11.5t47.5 -5.5z" />
<glyph unicode="&#x2260;" horiz-adv-x="512" d="M50 333v104h244l46 66h103l-46 -66h65v-104h-137l-34 -48h171v-104h-243l-45 -65h-104l46 65h-66v104h137l34 48h-171z" />
<glyph unicode="&#x2264;" horiz-adv-x="513" d="M365 542l55 -84l-182 -112l182 -109l-55 -89l-273 165v62zM86 0v104h338v-104h-338z" />
<glyph unicode="&#x2265;" horiz-adv-x="513" d="M147 148l-54 84l181 111l-182 110l55 89l274 -166v-61zM424 104v-104h-338v104h338z" />
<glyph unicode="&#x25fc;" horiz-adv-x="500" d="M0 500h500v-500h-500v500z" />
<glyph unicode="&#xf6c3;" horiz-adv-x="600" d="M241 -354l-33 67q33 8 57 26.5t32 44.5q-44 0 -69 20.5t-25 59.5q0 43 25 64.5t73 21.5q47 0 73.5 -27t26.5 -81q0 -39 -11.5 -72t-32.5 -59t-50.5 -42.5t-65.5 -22.5z" />
<glyph horiz-adv-x="562" d="M313 -65v831h174v-831h-174zM75 -65v831h175v-831h-175z" />
<glyph horiz-adv-x="256" d="M186 429q-75 19 -115.5 73t-40.5 140q0 56 26 82t72 26t71.5 -22t25.5 -67q0 -38 -21 -61t-63 -26q11 -28 32 -45.5t50 -25.5z" />
<glyph horiz-adv-x="479" d="M185 429q-75 19 -115.5 73t-40.5 140q0 56 26 82t72 26t71.5 -22t25.5 -67q0 -38 -21 -61t-63 -26q11 -28 32 -45.5t50 -25.5zM409 429q-75 19 -115.5 73t-40.5 140q0 56 26 82t72 26t71.5 -22t25.5 -67q0 -38 -21 -61t-63 -26q11 -28 32 -45.5t50 -25.5z" />
<glyph horiz-adv-x="641" d="M423 6l-12 68q-26 -44 -68 -66.5t-96 -22.5q-96 0 -154.5 65t-58.5 193q0 70 16 121.5t45.5 85.5t70 50t89.5 16q56 0 96.5 -20.5t63.5 -62.5l14 69h155v-502q-59 -4 -81.5 -29t-22.5 -56q0 -29 20 -40t46 -11q17 0 34.5 4t33.5 13l26 -90q-47 -29 -108 -29 q-29 0 -57.5 7t-51 22.5t-36.5 41.5t-14 65q0 35 14 62t36 46zM394 250q0 68 -25 96.5t-65 28.5t-62 -29t-22 -97q0 -121 84 -121q41 0 65.5 29.5t24.5 92.5z" />
<glyph horiz-adv-x="641" d="M394 250q0 68 -25.5 96.5t-64.5 28.5q-40 0 -62 -29t-22 -97q0 -121 84 -121q40 0 65 29.5t25 92.5zM422 0l-12 75q-26 -45 -67.5 -67.5t-95.5 -22.5q-96 0 -154.5 65t-58.5 193q0 70 16 121.5t45.5 85.5t70 50t89.5 16q56 0 96.5 -20.5t63.5 -62.5l14 69h155v-502h-162z " />
<glyph horiz-adv-x="641" d="M34 0zM394 250q0 68 -25.5 96.5t-64.5 28.5q-40 0 -62 -29t-22 -97q0 -121 84 -121q40 0 65 29.5t25 92.5zM422 0l-12 75q-26 -45 -67.5 -67.5t-95.5 -22.5q-96 0 -154.5 65t-58.5 193q0 70 16 121.5t45.5 85.5t70 50t89.5 16q56 0 96.5 -20.5t63.5 -62.5l14 69h155v-502 h-162zM238 570l-136 134v7h206l81 -136v-5h-151z" />
<glyph horiz-adv-x="641" d="M34 0zM394 250q0 68 -25.5 96.5t-64.5 28.5q-40 0 -62 -29t-22 -97q0 -121 84 -121q40 0 65 29.5t25 92.5zM422 0l-12 75q-26 -45 -67.5 -67.5t-95.5 -22.5q-96 0 -154.5 65t-58.5 193q0 70 16 121.5t45.5 85.5t70 50t89.5 16q56 0 96.5 -20.5t63.5 -62.5l14 69h155v-502 h-162zM495 704l-136 -134h-147v5l84 136h199v-7z" />
<glyph horiz-adv-x="641" d="M34 0zM296 622l-56 -52h-141v4l124 137h155l125 -137v-4h-149zM394 250q0 68 -25.5 96.5t-64.5 28.5q-40 0 -62 -29t-22 -97q0 -121 84 -121q40 0 65 29.5t25 92.5zM422 0l-12 75q-26 -45 -67.5 -67.5t-95.5 -22.5q-96 0 -154.5 65t-58.5 193q0 70 16 121.5t45.5 85.5 t70 50t89.5 16q56 0 96.5 -20.5t63.5 -62.5l14 69h155v-502h-162z" />
<glyph horiz-adv-x="641" d="M34 0zM319 649q0 43 25 63t71 20t70.5 -20t24.5 -63q0 -45 -24.5 -64.5t-70.5 -19.5t-71 19.5t-25 64.5zM90 649q0 43 25 63t70 20q46 0 70.5 -20t24.5 -63q0 -45 -24.5 -64.5t-70.5 -19.5q-45 0 -70 19.5t-25 64.5zM394 250q0 68 -25.5 96.5t-64.5 28.5q-40 0 -62 -29 t-22 -97q0 -121 84 -121q40 0 65 29.5t25 92.5zM422 0l-12 75q-26 -45 -67.5 -67.5t-95.5 -22.5q-96 0 -154.5 65t-58.5 193q0 70 16 121.5t45.5 85.5t70 50t89.5 16q56 0 96.5 -20.5t63.5 -62.5l14 69h155v-502h-162z" />
<glyph horiz-adv-x="641" d="M34 0zM394 250q0 68 -25.5 96.5t-64.5 28.5q-40 0 -62 -29t-22 -97q0 -121 84 -121q40 0 65 29.5t25 92.5zM422 0l-12 75q-26 -45 -67.5 -67.5t-95.5 -22.5q-96 0 -154.5 65t-58.5 193q0 70 16 121.5t45.5 85.5t70 50t89.5 16q56 0 96.5 -20.5t63.5 -62.5l14 69h155v-502 h-162zM385 708h109q3 -38 -6 -63.5t-25 -41t-37 -22t-41 -6.5q-23 0 -42.5 5t-37 10.5t-32.5 10.5t-30 5q-17 0 -22.5 -10.5t-5.5 -21.5h-109q-3 38 6 63.5t25 41t36.5 22t41.5 6.5q23 0 42.5 -5t37 -10.5t32.5 -10.5t30 -5q18 0 23 9.5t5 22.5z" />
<glyph horiz-adv-x="641" d="M34 0zM394 250q0 68 -25.5 96.5t-64.5 28.5q-40 0 -62 -29t-22 -97q0 -121 84 -121q40 0 65 29.5t25 92.5zM422 0l-12 75q-26 -45 -67.5 -67.5t-95.5 -22.5q-96 0 -154.5 65t-58.5 193q0 70 16 121.5t45.5 85.5t70 50t89.5 16q56 0 96.5 -20.5t63.5 -62.5l14 69h155v-502 h-162zM176 659q0 53 35 80.5t89 27.5t88.5 -27.5t34.5 -80.5q0 -54 -35 -81.5t-89 -27.5t-88.5 27.5t-34.5 81.5zM256 659q0 -20 12 -31.5t31 -11.5q20 0 32 11.5t12 31.5t-12 30.5t-31 10.5q-20 0 -32 -10.5t-12 -30.5z" />
<glyph horiz-adv-x="641" d="M34 0zM394 250q0 68 -25.5 96.5t-64.5 28.5q-40 0 -62 -29t-22 -97q0 -121 84 -121q40 0 65 29.5t25 92.5zM422 0l-12 75q-26 -45 -67.5 -67.5t-95.5 -22.5q-96 0 -154.5 65t-58.5 193q0 70 16 121.5t45.5 85.5t70 50t89.5 16q56 0 96.5 -20.5t63.5 -62.5l14 69h155v-502 h-162zM453 685v-101h-306v101h306z" />
<glyph horiz-adv-x="641" d="M34 0zM394 250q0 68 -25.5 96.5t-64.5 28.5q-40 0 -62 -29t-22 -97q0 -121 84 -121q40 0 65 29.5t25 92.5zM422 0l-12 75q-26 -45 -67.5 -67.5t-95.5 -22.5q-96 0 -154.5 65t-58.5 193q0 70 16 121.5t45.5 85.5t70 50t89.5 16q56 0 96.5 -20.5t63.5 -62.5l14 69h155v-502 h-162zM373 710h113q0 -42 -12.5 -70.5t-36.5 -46t-58.5 -24.5t-78.5 -7t-78.5 7t-58 24.5t-36 46t-12.5 70.5h112q0 -35 17.5 -47t55.5 -12t55.5 12t17.5 47z" />
<glyph horiz-adv-x="639" d="M283 -223q-38 0 -73.5 5.5t-67 18.5t-56.5 32.5t-40 48.5l102 94q23 -35 55 -50t71 -15q54 0 83 28t29 85v44q-26 -31 -62.5 -46t-78.5 -15q-51 0 -87.5 15t-60 41.5t-34 61.5t-10.5 76v301h191v-251q0 -45 15.5 -65t47.5 -20q35 0 57.5 24.5t22.5 79.5v232h194v-474 q0 -68 -22.5 -115.5t-62 -77.5t-94.5 -44t-119 -14z" />
<glyph horiz-adv-x="639" d="M46 0zM283 -223q-38 0 -73.5 5.5t-67 18.5t-56.5 32.5t-40 48.5l102 94q23 -35 55 -50t71 -15q54 0 83 28t29 85v44q-26 -31 -62.5 -46t-78.5 -15q-51 0 -87.5 15t-60 41.5t-34 61.5t-10.5 76v301h191v-251q0 -45 15.5 -65t47.5 -20q35 0 57.5 24.5t22.5 79.5v232h194 v-474q0 -68 -22.5 -115.5t-62 -77.5t-94.5 -44t-119 -14zM500 704l-136 -134h-147v5l84 136h199v-7z" />
<glyph horiz-adv-x="639" d="M46 0zM313 622l-56 -52h-141v4l124 137h155l125 -137v-4h-149zM283 -223q-38 0 -73.5 5.5t-67 18.5t-56.5 32.5t-40 48.5l102 94q23 -35 55 -50t71 -15q54 0 83 28t29 85v44q-26 -31 -62.5 -46t-78.5 -15q-51 0 -87.5 15t-60 41.5t-34 61.5t-10.5 76v301h191v-251 q0 -45 15.5 -65t47.5 -20q35 0 57.5 24.5t22.5 79.5v232h194v-474q0 -68 -22.5 -115.5t-62 -77.5t-94.5 -44t-119 -14z" />
<glyph horiz-adv-x="639" d="M46 0zM336 649q0 43 25 63t71 20t70.5 -20t24.5 -63q0 -45 -24.5 -64.5t-70.5 -19.5t-71 19.5t-25 64.5zM107 649q0 43 25 63t70 20q46 0 70.5 -20t24.5 -63q0 -45 -24.5 -64.5t-70.5 -19.5q-45 0 -70 19.5t-25 64.5zM283 -223q-38 0 -73.5 5.5t-67 18.5t-56.5 32.5 t-40 48.5l102 94q23 -35 55 -50t71 -15q54 0 83 28t29 85v44q-26 -31 -62.5 -46t-78.5 -15q-51 0 -87.5 15t-60 41.5t-34 61.5t-10.5 76v301h191v-251q0 -45 15.5 -65t47.5 -20q35 0 57.5 24.5t22.5 79.5v232h194v-474q0 -68 -22.5 -115.5t-62 -77.5t-94.5 -44t-119 -14z " />
<glyph horiz-adv-x="393" d="M215 336q-43 0 -77.5 10.5t-59 33.5t-38 59t-13.5 86q0 100 51.5 145t143.5 45q57 0 96 -18.5t62 -60.5l-95 -70q-11 23 -25.5 31.5t-34.5 8.5q-31 0 -47.5 -17t-16.5 -64q0 -40 13.5 -62.5t48.5 -22.5q50 0 66 40l95 -54q-23 -44 -63.5 -67t-105.5 -23z" />
<glyph horiz-adv-x="458" d="M283 525q0 48 -17.5 68t-45.5 20t-43.5 -20t-15.5 -68q0 -85 60 -85q28 0 45 21t17 64zM303 347l-8 52q-19 -31 -48.5 -47t-67.5 -16q-69 0 -110.5 46.5t-41.5 137.5q0 101 43.5 148t113.5 47q82 0 114 -59l10 48h112v-357h-117z" />
<glyph horiz-adv-x="600" d="M382 421h-123l7 279h150z" />
<glyph horiz-adv-x="271" d="M39 -1l29 472h136l29 -472h-194zM238 614q0 -48 -26 -71.5t-76 -23.5q-49 0 -75.5 23.5t-26.5 71.5q0 46 26.5 70t75.5 24q50 0 76 -23.5t26 -70.5z" />
<glyph horiz-adv-x="523" d="M345 476l9 -185h-65q-51 0 -77 -21t-26 -67q0 -34 24.5 -56.5t78.5 -22.5q40 0 69.5 18t51.5 67l115 -74q-37 -75 -102 -114.5t-159 -39.5q-124 0 -187 52t-63 159q0 49 13.5 86t37.5 62.5t57.5 40t72.5 19.5l7 76h143zM380 619q0 -48 -26.5 -71.5t-75.5 -23.5 t-75.5 23.5t-26.5 71.5q0 46 26.5 70t75.5 24t75.5 -23.5t26.5 -70.5z" />
<glyph horiz-adv-x="381" d="M332 345v-148h-282v148h282z" />
<glyph horiz-adv-x="694" d="M645 345v-148h-595v148h595z" />
<glyph horiz-adv-x="758" d="M394 -15q-179 0 -263 91t-84 275q0 187 88.5 275.5t266.5 88.5q108 0 178 -37t104 -122l-162 -82q-21 43 -48 59t-74 16q-37 0 -65 -10t-47 -33.5t-28.5 -61.5t-9.5 -95q0 -58 10 -97t29.5 -63t48.5 -34t66 -10q45 0 80 23t42 75h-122v148h303v-106q0 -90 -26.5 -148 t-70 -92t-100 -47t-116.5 -13z" />
<glyph horiz-adv-x="763" d="M506 0l-219 308v-308h-203v700h203v-339l231 339h230l-255 -347l265 -353h-252z" />
<glyph horiz-adv-x="617" d="M56 0v700h195l-7 -416l158 218h196l-189 -248l203 -254h-212l-152 195v-195h-192z" />
<glyph horiz-adv-x="814" d="M60 0zM684 101q-45 -48 -113 -74.5t-156 -26.5q-84 0 -150 25t-111.5 71t-69.5 110.5t-24 143.5t24 143.5t69.5 110t111.5 70.5t150 25q82 0 145 -24t106 -67.5t65 -104.5t22 -136q0 -90 -46.5 -137.5t-129.5 -47.5q-81 0 -106 51q-17 -27 -46.5 -42.5t-69.5 -15.5 q-53 0 -85.5 26.5t-32.5 74.5q0 30 11.5 52t32 36t48.5 21t61 7h59q-2 29 -21 38t-47 9q-30 0 -54 -9t-40 -27l-44 72q26 30 67 45.5t93 15.5q36 0 67.5 -8t54.5 -25.5t36 -46t13 -70.5v-88q0 -26 9.5 -38.5t32.5 -12.5q34 0 55.5 29t21.5 91q0 70 -20.5 122.5t-57.5 86.5 t-88 51t-112 17q-65 0 -119 -18t-93 -54.5t-60.5 -92t-21.5 -129.5q0 -75 21.5 -130t60.5 -91t93 -54t119 -18q71 0 129.5 21t98.5 65zM389 253q28 0 43.5 17t16.5 46v7h-49q-26 0 -38.5 -8t-12.5 -28q0 -34 40 -34z" />
<glyph horiz-adv-x="735" d="M50 350q0 184 75.5 274.5t242.5 90.5q166 0 241.5 -90.5t75.5 -274.5q0 -185 -75.5 -275t-241.5 -90q-167 0 -242.5 90t-75.5 275zM488 350q0 60 -8 100.5t-23 65t-37.5 35.5t-51.5 11t-51.5 -10.5t-38 -35.5t-23.5 -65.5t-8 -100.5t8 -101t23 -65.5t37.5 -35.5t51.5 -11 t51.5 11t38 35.5t23.5 65.5t8 101z" />
<glyph horiz-adv-x="438" d="M354 0h-199v480l-76 -46l-73 154l217 121h131v-709z" />
<glyph horiz-adv-x="628" d="M38 0l-1 137l233 203q21 18 39 35t31.5 34t21 35t7.5 38q0 40 -25 55.5t-63 15.5q-53 0 -83 -22t-55 -66l-130 92q47 88 119 123t172 35q54 0 102.5 -10t84.5 -34t57.5 -63.5t21.5 -97.5q0 -75 -38 -135t-111 -126l-101 -92l276 6v-163h-558z" />
<glyph horiz-adv-x="631" d="M303 -15q-97 0 -168 33t-118 112l141 91q27 -46 58.5 -65t76.5 -19q46 0 73 18t27 56q0 35 -24 52t-81 17h-73v139h73q90 0 90 68q0 35 -24 52.5t-69 17.5q-44 0 -69 -18.5t-46 -55.5l-138 78q44 84 111.5 119t163.5 35q132 0 199.5 -54t67.5 -147q0 -57 -25 -94t-67 -62 q48 -23 75.5 -59t27.5 -98q0 -99 -73 -157.5t-209 -58.5z" />
<glyph horiz-adv-x="701" d="M32 136v134l201 430h195l-197 -402h182v243h185v-243h83v-162h-83v-136h-185v136h-381z" />
<glyph horiz-adv-x="619" d="M234 548l-10 -112q51 21 120 21q121 0 184.5 -57.5t63.5 -166.5q0 -120 -74 -184t-220 -64q-91 0 -166 29t-121 97l134 97q26 -38 59.5 -57t79.5 -19q56 0 84.5 25t28.5 70q0 49 -31 70.5t-75 21.5q-77 0 -113 -40l-130 59l31 362h488v-152h-333z" />
<glyph horiz-adv-x="695" d="M378 -15q-157 0 -242.5 88.5t-85.5 273.5q0 88 19.5 156.5t60 115.5t102.5 71.5t147 24.5q91 0 159.5 -29t99.5 -89l-117 -102q-7 13 -17 26t-24.5 23t-35.5 16.5t-49 6.5q-78 0 -114 -49.5t-36 -160.5v-20q21 46 65.5 75t111.5 29q51 0 93.5 -14t73 -41.5t47 -68.5 t16.5 -95q0 -51 -17 -94.5t-51 -75t-85.5 -49.5t-120.5 -18zM267 219q0 -39 24.5 -63.5t69.5 -24.5q46 0 72 23t26 65q0 39 -22.5 63.5t-71.5 24.5q-40 0 -69 -21.5t-29 -66.5z" />
<glyph horiz-adv-x="565" d="M136 0q0 85 16.5 162.5t46 145t70.5 125t90 103.5l-340 -7v171h544v-130q-49 -60 -87.5 -119t-65 -125.5t-40.5 -146t-14 -179.5h-220z" />
<glyph horiz-adv-x="678" d="M338 -15q-143 0 -217 53t-74 155q0 66 31 109t88 64q-44 22 -68.5 59t-24.5 90q0 102 67.5 151t198.5 49t198.5 -49t67.5 -151q0 -53 -25 -90t-69 -59q57 -21 88.5 -63.5t31.5 -109.5q0 -102 -73.5 -155t-219.5 -53zM429 504q0 35 -24 54t-64 19q-43 0 -67.5 -19 t-24.5 -54t24.5 -54t66.5 -19q41 0 65 19t24 54zM437 200q0 38 -26.5 59.5t-69.5 21.5q-46 0 -73 -21.5t-27 -59.5q0 -41 27 -61t72 -20q43 0 70 20t27 61z" />
<glyph horiz-adv-x="688" d="M419 478q0 39 -25 63.5t-70 24.5t-69.5 -23.5t-24.5 -66.5q0 -39 21.5 -63t68.5 -24q40 0 69.5 22t29.5 67zM310 -15q-92 0 -164.5 25.5t-105.5 81.5l114 104q19 -29 54.5 -46t85.5 -17q78 0 113.5 48.5t35.5 158.5v19q-20 -48 -65 -78t-112 -30q-50 0 -91.5 14.5 t-71.5 43t-46.5 71t-16.5 98.5q0 52 16.5 95.5t50.5 75t84.5 49t119.5 17.5q157 0 242.5 -88.5t85.5 -273.5q0 -175 -80 -271.5t-249 -96.5z" />
<glyph d="M25 300q0 159 75.5 237t213.5 78q137 0 211.5 -77.5t74.5 -237.5q0 -80 -19.5 -139t-56.5 -98t-90 -58.5t-120 -19.5q-138 0 -213.5 78t-75.5 237zM419 300q0 91 -27 127t-78 36q-26 0 -46 -8t-34 -27t-21 -50t-7 -77q0 -92 28 -128t79 -36q26 0 45.5 8.5t33 27.5 t20.5 50t7 77z" />
<glyph d="M64 0v162h156v218l-73 -46l-72 154l212 122h128v-448h146v-162h-497z" />
<glyph d="M59 0l-1 122l211 166q42 32 70 59.5t28 62.5q0 27 -21.5 39.5t-52.5 12.5q-42 0 -66.5 -18t-45.5 -59l-132 81q44 83 111 116t159 33q51 0 96.5 -8.5t79.5 -29t53.5 -54.5t19.5 -84q0 -34 -9 -64.5t-29.5 -60t-53.5 -60t-80 -64.5l-74 -53l260 7v-144h-523z" />
<glyph d="M305 -115q-94 0 -163 33t-114 112l133 88q26 -47 56 -65.5t75 -18.5q47 0 74.5 18t27.5 59q0 35 -24 52t-78 17h-72v139h72q87 0 87 68q0 37 -23.5 55t-68.5 18q-43 0 -67 -18t-45 -55l-132 74q42 84 107.5 119t158.5 35q128 0 193.5 -54t65.5 -147q0 -57 -23.5 -94 t-65.5 -62q47 -23 74 -59t27 -98q0 -49 -18.5 -89t-53.5 -68t-86 -43.5t-117 -15.5z" />
<glyph d="M19 36v154l226 410h183l-218 -402h145v120h181v-120h67v-162h-67v-136h-181v136h-336z" />
<glyph d="M238 448l-10 -112q24 11 54 16t63 5q117 0 179 -57.5t62 -166.5q0 -120 -72 -184t-214 -64q-88 0 -161 29t-118 97l130 97q26 -40 58 -59.5t77 -19.5q54 0 83 26t29 72q0 25 -8 42.5t-22 28.5t-33 16t-41 5q-75 0 -111 -40l-125 59l31 362h471v-152h-322z" />
<glyph d="M340 -15q-150 0 -231.5 88.5t-81.5 273.5q0 88 19 156.5t58 115.5t98 71.5t139 24.5q90 0 157.5 -29t98.5 -89l-115 -102q-7 13 -17 26t-24.5 23t-35 16.5t-48.5 6.5q-75 0 -110 -49.5t-35 -160.5v-20q21 46 64 75t108 29q48 0 88 -14t68.5 -41.5t44 -68.5t15.5 -95 q0 -51 -15.5 -94.5t-48 -75t-81.5 -49.5t-115 -18zM234 219q0 -39 24 -63.5t66 -24.5q44 0 68.5 23t24.5 65q0 39 -21 63.5t-68 24.5q-39 0 -66.5 -21.5t-27.5 -66.5z" />
<glyph d="M151 -100q0 85 16.5 162.5t45.5 145t69.5 125t88.5 103.5l-335 -7v171h535v-130q-48 -60 -85.5 -119t-64 -125.5t-40 -146t-13.5 -179.5h-217z" />
<glyph d="M303 -15q-140 0 -211.5 53t-71.5 159q0 65 29.5 107t84.5 62q-42 22 -65 59t-23 90q0 105 65 152.5t193 47.5t193 -47.5t65 -152.5q0 -53 -23.5 -90t-65.5 -59q55 -20 85 -61.5t30 -107.5q0 -212 -285 -212zM393 504q0 35 -24 54t-63 19q-43 0 -67 -19t-24 -54t24 -54 t65 -19t65 19t24 54zM401 200q0 38 -26.5 59.5t-68.5 21.5q-45 0 -72 -21.5t-27 -59.5q0 -41 26.5 -61t70.5 -20q43 0 70 20t27 61z" />
<glyph d="M387 378q0 39 -24.5 63.5t-66.5 24.5q-44 0 -68.5 -23.5t-24.5 -66.5q0 -39 21 -63.5t68 -24.5q39 0 67 22.5t28 67.5zM281 -115q-45 0 -85.5 6.5t-74 19.5t-60 33t-42.5 48l112 104q18 -29 52.5 -46t82.5 -17q75 0 109.5 48.5t34.5 158.5v19q-19 -47 -62 -75.5 t-106 -28.5q-49 0 -89 14t-69 42t-45 70t-16 97q0 52 15.5 95.5t48 75t81.5 49t115 17.5q149 0 230.5 -88.5t81.5 -273.5q0 -175 -76.5 -271.5t-237.5 -96.5z" />
<glyph horiz-adv-x="665" d="M39 300q0 160 76.5 237.5t216.5 77.5q141 0 217.5 -77.5t76.5 -237.5q0 -80 -20 -139t-58 -98t-92.5 -58.5t-123.5 -19.5q-140 0 -216.5 77.5t-76.5 237.5zM438 300q0 91 -27.5 127t-78.5 36q-26 0 -45.5 -8t-33 -27t-20.5 -50t-7 -77t7 -77.5t20.5 -50.5t33 -27.5 t44.5 -8.5q26 0 46 8.5t33.5 27.5t20.5 50t7 77z" />
<glyph horiz-adv-x="405" d="M338 0h-194v380l-74 -46l-71 154l211 122h128v-610z" />
<glyph horiz-adv-x="567" d="M38 0l-1 118l199 171q18 16 34 31t27.5 29.5t18.5 29.5t7 32q0 27 -18.5 39t-44.5 12q-38 0 -61 -18t-43 -57l-132 80q41 82 104.5 115t151.5 33q49 0 92.5 -9t76.5 -29t52 -54t19 -83q0 -65 -37.5 -118.5t-103.5 -112.5l-82 -74l234 8v-143h-493z" />
<glyph horiz-adv-x="612" d="M293 -116q-94 0 -163 33t-114 113l135 87q26 -46 55.5 -65t72.5 -19q47 0 74.5 18.5t27.5 59.5q0 35 -24 52t-78 17h-71v139h71q87 0 87 68q0 37 -23.5 55.5t-67.5 18.5q-42 0 -65.5 -18.5t-43.5 -55.5l-135 74q42 84 107.5 119t158.5 35q129 0 195 -54.5t66 -146.5 q0 -57 -24 -94t-66 -62q47 -23 74.5 -59t27.5 -98q0 -50 -18.5 -90t-53.5 -68t-87 -43.5t-118 -15.5z" />
<glyph horiz-adv-x="682" d="M32 36v133l194 431h190l-190 -404h178v245h181v-245h77v-160h-77v-136h-181v136h-372z" />
<glyph horiz-adv-x="601" d="M229 449l-10 -113q48 21 116 21q117 0 179 -57t62 -168q0 -119 -72.5 -183t-213.5 -64q-89 0 -162.5 29t-118.5 97l132 97q26 -41 57.5 -59.5t77.5 -18.5q53 0 81 26t28 71q0 50 -30 71.5t-74 21.5q-71 0 -108 -41l-127 59l31 362h474v-151h-322z" />
<glyph horiz-adv-x="671" d="M367 -15q-153 0 -235.5 88.5t-82.5 273.5q0 88 19 156.5t58 115.5t99 71.5t142 24.5q90 0 158 -29t98 -89l-117 -102q-7 13 -16.5 26t-23.5 23t-34.5 16.5t-48.5 6.5q-77 0 -111.5 -49.5t-34.5 -160.5v-20q20 46 64 75t110 29q49 0 89 -14t69 -41.5t45 -68.5t16 -95 q0 -51 -16 -94.5t-48.5 -75t-82 -49.5t-116.5 -18zM258 219q0 -39 24.5 -63.5t66.5 -24.5q45 0 70 23t25 65q0 39 -21 63.5t-69 24.5q-39 0 -67.5 -21.5t-28.5 -66.5z" />
<glyph horiz-adv-x="549" d="M132 -100q0 85 16 162.5t45 145t68.5 125t86.5 103.5l-329 -7v171h528v-130q-47 -60 -84 -119t-62.5 -125.5t-39.5 -146t-14 -179.5h-215z" />
<glyph horiz-adv-x="661" d="M330 -15q-140 0 -212 53t-72 159q0 65 29.5 107t84.5 62q-42 22 -65 59t-23 90q0 105 65 152.5t193 47.5q129 0 194.5 -47.5t65.5 -152.5q0 -53 -23.5 -90t-65.5 -59q54 -20 84 -61.5t30 -107.5q0 -212 -285 -212zM417 504q0 35 -23 54t-61 19q-42 0 -65.5 -19t-23.5 -54 t23 -54t64 -19q40 0 63 19t23 54zM425 200q0 38 -25 59.5t-67 21.5q-45 0 -71 -21.5t-26 -59.5q0 -41 26 -61t69 -20q42 0 68 20t26 61z" />
<glyph horiz-adv-x="670" d="M411 378q0 39 -24.5 63.5t-66.5 24.5q-43 0 -67.5 -23.5t-24.5 -66.5q0 -39 21 -63t66 -24q39 0 67.5 22t28.5 67zM305 -115q-45 0 -86.5 6.5t-76 19.5t-61 33t-42.5 48l113 104q19 -29 53.5 -46t83.5 -17q77 0 112 48.5t35 158.5v19q-20 -48 -64 -78t-110 -30 q-49 0 -89.5 14.5t-69.5 43t-45 71t-16 98.5q0 52 16 95.5t49 75t82.5 49t116.5 17.5q152 0 235 -88.5t83 -273.5q0 -175 -77.5 -271.5t-241.5 -96.5z" />
<glyph horiz-adv-x="451" d="M26 0zM26 3q0 109 47 164t152 55q104 0 151.5 -55t47.5 -164t-47 -163.5t-152 -54.5t-152 54.5t-47 163.5zM288 3q0 65 -16.5 90t-46.5 25t-46.5 -24.5t-16.5 -89.5t16.5 -90t46.5 -25t46.5 24.5t16.5 89.5z" />
<glyph horiz-adv-x="284" d="M5 0zM234 -200h-138v263l-41 -23l-50 102l138 73h91v-415z" />
<glyph horiz-adv-x="391" d="M5 0zM23 -200v88l141 118q21 19 36 36t15 37t-13 27t-31 7q-28 0 -44 -12t-32 -37l-90 63q31 54 76 74t107 20q33 0 63 -6t53 -20t37 -37.5t14 -59.5q0 -45 -23.5 -81t-62.5 -70l-47 -42l148 4v-109h-347z" />
<glyph horiz-adv-x="390" d="M11 0zM188 -214q-59 0 -103.5 20t-73.5 68l95 59q16 -26 32.5 -35t41.5 -9q23 0 36.5 8t13.5 26q0 16 -13 24t-43 8h-38v91h38q47 0 47 35q0 33 -46 33q-23 0 -36.5 -10t-24.5 -31l-96 52q29 53 70.5 74.5t101.5 21.5q84 0 126 -33.5t42 -89.5q0 -32 -15 -54.5t-40 -37.5 q28 -14 44.5 -34.5t16.5 -56.5q0 -60 -46.5 -94.5t-129.5 -34.5z" />
<glyph horiz-adv-x="438" d="M21 0zM21 -127v89l117 247h134l-114 -228h92v120h129v-120h42v-108h-42v-73h-129v73h-229z" />
<glyph horiz-adv-x="384" d="M3 0zM155 108l-6 -48q14 4 30.5 6.5t33.5 2.5q78 0 116.5 -35t38.5 -100q0 -72 -46.5 -109.5t-136.5 -37.5q-57 0 -104.5 17t-77.5 59l94 66q30 -40 78 -40q27 0 41.5 12t14.5 32q0 24 -17 34.5t-39 10.5q-36 0 -56 -23l-91 40l18 213h306v-101z" />
<glyph horiz-adv-x="420" d="M25 0zM227 -213q-99 0 -150.5 52.5t-51.5 162.5q0 102 48 160.5t154 58.5q57 0 100 -18t62 -55l-80 -69q-7 13 -22 27t-48 14q-44 0 -63 -26t-19 -85q14 22 39 36t61 14q60 0 97.5 -32.5t37.5 -98.5q0 -61 -40.5 -101t-124.5 -40zM169 -72q0 -17 12 -29.5t35 -12.5 q22 0 34.5 11t12.5 31q0 17 -11 28.5t-35 11.5q-19 0 -33.5 -9.5t-14.5 -30.5z" />
<glyph horiz-adv-x="357" d="M12 0zM233 -200h-153q0 97 36 172.5t92 126.5l-196 -4v113h338v-84q-32 -40 -54 -76t-36 -73.5t-20.5 -79.5t-6.5 -95z" />
<glyph horiz-adv-x="416" d="M26 0zM206 -213q-89 0 -134.5 31t-45.5 96q0 74 64 99q-22 14 -35.5 36t-13.5 51q0 63 42.5 92t123.5 29t123.5 -29t42.5 -92q0 -29 -14 -51t-37 -36q65 -25 65 -99q0 -127 -181 -127zM251 92q0 16 -12 25.5t-31 9.5q-21 0 -33 -9.5t-12 -25.5q0 -17 12 -26t32 -9t32 9 t12 26zM254 -84q0 18 -12 28.5t-33 10.5q-24 0 -37 -10.5t-13 -28.5t13 -28.5t35 -10.5q23 0 35 10.5t12 28.5z" />
<glyph horiz-adv-x="417" d="M17 0zM243 77q0 20 -12.5 31t-35.5 11q-44 0 -44 -41q0 -18 10 -30t34 -12q18 0 33 10t15 31zM184 -213q-25 0 -50.5 3.5t-48 11.5t-40.5 19.5t-28 28.5l78 73q11 -17 31.5 -26.5t48.5 -9.5q46 0 64 28.5t17 79.5q-28 -52 -100 -52q-60 0 -97.5 34t-37.5 100 q0 63 40 103.5t129 40.5q95 0 146.5 -52.5t51.5 -162.5q0 -102 -48 -160.5t-156 -58.5z" />
<glyph horiz-adv-x="318" d="M26 0zM208 -143h-98v85h-84v78h84v87h98v-87h84v-78h-84v-85z" />
<glyph horiz-adv-x="318" d="M26 0zM292 20v-78h-266v78h266z" />
<glyph horiz-adv-x="318" d="M26 0zM292 70v-79h-266v79h266zM292 -32v-79h-266v79h266z" />
<glyph horiz-adv-x="240" d="M22 0zM223 -206l-11 -101q-97 8 -143.5 76t-46.5 189t45.5 188.5t140.5 75.5l15 -101q-24 -3 -42.5 -12.5t-31 -28.5t-19 -49t-6.5 -73q0 -44 6.5 -74t19 -49t31 -28.5t42.5 -12.5z" />
<glyph horiz-adv-x="240" d="M16 0zM28 -307l-12 101q24 3 43 12.5t31.5 28.5t19 49t6.5 74q0 43 -6.5 73t-19 49t-31.5 28.5t-43 12.5l15 101q95 -8 140.5 -75.5t45.5 -188.5t-46 -189t-143 -76z" />
<glyph horiz-adv-x="309" d="M47 646q0 50 28 72.5t80 22.5q51 0 78.5 -22.5t27.5 -72.5q0 -48 -27.5 -70.5t-78.5 -22.5q-52 0 -80 22.5t-28 70.5zM58 502h194v-502h-194v502z" />
<glyph horiz-adv-x="617" d="M56 0zM266 -354l-33 67q33 8 57 26.5t32 44.5q-44 0 -69 20.5t-25 59.5q0 43 25 64.5t73 21.5q47 0 73.5 -27t26.5 -81q0 -39 -11.5 -72t-32.5 -59t-50.5 -42.5t-65.5 -22.5zM56 0v700h195l-7 -416l158 218h196l-189 -248l203 -254h-212l-152 195v-195h-192z" />
<glyph horiz-adv-x="758" d="M470 908h113q0 -42 -12.5 -70.5t-36.5 -46t-58.5 -24.5t-78.5 -7t-78.5 7t-58 24.5t-36 46t-12.5 70.5h112q0 -35 17.5 -47t55.5 -12t55.5 12t17.5 47zM394 -15q-179 0 -263 91t-84 275q0 187 88.5 275.5t266.5 88.5q108 0 178 -37t104 -122l-162 -82q-21 43 -48 59 t-74 16q-37 0 -65 -10t-47 -33.5t-28.5 -61.5t-9.5 -95q0 -58 10 -97t29.5 -63t48.5 -34t66 -10q45 0 80 23t42 75h-122v148h303v-106q0 -90 -26.5 -148t-70 -92t-100 -47t-116.5 -13z" />
<glyph horiz-adv-x="758" d="M394 820l-56 -52h-141v4l124 137h155l125 -137v-4h-149zM394 -15q-179 0 -263 91t-84 275q0 187 88.5 275.5t266.5 88.5q108 0 178 -37t104 -122l-162 -82q-21 43 -48 59t-74 16q-37 0 -65 -10t-47 -33.5t-28.5 -61.5t-9.5 -95q0 -58 10 -97t29.5 -63t48.5 -34t66 -10 q45 0 80 23t42 75h-122v148h303v-106q0 -90 -26.5 -148t-70 -92t-100 -47t-116.5 -13z" />
<glyph horiz-adv-x="758" d="M394 -15q-179 0 -263 91t-84 275q0 187 88.5 275.5t266.5 88.5q108 0 178 -37t104 -122l-162 -82q-21 43 -48 59t-74 16q-37 0 -65 -10t-47 -33.5t-28.5 -61.5t-9.5 -95q0 -58 10 -97t29.5 -63t48.5 -34t66 -10q45 0 80 23t42 75h-122v148h303v-106q0 -90 -26.5 -148 t-70 -92t-100 -47t-116.5 -13zM324 -354l-33 67q33 8 57 26.5t32 44.5q-44 0 -69 20.5t-25 59.5q0 43 25 64.5t73 21.5q47 0 73.5 -27t26.5 -81q0 -39 -11.5 -72t-32.5 -59t-50.5 -42.5t-65.5 -22.5z" />
<glyph horiz-adv-x="758" d="M296 847q0 45 26.5 65t74.5 20t74 -20t26 -65q0 -44 -26 -64t-74 -20t-74.5 20t-26.5 64zM394 -15q-179 0 -263 91t-84 275q0 187 88.5 275.5t266.5 88.5q108 0 178 -37t104 -122l-162 -82q-21 43 -48 59t-74 16q-37 0 -65 -10t-47 -33.5t-28.5 -61.5t-9.5 -95 q0 -58 10 -97t29.5 -63t48.5 -34t66 -10q45 0 80 23t42 75h-122v148h303v-106q0 -90 -26.5 -148t-70 -92t-100 -47t-116.5 -13z" />
<glyph horiz-adv-x="763" d="M84 0zM339 -354l-33 67q33 8 57 26.5t32 44.5q-44 0 -69 20.5t-25 59.5q0 43 25 64.5t73 21.5q47 0 73.5 -27t26.5 -81q0 -39 -11.5 -72t-32.5 -59t-50.5 -42.5t-65.5 -22.5zM506 0l-219 308v-308h-203v700h203v-339l231 339h230l-255 -347l265 -353h-252z" />
<glyph horiz-adv-x="500" d="M451 423v-148h-401v148h401z" />
<glyph horiz-adv-x="590" d="M541 423v-148h-491v148h491z" />
<glyph horiz-adv-x="790" d="M740 423v-148h-690v148h690z" />
<glyph horiz-adv-x="590" d="M541 423v-148h-491v148h491z" />
<glyph horiz-adv-x="309" d="M252 700v-700h-194v700h194z" />
<glyph horiz-adv-x="741" d="M87 0v362h-76v140h76v27q0 54 15 93t42.5 64.5t65.5 37.5t83 12q43 0 75.5 -11t51.5 -25l-34 -119q-11 6 -24 10.5t-27 4.5q-30 0 -44 -16t-14 -52v-26h125v-140h-125v-362h-190zM664 700v-700h-194v700h194z" />
<glyph horiz-adv-x="741" d="M0 0z" />
</font>
</defs>
</svg>
