<?xml version="1.0" standalone="no"?>
<!DOCTYPE svg PUBLIC "-//W3C//DTD SVG 1.1//EN" "http://www.w3.org/Graphics/SVG/1.1/DTD/svg11.dtd" >
<svg xmlns="http://www.w3.org/2000/svg" xmlns:xlink="http://www.w3.org/1999/xlink" version="1.1">
<metadata></metadata>
<defs>
<font id="honeywell_cond_webMdIt" horiz-adv-x="535" >
<font-face units-per-em="1000" ascent="780" descent="-220" />
<missing-glyph horiz-adv-x="172" />
<glyph unicode="fi" horiz-adv-x="478" d="M383 627q0 29 15 47t44 18q21 0 33 -12t12 -35q0 -31 -17 -48t-43 -17q-22 0 -33 13t-11 34zM287 422h-101l-65 -422h-78l66 422h-64l10 65h65l12 70q15 85 56 123.5t95 38.5q19 0 36.5 -4.5t30.5 -14.5l-30 -69q-20 12 -42 12q-23 0 -42.5 -18.5t-27.5 -69.5l-10 -68h99 zM374 487h78l-76 -487h-79z" />
<glyph unicode="fl" horiz-adv-x="492" d="M287 422h-101l-65 -422h-78l66 422h-64l10 65h65l12 70q13 84 55 123t96 39q19 0 36.5 -4.5t30.5 -14.5l-30 -69q-20 12 -42 12q-23 0 -42.5 -18.5t-27.5 -69.5l-10 -68h99zM391 109q-7 -41 28 -41h28l-10 -68h-47q-41 0 -64 22t-15 75l95 603h78z" />
<glyph horiz-adv-x="132" />
<glyph horiz-adv-x="132" />
<glyph unicode="&#xd;" horiz-adv-x="132" />
<glyph unicode=" "  horiz-adv-x="172" />
<glyph unicode="&#x09;" horiz-adv-x="172" />
<glyph unicode="&#xa0;" horiz-adv-x="172" />
<glyph unicode="!" horiz-adv-x="177" d="M205 700l-91 -506h-61l68 506h84zM112 61q0 -32 -15 -49t-43 -17q-21 0 -32 12.5t-11 32.5q0 29 14 47t43 18q44 0 44 -44z" />
<glyph unicode="&#x22;" horiz-adv-x="248" d="M120 505h-57l23 207h69zM227 505h-56l29 207h70z" />
<glyph unicode="#" horiz-adv-x="560" d="M326 269l66 171h-131l-65 -171h130zM224 0l78 205h-132l-78 -205h-79l78 205h-79l27 64h76l66 171h-83l27 63h81l77 197h79l-76 -197h132l75 197h80l-76 -197h80l-27 -63h-79l-66 -171h88l-27 -64h-85l-78 -205h-79z" />
<glyph unicode="$" horiz-adv-x="428" d="M211 407l35 209q-48 -7 -71 -38.5t-23 -76.5q0 -62 59 -94zM309 199q0 33 -12.5 57t-49.5 44h-1l-33 -221q45 7 70.5 37t25.5 83zM138 -62l13 78q-27 3 -51.5 13.5t-44.5 28.5t-34 45.5t-20 65.5l69 30q5 -54 29 -83t62 -37l38 242l-1 1q-120 55 -120 168q0 78 46 130.5 t131 59.5l14 86h52l-14 -86q52 -7 87 -45.5t40 -105.5l-67 -29q-6 51 -24.5 77.5t-45.5 34.5l-37 -228h1q63 -30 92.5 -69.5t29.5 -100.5q0 -46 -13.5 -81t-37.5 -60t-57 -39t-72 -17l-13 -79h-52z" />
<glyph unicode="%" horiz-adv-x="777" d="M67 0zM646 418q54 0 79.5 -31.5t25.5 -100.5q0 -18 -2 -38t-5 -43q-17 -111 -55 -162t-104 -51q-54 0 -80 32t-26 101q0 18 2 37.5t5 42.5q17 112 54.5 162.5t105.5 50.5zM641 364q-33 0 -56 -35t-36 -123q-4 -26 -6 -46t-2 -37q0 -43 13 -60t37 -17q16 0 29.5 8t25 26.5 t20.5 49t16 75.5q4 24 6 44.5t2 37.5q0 42 -12.5 59.5t-36.5 17.5zM234 711q54 0 79.5 -31.5t25.5 -100.5q0 -18 -2 -38t-5 -43q-17 -111 -55 -162t-104 -51q-54 0 -80 32t-26 101q0 18 2 37.5t5 42.5q17 112 54.5 162.5t105.5 50.5zM229 657q-33 0 -56 -35t-36 -123 q-4 -26 -6 -46t-2 -37q0 -43 13 -60t37 -17q16 0 29.5 8t25 26.5t20.5 49t16 75.5q4 24 6 44.5t2 37.5q0 42 -12.5 59.5t-36.5 17.5zM628 700l-365 -700h-72l364 700h73z" />
<glyph unicode="&#x26;" horiz-adv-x="529" d="M490 43l-47 -58q-27 18 -48.5 36.5t-46.5 44.5q-36 -41 -80 -59.5t-95 -18.5q-70 0 -115 39.5t-45 121.5q0 72 34 125.5t103 103.5q-11 29 -18.5 66t-7.5 74q0 42 9.5 78t29 61.5t49 40t69.5 14.5q52 0 83.5 -29.5t31.5 -85.5q0 -59 -36.5 -118.5t-127.5 -119.5 q22 -48 52.5 -95t66.5 -91q35 58 61 135.5t40 166.5h70q-20 -112 -52 -200t-74 -151q24 -25 47.5 -44.5t46.5 -36.5zM193 523q0 -26 4.5 -53.5t12.5 -50.5q66 44 91.5 86t25.5 78q0 33 -16 49t-40 16q-32 0 -55 -30t-23 -95zM85 161q0 -57 29 -82.5t70 -25.5q33 0 64 15 t57 45q-38 46 -72 98t-60 108q-39 -31 -63.5 -69.5t-24.5 -88.5z" />
<glyph unicode="'" horiz-adv-x="135" d="M61 505l27 207h69l-39 -207h-57z" />
<glyph unicode="(" horiz-adv-x="262" d="M160 -83q-130 28 -130 245q0 35 3.5 75t10.5 85q29 190 89 288t153 118l16 -64q-35 -11 -63 -33.5t-51 -62t-41 -99.5t-32 -147q-15 -96 -15 -158q0 -85 24 -127.5t71 -57.5z" />
<glyph unicode=")" horiz-adv-x="262" d="M108 728q130 -28 130 -245q0 -35 -3.5 -75t-10.5 -85q-29 -190 -89 -288t-153 -118l-16 64q35 11 63 33t51 62t41 100t32 147q15 96 15 158q0 85 -24 127.5t-71 57.5z" />
<glyph unicode="*" horiz-adv-x="328" d="M105 366l-43 36l84 111l-86 38l31 61l81 -42l16 142h69l-29 -142l97 42l12 -60l-100 -39l50 -111l-56 -36l-47 107z" />
<glyph unicode="+" horiz-adv-x="381" d="M194 110h-64l26 168h-117l10 65h116l28 167h64l-27 -167h117l-9 -65h-118z" />
<glyph unicode="," horiz-adv-x="180" d="M1 -131l-17 36q29 16 49 40t25 50q-25 0 -35.5 12t-10.5 33q0 26 14.5 45t43.5 19q46 0 46 -51q0 -24 -6.5 -50.5t-21 -52t-36 -47t-51.5 -34.5z" />
<glyph unicode="-" horiz-adv-x="331" d="M298 289l-11 -69h-254l11 69h254z" />
<glyph unicode="." horiz-adv-x="178" d="M113 61q0 -32 -15.5 -49t-42.5 -17q-22 0 -33 12.5t-11 32.5q0 29 14 47t43 18q45 0 45 -44z" />
<glyph unicode="/" horiz-adv-x="386" d="M452 700l-406 -700h-82l406 700h82z" />
<glyph unicode="0" d="M50 0zM325 712q86 0 127 -51.5t41 -167.5q0 -32 -2.5 -67t-8.5 -76q-14 -96 -36.5 -164.5t-55 -112.5t-74.5 -64.5t-96 -20.5q-87 0 -128.5 53t-41.5 168q0 31 3.5 66t9.5 75q14 96 36 165t54.5 112.5t75 64t96.5 20.5zM319 644q-32 0 -59 -15t-48.5 -49.5t-39 -90.5 t-30.5 -138q-7 -45 -10.5 -82t-3.5 -66q0 -41 6.5 -69.5t19 -46t30.5 -25t41 -7.5q32 0 58.5 14.5t48 48.5t38.5 90.5t31 140.5q7 44 10.5 81t3.5 66q0 81 -24 114.5t-72 33.5z" />
<glyph unicode="1" d="M414 0h-388l12 72h147l82 517l-77 -59l-23 64l144 106h53l-99 -628h161z" />
<glyph unicode="2" d="M49 0zM49 0l11 66l237 285q55 64 80.5 113t25.5 97q0 38 -22 60.5t-60 22.5q-45 0 -78.5 -25.5t-65.5 -83.5l-58 33q42 81 95.5 112.5t119.5 31.5q76 0 114 -39t38 -102q0 -29 -7 -56.5t-22 -56.5t-38.5 -62.5t-57.5 -73.5l-210 -253l281 2l-12 -71h-371z" />
<glyph unicode="3" d="M51 0zM51 140l69 28q5 -57 32 -86t72 -29q35 0 61.5 13.5t44.5 37t27.5 56t9.5 70.5q0 99 -90 99h-52l12 73h49q27 0 49.5 12t38 33t24 49t8.5 59q0 42 -22 66t-64 24q-45 0 -78.5 -22.5t-56.5 -75.5l-61 31q29 66 82 100t130 34q72 0 111 -38.5t39 -106.5 q0 -28 -7.5 -57t-21.5 -55.5t-34.5 -49t-46.5 -37.5q32 -15 50.5 -47t18.5 -84t-14.5 -97.5t-43.5 -79.5t-72 -53.5t-99 -19.5q-30 0 -58 9t-50.5 28t-37.5 48t-19 68z" />
<glyph unicode="4" d="M28 0zM28 184l9 58l240 458h77l-234 -443h203l50 318h79l-50 -318h74l-11 -73h-75l-29 -184h-79l29 184h-283z" />
<glyph unicode="5" d="M50 0zM243 629l-49 -226q23 20 55 31t70 11q30 0 55 -9.5t44 -30t29.5 -53t10.5 -78.5q0 -61 -16.5 -113.5t-47 -91t-74.5 -60.5t-99 -22q-72 0 -118 38.5t-53 111.5l66 27q5 -57 36 -84t75 -27q36 0 64 16.5t47.5 45t29.5 67.5t10 85q0 53 -24.5 80.5t-69.5 27.5 q-74 0 -129 -57l-50 23l84 359h310l-12 -71h-244z" />
<glyph unicode="6" d="M63 0zM506 588l-67 -35q-11 48 -36 70t-61 22q-44 0 -75 -21.5t-53 -61.5t-36.5 -96t-26.5 -125q0 -1 -2 -11.5t-2 -11.5q23 56 66.5 88.5t99.5 32.5q63 0 101.5 -44.5t38.5 -130.5q0 -53 -13.5 -103t-40.5 -88.5t-68 -62t-97 -23.5q-79 0 -125 53.5t-46 176.5q0 28 3 60 t8 68q27 190 96.5 278.5t171.5 88.5q69 0 109.5 -30t54.5 -94zM283 371q-29 0 -54 -15t-44 -40.5t-29.5 -61t-10.5 -75.5q0 -56 23.5 -90t70.5 -34q34 0 59.5 16t42 43t25 62t8.5 73q0 63 -21.5 92.5t-69.5 29.5z" />
<glyph unicode="7" d="M137 0zM137 0q15 94 43 186.5t64.5 175t80.5 151.5t91 117l-271 -1l12 71h356l-13 -78q-48 -36 -91.5 -96.5t-79.5 -140.5t-63.5 -177t-45.5 -208h-83z" />
<glyph unicode="8" d="M59 0zM447 222q0 -52 -16 -95t-45.5 -74t-70 -48t-89.5 -17q-40 0 -71 12.5t-52.5 35t-32.5 53.5t-11 67q0 41 10 76t27.5 62.5t41.5 46.5t52 29q-27 20 -43 53.5t-16 78.5q0 40 13.5 78t39 67.5t63 47t86.5 17.5q69 0 109 -40.5t40 -109.5q0 -67 -30 -118t-79 -77 q33 -16 53.5 -53.5t20.5 -91.5zM407 543q0 45 -20 73t-65 28q-25 0 -46.5 -11.5t-37 -31t-24.5 -45.5t-9 -56q0 -40 20.5 -69t62.5 -29q22 0 43.5 10t38.5 29t27 44.5t10 57.5zM370 217q0 48 -25.5 81t-73.5 33q-29 0 -53 -12.5t-42 -34.5t-28 -52t-10 -65q0 -48 24 -80 t72 -32q27 0 51.5 12t43.5 34t30 51.5t11 64.5z" />
<glyph unicode="9" d="M48 0zM259 325q32 0 58.5 15.5t46 42t30 62t10.5 76.5q0 57 -24 90.5t-66 33.5q-61 0 -98.5 -53.5t-37.5 -144.5q0 -58 21 -90t60 -32zM215 -12q-71 0 -112.5 30t-54.5 95l66 35q12 -48 36 -70.5t60 -22.5q44 0 75 22t53 62t36.5 96t25.5 124q0 1 1.5 11t1.5 11 q-23 -57 -65.5 -91t-96.5 -34q-68 0 -105 45.5t-37 130.5q0 54 12.5 104.5t39.5 89.5t69 62.5t100 23.5q79 0 123.5 -52.5t44.5 -172.5q0 -29 -3 -62t-8 -70q-27 -189 -94.5 -278t-167.5 -89z" />
<glyph unicode=":" horiz-adv-x="178" d="M7 0zM109 61q0 -32 -15.5 -49t-42.5 -17q-22 0 -33 12.5t-11 32.5q0 29 14 47t43 18q45 0 45 -44zM171 440q0 -32 -15.5 -49t-42.5 -17q-22 0 -33 12.5t-11 32.5q0 29 14 47t43 18q45 0 45 -44z" />
<glyph unicode=";" horiz-adv-x="180" d="M0 0zM174 440q0 -32 -15.5 -49t-42.5 -17q-22 0 -33 12.5t-11 32.5q0 29 14 47t43 18q45 0 45 -44zM1 -131l-17 36q29 16 49 40t25 50q-25 0 -35.5 12t-10.5 33q0 26 14.5 45t43.5 19q46 0 46 -51q0 -24 -6.5 -50.5t-21 -52t-36 -47t-51.5 -34.5z" />
<glyph unicode="&#x3c;" horiz-adv-x="370" d="M305 523l28 -55l-193 -160l140 -156l-43 -57l-174 196l7 37z" />
<glyph unicode="=" horiz-adv-x="380" d="M357 415l-9 -69h-299l10 69h298zM336 273l-11 -69h-299l11 69h299z" />
<glyph unicode="&#x3e;" horiz-adv-x="370" d="M70 95l-27 55l193 160l-139 157l41 56l174 -195l-6 -37z" />
<glyph unicode="?" horiz-adv-x="382" d="M137 194l22 153h32q31 0 56.5 14.5t44 39t29 57t10.5 69.5q0 57 -25 86t-72 29q-42 0 -77.5 -23.5t-54.5 -83.5l-61 26q23 74 75 112.5t124 38.5q85 0 126 -47.5t41 -129.5q0 -51 -14 -93t-38.5 -73t-58 -50.5t-72.5 -26.5l-19 -98h-68zM200 61q0 -32 -15.5 -49 t-42.5 -17q-22 0 -33 12.5t-11 32.5q0 29 14 47t43 18q45 0 45 -44z" />
<glyph unicode="@" horiz-adv-x="603" d="M467 -3q-42 -48 -93 -72.5t-114 -24.5q-104 0 -164.5 70.5t-60.5 204.5q0 97 26.5 173t71 128t101.5 79.5t117 27.5q102 0 159 -66t57 -184q0 -55 -12 -101t-33 -79.5t-50.5 -52t-63.5 -18.5q-55 0 -61 56q-20 -30 -45.5 -47t-57.5 -17q-33 0 -53.5 21t-20.5 58 q0 23 9.5 46t28 41.5t47 30t66.5 11.5h38q3 15 3 31q0 30 -14 45.5t-36 15.5q-43 0 -68 -53l-41 24q14 30 42.5 52.5t73.5 22.5q46 0 71 -25t25 -70q0 -17 -3 -39l-15 -97q-1 -5 -1.5 -14t-0.5 -15q0 -39 30 -39q21 0 39.5 15.5t32.5 44t22 67t8 85.5q0 106 -48.5 160 t-130.5 54q-51 0 -100.5 -24.5t-87.5 -72t-61.5 -116t-23.5 -155.5q0 -62 14 -108t39 -76t60 -44.5t77 -14.5q51 0 97 21t81 63zM222 160q0 -19 10 -29.5t25 -10.5q36 0 62 30t32 81l1 8h-31q-48 0 -73.5 -23.5t-25.5 -55.5z" />
<glyph unicode="A" horiz-adv-x="486" d="M302 608l-156 -391h189zM353 0l-13 145h-222l-58 -145h-83l290 700h99l68 -700h-81z" />
<glyph unicode="B" horiz-adv-x="515" d="M38 0l111 700h197q41 0 70.5 -10.5t48 -29t27 -44t8.5 -56.5q0 -74 -30 -124.5t-79 -73.5q38 -12 55.5 -46.5t17.5 -79.5q0 -115 -62.5 -175.5t-171.5 -60.5h-192zM332 629h-116l-38 -234h117q36 0 60 14t39 35.5t21 46.5t6 47q0 43 -23.5 67t-65.5 24zM287 320h-120 l-40 -249h115q37 0 64.5 12t44.5 33t25.5 49t8.5 61q0 45 -23.5 69.5t-74.5 24.5z" />
<glyph unicode="C" horiz-adv-x="517" d="M69 351q14 99 39.5 167.5t61.5 111.5t81.5 62.5t100.5 19.5q81 0 128.5 -41t57.5 -139l-77 -25q-8 76 -36.5 105t-80.5 29q-33 0 -62.5 -13t-54.5 -46t-45 -89t-33 -141q-12 -75 -12 -132q0 -46 8.5 -77t25 -50t40 -27t53.5 -8q45 0 83.5 25.5t70.5 97.5l66 -37 q-18 -44 -43 -73.5t-55 -48t-63 -26.5t-67 -8q-50 0 -87 12.5t-62 40t-37.5 71.5t-12.5 106q0 32 3 63t9 70z" />
<glyph unicode="D" horiz-adv-x="561" d="M38 0l111 700h180q102 0 152.5 -54t50.5 -174q0 -23 -2 -54.5t-7 -63.5q-29 -184 -106 -269t-198 -85h-181zM130 72h95q37 0 71 13t62.5 45t50 85.5t33.5 134.5q5 29 7.5 58.5t2.5 53.5q0 91 -34.5 129t-97.5 38h-101z" />
<glyph unicode="E" horiz-adv-x="500" d="M427 71l-10 -71h-379l111 700h385l-12 -72h-305l-39 -242h262l-12 -75h-261l-39 -240h299z" />
<glyph unicode="F" horiz-adv-x="460" d="M422 312h-254l-49 -312h-81l111 700h365l-11 -73h-284l-38 -240h254z" />
<glyph unicode="G" horiz-adv-x="551" d="M238 -12q-89 0 -134.5 58t-45.5 179q0 28 3 59.5t8 66.5q14 97 38.5 166t60 112t82.5 63t106 20q39 1 70.5 -8t54.5 -29.5t36.5 -54t18.5 -82.5l-74 -26q-4 39 -13.5 64t-23.5 39.5t-33.5 20t-44.5 5.5q-36 0 -67 -13.5t-55.5 -46.5t-43.5 -89t-32 -141q-6 -39 -8.5 -72 t-2.5 -60q0 -92 30.5 -128t86.5 -36q24 0 50 10t49 35.5t42 70t28 112.5h-130l11 67h206l-56 -350h-58l5 94q-28 -52 -71.5 -79t-92.5 -27z" />
<glyph unicode="H" horiz-adv-x="592" d="M391 0l49 315h-271l-50 -315h-81l111 700h81l-49 -311h272l49 311h80l-111 -700h-80z" />
<glyph unicode="I" horiz-adv-x="241" d="M38 0l111 700h81l-111 -700h-81z" />
<glyph unicode="J" horiz-adv-x="388" d="M95 -12q-34 0 -69 11t-60 37l53 64q17 -20 39.5 -30t46.5 -10q47 0 81.5 41.5t49.5 138.5l73 460h81l-72 -453q-12 -75 -33.5 -125t-50 -79.5t-64 -42t-75.5 -12.5z" />
<glyph unicode="K" horiz-adv-x="485" d="M360 0l-116 316l-94 -114l-31 -202h-81l111 700h81l-61 -373l288 373h91l-244 -314l144 -386h-88z" />
<glyph unicode="L" horiz-adv-x="468" d="M130 73h290l-12 -73h-370l110 700h81z" />
<glyph unicode="M" horiz-adv-x="709" d="M279 0l-85 540l-81 -540h-75l111 700h92l90 -583l274 583h94l-110 -700h-77l90 540l-256 -540h-67z" />
<glyph unicode="N" horiz-adv-x="584" d="M387 0l-189 547l-85 -547h-75l111 700h78l188 -548l85 548h74l-111 -700h-76z" />
<glyph unicode="O" horiz-adv-x="581" d="M358 712q100 0 146.5 -53.5t46.5 -173.5q0 -29 -2 -62.5t-8 -71.5q-14 -96 -39 -164.5t-60.5 -113t-83 -65t-106.5 -20.5q-99 0 -147 54.5t-48 175.5q0 29 3.5 62t8.5 71q14 96 38.5 164.5t60.5 112t83 64t107 20.5zM350 642q-38 0 -69.5 -13.5t-56 -47t-43.5 -90 t-32 -141.5q-12 -78 -12 -132q0 -90 31.5 -126t88.5 -36q38 0 69 14t56 48t44 91t33 143q6 38 8.5 70.5t2.5 58.5q0 45 -8 76t-23 50t-37.5 27t-51.5 8z" />
<glyph unicode="P" horiz-adv-x="505" d="M38 0l111 700h192q86 0 128 -44t42 -126q0 -66 -16.5 -118t-47.5 -89t-76 -56.5t-102 -19.5h-111l-39 -247h-81zM333 629h-114l-49 -309h113q38 0 66 16t46 43.5t27 64.5t9 78q0 107 -98 107z" />
<glyph unicode="Q" horiz-adv-x="583" d="M358 712q100 0 146.5 -53.5t46.5 -173.5q0 -29 -2 -62.5t-8 -71.5q-19 -128 -56 -207.5t-96 -117.5l44 -118h-80l-34 87q-14 -3 -31.5 -5t-35.5 -2q-99 0 -147 54.5t-48 175.5q0 29 3.5 62t8.5 71q14 96 38.5 164.5t60.5 112t83 64t107 20.5zM351 643q-38 0 -69.5 -13.5 t-56.5 -47t-44 -90t-32 -142.5q-12 -78 -12 -132q0 -89 31.5 -126t88.5 -37q10 0 19 1.5t17 3.5l-47 130h82l35 -95q32 28 55 89.5t40 166.5q12 78 12 132q0 90 -30.5 125t-88.5 35z" />
<glyph unicode="R" horiz-adv-x="508" d="M173 340h115q36 0 63 14.5t45 40t27 59t9 72.5q0 52 -24 77.5t-75 25.5h-114zM161 268l-42 -268h-81l111 700h193q85 0 128 -41.5t43 -118.5q0 -102 -38.5 -165t-108.5 -91l72 -284h-86l-63 268h-128z" />
<glyph unicode="S" horiz-adv-x="460" d="M455 536l-71 -25q-8 69 -36.5 100.5t-79.5 31.5q-54 0 -83 -33.5t-29 -82.5q0 -39 19 -68t61 -52l38 -21q68 -38 99 -82t31 -108q0 -48 -15 -86.5t-42.5 -65.5t-66 -41.5t-86.5 -14.5q-78 0 -131 44t-67 137l73 29q5 -69 39.5 -106t93.5 -37q57 0 90 34.5t33 92.5 q0 47 -22 76.5t-68 55.5l-34 19q-60 33 -91 78.5t-31 105.5q0 37 12 72.5t37 62.5t62.5 43.5t88.5 16.5q81 0 125 -47.5t51 -128.5z" />
<glyph unicode="T" horiz-adv-x="434" d="M77 700h412l-11 -72h-166l-99 -628h-81l99 628h-166z" />
<glyph unicode="U" horiz-adv-x="561" d="M409 230l74 470h80l-74 -469q-19 -121 -82.5 -182t-163.5 -61q-91 0 -139 46t-48 135q0 14 2 29.5t4 32.5l74 469h81l-75 -469q-2 -14 -3.5 -26t-1.5 -24q0 -59 27 -89.5t84 -30.5q64 0 105.5 39.5t55.5 129.5z" />
<glyph unicode="V" horiz-adv-x="476" d="M208 94l243 606h83l-291 -700h-99l-68 700h81z" />
<glyph unicode="W" horiz-adv-x="685" d="M107 0l-33 700h81l18 -567l194 565h86l14 -559l199 561h79l-256 -700h-86l-16 562l-190 -562h-90z" />
<glyph unicode="X" horiz-adv-x="482" d="M344 0l-99 292l-189 -292h-89l243 361l-119 339h85l92 -274l173 274h87l-227 -343l128 -357h-85z" />
<glyph unicode="Y" horiz-adv-x="462" d="M188 280l-118 420h89l82 -338l191 338h90l-253 -419l-44 -281h-81z" />
<glyph unicode="Z" horiz-adv-x="434" d="M-24 0l10 64l398 565l-292 -2l12 73h380l-10 -64l-398 -566l312 3l-12 -73h-400z" />
<glyph unicode="[" horiz-adv-x="258" d="M4 -64l123 779h173l-11 -63h-101l-103 -654h104l-10 -62h-175z" />
<glyph unicode="\" horiz-adv-x="391" d="M259 0l-195 700h82l196 -700h-83z" />
<glyph unicode="]" horiz-adv-x="259" d="M271 715l-123 -779h-173l11 63h101l103 654h-104l10 62h175z" />
<glyph unicode="^" horiz-adv-x="333" d="M191 700h74l61 -314v-2h-71l-38 237l-117 -237h-72l1 2z" />
<glyph unicode="_" horiz-adv-x="358" d="M318 0l-12 -67h-360l11 67h361z" />
<glyph unicode="`" horiz-adv-x="454" d="M221 574l-72 109l1 6h93l38 -111v-4h-60z" />
<glyph unicode="a" horiz-adv-x="422" d="M95 115q0 -29 14.5 -45t39.5 -16q47 0 83.5 43.5t50.5 124.5l2 12h-46q-32 0 -58 -9t-45.5 -24.5t-30 -37.5t-10.5 -48zM267 89q-27 -48 -63.5 -74t-80.5 -26q-41 0 -70.5 29.5t-29.5 84.5q0 39 14 74t41.5 61.5t68.5 42t95 15.5h54q2 8 3 22t1 27q0 50 -21.5 68.5 t-51.5 18.5q-31 0 -57.5 -18t-43.5 -56l-62 33q23 47 65 77.5t110 30.5q64 0 101.5 -32.5t37.5 -102.5q0 -13 -1 -28t-4 -32l-48 -304h-65z" />
<glyph unicode="b" horiz-adv-x="459" d="M216 700l-46 -286q26 42 61.5 63.5t76.5 21.5q57 0 88 -43t31 -128q0 -18 -1.5 -39t-5.5 -45q-18 -123 -69 -189.5t-131 -66.5t-111 87l-16 -75h-67l111 700h79zM275 432q-45 0 -80 -45t-51 -145q-3 -21 -5 -38.5t-2 -34.5q0 -60 20.5 -87.5t55.5 -27.5q50 0 82.5 46 t47.5 143q4 23 5 43t1 37q0 57 -18.5 83t-55.5 26z" />
<glyph unicode="c" horiz-adv-x="398" d="M298 139l62 -32q-25 -51 -66.5 -85t-110.5 -34q-74 0 -111 42.5t-37 131.5q0 18 2 38t5 43q20 131 75 193.5t140 62.5q68 0 99 -35t38 -104l-70 -24q-7 47 -21.5 71t-54.5 24q-50 0 -81 -44.5t-48 -144.5q-4 -24 -6.5 -44.5t-2.5 -37.5q0 -58 20 -82t64 -24q31 0 57.5 20 t46.5 65z" />
<glyph unicode="d" horiz-adv-x="461" d="M187 54q44 0 79.5 44.5t50.5 143.5q6 43 6 74q0 63 -20.5 89.5t-55.5 26.5q-50 0 -80.5 -46t-47.5 -143q-5 -26 -6.5 -42.5t-1.5 -34.5q0 -112 76 -112zM157 -12q-60 0 -91 43.5t-31 128.5q0 19 2 40t5 44q18 125 69 190t128 65q74 0 105 -84l45 285h77l-111 -700h-63 l5 79q-27 -45 -61 -68t-79 -23z" />
<glyph unicode="e" horiz-adv-x="416" d="M181 -12q-69 0 -107 43t-38 134q0 34 6 78q18 126 72.5 191t140.5 65q34 0 58 -12t40 -34t23.5 -52.5t7.5 -67.5q0 -27 -4 -56t-9 -58h-257q-2 -8 -2.5 -25.5t-0.5 -28.5q0 -61 20.5 -86.5t60.5 -25.5q34 0 60 21.5t47 63.5l58 -33q-13 -23 -27.5 -44t-34.5 -37 t-47.5 -26t-66.5 -10zM312 338q0 51 -17 73t-49 22q-43 0 -74 -34.5t-48 -116.5h184q2 15 3 29t1 27z" />
<glyph unicode="f" horiz-adv-x="273" d="M287 422h-100l-66 -422h-78l67 422h-65l10 65h65l12 70q13 84 55 123t96 39q19 0 36.5 -4.5t30.5 -14.5l-30 -69q-20 12 -42 12q-23 0 -42.5 -18.5t-27.5 -69.5l-10 -68h99z" />
<glyph unicode="g" horiz-adv-x="458" d="M184 65q47 0 81.5 44t50.5 142q6 37 6 69q0 59 -20.5 85.5t-55.5 26.5q-49 0 -81 -43t-47 -139q-7 -41 -7 -76q0 -55 19.5 -82t53.5 -27zM53 -60q5 -45 27.5 -67t60.5 -22q115 0 136 154l11 79q-23 -42 -57 -62.5t-72 -20.5q-60 0 -92.5 42.5t-32.5 127.5q0 36 6 78 q19 123 70 186.5t130 63.5q80 0 110 -88l17 76h63l-76 -484q-17 -110 -74.5 -164t-139.5 -54q-71 0 -107.5 32.5t-50.5 92.5z" />
<glyph unicode="h" horiz-adv-x="469" d="M216 700l-51 -311q29 60 68 85t82 25q56 0 83 -33t27 -94q0 -13 -1.5 -27.5t-3.5 -29.5l-49 -315h-78l48 303q2 13 3 25.5t1 23.5q0 78 -65 78q-48 0 -85 -50.5t-52 -139.5l-38 -240h-79l111 700h79z" />
<glyph unicode="i" horiz-adv-x="210" d="M113 627q0 29 15 47t44 18q45 0 45 -47q0 -31 -16.5 -48t-42.5 -17q-22 0 -33.5 13t-11.5 34zM104 487h79l-76 -487h-80z" />
<glyph unicode="j" horiz-adv-x="210" d="M113 627q0 29 15 47t44 18q45 0 45 -47q0 -31 -16.5 -48t-42.5 -17q-22 0 -33.5 13t-11.5 34zM20 -44l84 531h79l-86 -541q-13 -84 -52.5 -122.5t-92.5 -38.5q-19 0 -35.5 2.5t-35.5 10.5l33 73q10 -5 18 -8t19 -3q25 0 42.5 20t26.5 76z" />
<glyph unicode="k" horiz-adv-x="401" d="M124 122l-18 -122h-80l111 700h79l-79 -474l204 261h91l-180 -215l105 -272h-87l-73 206z" />
<glyph unicode="l" horiz-adv-x="218" d="M117 109q-7 -41 28 -41h28l-10 -68h-47q-41 0 -64 22t-15 75l95 603h78z" />
<glyph unicode="m" horiz-adv-x="692" d="M564 304q2 12 3.5 25.5t1.5 24.5q0 39 -15 57t-44 18q-41 0 -74 -44.5t-47 -124.5l-41 -260h-77l48 302q2 14 3.5 27.5t1.5 24.5q0 75 -57 75q-42 0 -75 -48t-49 -136l-38 -245h-79l77 487h67l-7 -92q28 57 64.5 80.5t75.5 23.5q42 0 63.5 -30.5t29.5 -81.5q29 62 67 87 t79 25q54 0 80 -32.5t26 -92.5q0 -14 -1.5 -28.5t-3.5 -29.5l-50 -316h-77z" />
<glyph unicode="n" horiz-adv-x="469" d="M26 0l77 487h68l-8 -95q30 58 69 82.5t81 24.5q57 0 84.5 -33t27.5 -94q0 -14 -1.5 -28t-3.5 -29l-49 -315h-78l49 303q2 13 2.5 24.5t0.5 21.5q0 42 -16 61.5t-49 19.5q-47 0 -85 -49t-51 -136l-39 -245h-79z" />
<glyph unicode="o" horiz-adv-x="442" d="M35 162q0 18 2 39t5 44q20 133 75 193.5t141 60.5q74 0 111.5 -40.5t37.5 -130.5q0 -18 -2 -38.5t-6 -44.5q-19 -132 -73 -194.5t-142 -62.5q-72 0 -110.5 41.5t-38.5 132.5zM190 54q52 0 84 43t49 147q4 24 6.5 44.5t2.5 37.5q0 58 -20.5 81.5t-62.5 23.5 q-27 0 -47.5 -10t-36 -32t-27 -57.5t-19.5 -87.5q-4 -26 -6 -47t-2 -38q0 -57 19.5 -81t59.5 -24z" />
<glyph unicode="p" horiz-adv-x="463" d="M277 431q-45 0 -81 -44.5t-52 -144.5q-3 -20 -5 -37.5t-2 -33.5q0 -62 21.5 -90t55.5 -28q51 0 82 46.5t48 143.5q4 23 6 42t2 36q0 57 -19 83.5t-56 26.5zM-3 -186l107 673h67l-7 -84q56 96 144 96q59 0 89.5 -43t30.5 -127q0 -20 -2 -40.5t-6 -44.5 q-17 -123 -68 -189.5t-131 -66.5q-36 0 -63 19.5t-42 58.5l-40 -252h-79z" />
<glyph unicode="q" horiz-adv-x="460" d="M326 -186h-77l38 256q-24 -39 -57 -60.5t-75 -21.5q-59 0 -90 43t-31 128q0 20 2.5 41t5.5 44q18 125 69 190t129 65q38 0 68 -22t43 -65l18 75h63zM186 54q44 0 79.5 45.5t51.5 144.5q6 42 6 73q0 62 -20.5 88.5t-54.5 26.5q-50 0 -82 -45.5t-48 -144.5q-7 -41 -7 -76 q0 -112 75 -112z" />
<glyph unicode="r" horiz-adv-x="291" d="M26 0l77 487h68l-9 -104q29 63 70.5 92t86.5 24l-13 -82q-63 8 -105 -38.5t-59 -142.5l-37 -236h-79z" />
<glyph unicode="s" horiz-adv-x="356" d="M-3 119l69 29q6 -49 29 -73.5t61 -24.5t60 22t22 56q0 23 -11.5 42t-42.5 34l-31 15q-48 23 -73.5 56.5t-25.5 82.5q0 64 42 103.5t111 39.5q57 0 92 -29t50 -93l-68 -27q-7 35 -25.5 60t-56.5 25q-32 0 -53 -19t-21 -50q0 -23 13.5 -41.5t45.5 -35.5l30 -15 q20 -10 38 -22.5t31.5 -29t21.5 -38t8 -49.5q0 -30 -10.5 -57.5t-30.5 -47.5t-50.5 -32t-69.5 -12q-72 0 -108 36.5t-47 94.5z" />
<glyph unicode="t" horiz-adv-x="282" d="M223 75l6 -69q-13 -9 -30.5 -13t-31.5 -4q-52 0 -82.5 25t-30.5 82q0 13 2 26t4 25l44 275h-60l11 65h59l22 143h79l-23 -143h101l-10 -65h-101l-43 -272q-7 -40 1.5 -64t37.5 -24q10 0 22.5 3.5t22.5 9.5z" />
<glyph unicode="u" horiz-adv-x="467" d="M161 -12q-60 0 -88.5 35t-28.5 100q0 13 1 26.5t3 27.5l49 310h79l-48 -300q-2 -14 -2.5 -25.5t-0.5 -22.5q0 -84 66 -84q46 0 81 46t51 134l39 252h78l-78 -487h-66l8 88q-28 -54 -65.5 -77t-77.5 -23z" />
<glyph unicode="v" horiz-adv-x="384" d="M39 487h83l41 -399l169 399h81l-221 -487h-84z" />
<glyph unicode="w" horiz-adv-x="559" d="M270 483h87l14 -384l136 388h77l-187 -487h-86l-14 377l-132 -377h-86l-36 487h79l14 -388z" />
<glyph unicode="x" horiz-adv-x="383" d="M249 0l-73 183l-127 -183h-81l177 247l-98 240h83l68 -178l124 178h82l-175 -241l104 -246h-84z" />
<glyph unicode="y" horiz-adv-x="393" d="M92 -65l22 53l-69 499h82l45 -392l167 392h80l-263 -579q-17 -38 -36.5 -62t-40 -38t-41 -19t-39.5 -5q-17 0 -34 3.5t-34 11.5l31 66q13 -5 24.5 -6.5t22.5 -1.5q26 0 45 16t38 62z" />
<glyph unicode="z" horiz-adv-x="364" d="M-12 0l10 63l274 357h-213l10 67h296l-9 -63l-273 -358h223l-11 -66h-307z" />
<glyph unicode="{" horiz-adv-x="268" d="M162 -81q-91 9 -88 121q1 22 5 42.5t8.5 41t8.5 40.5t5 42q2 45 -12.5 65t-49.5 20h-21l9 62h22q41 0 64 25.5t32 82.5q5 29 5.5 59t5.5 64q10 67 43.5 101t85.5 41l17 -62q-32 -7 -51.5 -25.5t-26.5 -60.5q-5 -31 -6 -61t-6 -63q-9 -51 -30 -83.5t-56 -49.5 q47 -26 44 -105q-2 -45 -14.5 -85t-14.5 -79q-2 -33 13 -49t41 -21z" />
<glyph unicode="|" horiz-adv-x="227" d="M26 -65l132 831h72l-131 -831h-73z" />
<glyph unicode="}" horiz-adv-x="268" d="M124 727q91 -9 88 -121q-1 -22 -5 -42.5t-8.5 -41t-8.5 -40.5t-5 -42q-2 -45 12.5 -65t49.5 -20h21l-9 -62h-22q-41 0 -64 -25.5t-32 -82.5q-5 -29 -5.5 -59t-5.5 -64q-10 -67 -43.5 -101t-85.5 -41l-17 62q32 7 51.5 25.5t26.5 60.5q5 31 6 61t6 63q9 51 30 83.5 t56 49.5q-47 26 -44 105q2 45 14.5 85t14.5 79q2 33 -13 49t-41 21z" />
<glyph unicode="~" horiz-adv-x="409" d="M206 310q-16 11 -30.5 21t-31.5 10t-32.5 -16.5t-23.5 -49.5l-60 9q14 68 47.5 100t77.5 32q26 0 46 -11.5t38 -25.5q15 -11 30.5 -20t29.5 -9q18 0 33 15t23 49l60 -9q-13 -68 -46.5 -100.5t-77.5 -32.5q-25 0 -45 12t-38 26z" />
<glyph unicode="&#xa1;" horiz-adv-x="177" d="M-27 -202l91 506h61l-68 -506h-84zM66 437q0 32 15 49t43 17q21 0 32 -12.5t11 -32.5q0 -29 -14 -47t-43 -18q-44 0 -44 44z" />
<glyph unicode="&#xa2;" horiz-adv-x="392" d="M123 -62l13 80q-109 15 -109 163q0 16 2 35.5t5 40.5q16 112 62 171t116 67l13 83h53l-13 -83q53 -6 80 -40.5t33 -93.5l-65 -24q-5 40 -17.5 64t-41.5 31l-54 -353q25 5 47 24.5t37 54.5l57 -32q-23 -41 -58.5 -72t-91.5 -36l-13 -80h-55zM95 178q0 -86 51 -98l55 350 q-37 -11 -62.5 -52.5t-37.5 -120.5q-4 -23 -5 -43t-1 -36z" />
<glyph unicode="&#xa3;" horiz-adv-x="428" d="M392 76q-31 -47 -69 -61.5t-84 -14.5h-259l10 68h26q23 0 34 30.5t19 83.5l17 122h-59l10 65h58l18 141q7 54 23.5 92.5t40 62.5t53.5 35.5t65 11.5q72 0 109 -35t51 -107l-68 -26q-9 50 -31.5 75t-61.5 25q-45 0 -69.5 -34.5t-33.5 -106.5l-17 -134h133l-11 -65h-132 l-14 -120q-11 -79 -33 -116h132q29 0 52 11.5t43 45.5z" />
<glyph unicode="&#xa5;" horiz-adv-x="477" d="M408 221h-139l-36 -221h-82l37 221h-142l11 66h137l-16 56h-112l11 67h84l-83 290h87l85 -346l195 346h87l-176 -290h84l-11 -67h-112l-35 -56h138z" />
<glyph unicode="&#xa6;" horiz-adv-x="227" d="M99 389l59 377h72l-59 -377h-72zM27 -65l60 379h71l-59 -379h-72z" />
<glyph unicode="&#xa7;" horiz-adv-x="389" d="M277 351q0 26 -10.5 43t-27.5 25l-9 4q-18 7 -37.5 6t-35.5 -11t-26 -29.5t-10 -48.5q0 -50 47 -69l9 -3q22 -9 40.5 -5t32 17t20.5 31.5t7 39.5zM299 135q0 -28 -8 -56.5t-26 -51t-47.5 -36.5t-72.5 -14q-36 0 -61 9.5t-42 25.5t-26.5 38t-14.5 46l65 32q13 -89 83 -89 q47 0 63.5 24t16.5 59q0 29 -12.5 44.5t-37.5 25.5l-27 10q-46 18 -70.5 51.5t-24.5 78.5q0 26 7 48t18.5 38.5t26.5 28t31 16.5q-14 15 -25.5 38.5t-11.5 55.5q0 30 9.5 58.5t28.5 50t47 34.5t65 13q54 0 87.5 -24t46.5 -78l-67 -32q-5 32 -23 51.5t-50 19.5q-38 0 -58 -25 t-20 -58q0 -30 14.5 -47t43.5 -28l29 -10q50 -18 68.5 -49t18.5 -74q0 -42 -23 -78.5t-61 -49.5q23 -20 31.5 -43.5t8.5 -52.5z" />
<glyph unicode="&#xa8;" horiz-adv-x="454" d="M128 625q0 30 14.5 47.5t41.5 17.5q43 0 43 -46q0 -30 -15.5 -46.5t-41.5 -16.5q-22 0 -32 12t-10 32zM269 625q0 30 15 47.5t41 17.5q44 0 44 -46q0 -30 -15.5 -46.5t-41.5 -16.5q-23 0 -33 12t-10 32z" />
<glyph unicode="&#xa9;" horiz-adv-x="609" d="M370 694q100 0 157.5 -67t57.5 -189q0 -23 -2 -43t-6 -45q-12 -81 -40 -144.5t-68.5 -107t-92 -66.5t-109.5 -23q-102 0 -160 67t-58 190q0 20 2 42t6 45q12 81 40 144t69 107t93 67t111 23zM367 658q-48 0 -91.5 -19.5t-79.5 -57.5t-62.5 -95.5t-38.5 -132.5 q-4 -23 -6 -44t-2 -41q0 -111 50.5 -167.5t132.5 -56.5q48 0 91 19.5t78 58t61 96t38 132.5q4 23 5.5 45t1.5 43q0 109 -48.5 164.5t-129.5 55.5zM431 277q-26 -51 -60 -74.5t-78 -23.5q-48 0 -77 28.5t-29 94.5q0 14 1.5 27t3.5 26q14 96 55.5 136.5t100.5 40.5 q88 0 106 -88l-55 -25q-7 30 -20 46.5t-37 16.5q-17 0 -31.5 -6t-25.5 -20.5t-20 -39.5t-15 -62l-4 -28q-1 -12 -1 -23q0 -42 15 -57.5t43 -15.5q25 0 44 15t36 50z" />
<glyph unicode="&#xaa;" horiz-adv-x="305" d="M222 418q-18 -32 -43.5 -51.5t-58.5 -19.5q-30 0 -50.5 22t-20.5 63q0 28 10.5 52.5t29.5 42.5t45 28t57 10h51l2 18q1 9 1 16q0 34 -14 46.5t-38 12.5q-27 0 -46.5 -13.5t-34.5 -33.5l-35 34q23 32 54.5 49t75.5 17q43 0 70.5 -22.5t27.5 -78.5q0 -21 -4 -44l-34 -209 h-49zM146 396q31 0 54.5 32t33.5 88v4h-47q-32 0 -55.5 -23t-23.5 -57q0 -44 38 -44z" />
<glyph unicode="&#xab;" horiz-adv-x="487" d="M148 0l-105 240v3l181 244h87l-186 -248l104 -239h-81zM313 0l-108 242l1 3l181 242h88l-186 -246l107 -241h-83z" />
<glyph unicode="&#xad;" horiz-adv-x="306" d="M274 289l-10 -69h-231l11 69h230z" />
<glyph unicode="&#xae;" horiz-adv-x="352" d="M190 339q-58 0 -91 38.5t-33 104.5q0 10 1 21t3 22q7 42 22.5 76.5t38.5 59t52 38t63 13.5q57 0 89.5 -38.5t32.5 -104.5q0 -10 -1.5 -23.5t-3.5 -24.5q-16 -85 -61 -133.5t-112 -48.5zM193 364q51 0 91.5 40.5t53.5 120.5q2 11 3 22t1 20q0 58 -28 89t-70 31 q-52 0 -92.5 -41t-54.5 -121q-2 -11 -3 -21t-1 -20q0 -59 28 -89.5t72 -30.5zM191 527h25q15 0 24.5 9.5t10.5 28.5q0 28 -24 28h-25zM149 437l28 184h55q26 0 37 -14.5t11 -38.5q0 -23 -9.5 -39t-25.5 -24l15 -68h-31l-12 62h-30l-10 -62h-28z" />
<glyph unicode="&#xaf;" horiz-adv-x="454" d="M346 659l-9 -58h-194l9 58h194z" />
<glyph unicode="&#xb0;" horiz-adv-x="348" d="M190 353q-60 0 -90 41.5t-27 111.5q1 45 14 82.5t35.5 64.5t52.5 42t66 15q60 0 90 -41.5t27 -110.5q-2 -46 -14.5 -83.5t-35 -64.5t-52.5 -42t-66 -15zM195 407q20 0 39 9.5t33.5 28t24 46t10.5 63.5q2 50 -16.5 76t-51.5 26q-20 0 -38.5 -9.5t-32.5 -28t-23 -46 t-10 -63.5q-2 -50 15 -76t50 -26z" />
<glyph unicode="&#xb1;" horiz-adv-x="382" d="M205 136h-65l25 153h-116l10 66h116l24 155h66l-26 -155h118l-10 -66h-117zM311 65l-10 -65h-298l10 65h298z" />
<glyph unicode="&#xb2;" horiz-adv-x="283" d="M28 294zM28 294l8 49l136 161q30 35 43.5 60.5t13.5 50.5q0 19 -11 30t-31 11q-23 0 -41 -13t-35 -44l-44 23q23 50 57 70t76 20q47 0 70.5 -23.5t23.5 -63.5q0 -35 -18.5 -68t-61.5 -84l-103 -124l151 2l-8 -57h-226z" />
<glyph unicode="&#xb3;" horiz-adv-x="284" d="M36 286zM36 377l52 22q8 -61 57 -61q36 0 54.5 25.5t18.5 63.5q0 52 -49 52h-29l8 53h29q29 0 46 23.5t17 55.5q0 47 -46 47q-23 0 -40.5 -12t-29.5 -40l-46 23q37 83 131 83q47 0 70.5 -23.5t23.5 -64.5q0 -32 -16.5 -65t-48.5 -51q19 -10 29.5 -29t10.5 -48 q0 -30 -9 -56.5t-27 -46t-43.5 -31t-58.5 -11.5q-38 0 -67.5 21.5t-36.5 69.5z" />
<glyph unicode="&#xb4;" horiz-adv-x="454" d="M269 689h93l-1 -6l-103 -109h-67v4z" />
<glyph unicode="&#xb6;" horiz-adv-x="506" d="M396 630h-51l-49 -309h51zM131 436q0 -59 23.5 -87t67.5 -28h3l48 308h-3q-63 0 -101 -51.5t-38 -141.5zM479 700l-110 -700h-73l38 247h-50l-38 -247h-71l39 247h-4q-72 0 -113 47t-41 135q0 54 13 103.5t41 86.5t73 59t108 22h188z" />
<glyph unicode="&#xb7;" horiz-adv-x="181" d="M46 282zM148 348q0 -32 -15.5 -49t-42.5 -17q-22 0 -33 12.5t-11 32.5q0 29 14 47t43 18q45 0 45 -44z" />
<glyph unicode="&#xb8;" horiz-adv-x="454" d="M213 -235q-32 0 -59.5 14.5t-38.5 49.5l49 27q10 -42 50 -42q22 0 33 14t11 33q0 21 -14 30.5t-31 4.5l-13 13l32 91h51l-25 -64q23 -1 39.5 -19t16.5 -53q0 -25 -8 -43.5t-22 -31t-32.5 -18.5t-38.5 -6z" />
<glyph unicode="&#xb9;" horiz-adv-x="178" d="M70 294zM140 294h-63l52 327l-43 -32l-16 52l93 65h42z" />
<glyph unicode="&#xba;" horiz-adv-x="317" d="M57 473q0 13 1.5 27.5t3.5 29.5q27 182 154 182q108 0 108 -126q0 -17 -1.5 -28t-3.5 -28q-14 -94 -53 -138.5t-102 -44.5q-107 0 -107 126zM170 399q35 0 57.5 31t33.5 100q2 16 3 29.5t1 25.5q0 40 -12.5 57.5t-41.5 17.5q-35 0 -57 -30t-33 -100q-2 -17 -3 -30.5 t-1 -24.5q0 -76 53 -76z" />
<glyph unicode="&#xbb;" horiz-adv-x="487" d="M334 486l105 -240v-3l-181 -244h-87l186 248l-104 239h81zM169 486l108 -242l-1 -3l-181 -242h-88l186 246l-107 241h83z" />
<glyph unicode="&#xbc;" horiz-adv-x="650" d="M70 0zM142 293h-63l52 327l-43 -32l-16 52l93 65h42zM507 700l-365 -700h-72l364 700h73zM345 100l7 46l136 264h60l-131 -253h102l27 164h60l-26 -164h41l-9 -57h-41l-16 -100h-60l16 100h-166z" />
<glyph unicode="&#xbd;" horiz-adv-x="621" d="M70 0zM341 0l8 49l136 161q30 35 43.5 60.5t13.5 50.5q0 19 -11 30t-31 11q-23 0 -41 -13t-35 -44l-44 23q23 50 57 70t76 20q47 0 70.5 -23.5t23.5 -63.5q0 -35 -18.5 -68t-61.5 -84l-103 -124l151 2l-8 -57h-226zM142 293h-63l52 327l-43 -32l-16 52l93 65h42zM507 700 l-365 -700h-72l364 700h73z" />
<glyph unicode="&#xbe;" horiz-adv-x="725" d="M36 0zM36 376l52 22q8 -61 57 -61q36 0 54.5 25.5t18.5 63.5q0 52 -49 52h-29l8 53h29q29 0 46 23.5t17 55.5q0 47 -46 47q-23 0 -40.5 -12t-29.5 -40l-46 23q37 83 131 83q47 0 70.5 -23.5t23.5 -64.5q0 -32 -16.5 -65t-48.5 -51q19 -10 29.5 -29t10.5 -48 q0 -30 -9 -56.5t-27 -46t-43.5 -31t-58.5 -11.5q-38 0 -67.5 21.5t-36.5 69.5zM599 700l-365 -700h-72l364 700h73zM420 100l7 46l136 264h60l-131 -253h102l27 164h60l-26 -164h41l-9 -57h-41l-16 -100h-60l16 100h-166z" />
<glyph unicode="&#xbf;" horiz-adv-x="379" d="M228 300l-22 -153h-32q-31 0 -56.5 -14.5t-44 -39t-29 -57t-10.5 -69.5q0 -57 25 -86t72 -29q42 0 77.5 23.5t54.5 83.5l61 -26q-23 -74 -75 -112.5t-124 -38.5q-85 0 -126 47.5t-41 129.5q0 51 14 93t38.5 73t58 50.5t72.5 26.5l19 98h68zM165 433q0 32 15.5 49t42.5 17 q22 0 33 -12.5t11 -32.5q0 -29 -14 -47t-43 -18q-45 0 -45 44z" />
<glyph unicode="&#xc0;" horiz-adv-x="486" d="M0 0zM302 608l-156 -391h189zM353 0l-13 145h-222l-58 -145h-83l290 700h99l68 -700h-81zM303 787l-72 109l1 6h93l38 -111v-4h-60z" />
<glyph unicode="&#xc1;" horiz-adv-x="486" d="M0 0zM302 608l-156 -391h189zM353 0l-13 145h-222l-58 -145h-83l290 700h99l68 -700h-81zM370 902h93l-1 -6l-103 -109h-67v4z" />
<glyph unicode="&#xc2;" horiz-adv-x="486" d="M0 0zM302 608l-156 -391h189zM353 0l-13 145h-222l-58 -145h-83l290 700h99l68 -700h-81zM308 902h70l72 -112v-3h-74l-39 70l-60 -70h-77v3z" />
<glyph unicode="&#xc3;" horiz-adv-x="486" d="M0 0zM302 608l-156 -391h189zM353 0l-13 145h-222l-58 -145h-83l290 700h99l68 -700h-81zM411 896h53q-2 -29 -10.5 -48t-20.5 -30.5t-26 -16.5t-27 -5q-16 0 -28 6.5t-22.5 14t-20 14t-19.5 6.5q-13 0 -19.5 -11t-8.5 -26h-54q3 28 12 47.5t20.5 30.5t24.5 16t26 5 q16 0 28.5 -6.5t23 -14t20 -14t19.5 -6.5q14 0 20.5 11t8.5 27z" />
<glyph unicode="&#xc4;" horiz-adv-x="486" d="M0 0zM302 608l-156 -391h189zM353 0l-13 145h-222l-58 -145h-83l290 700h99l68 -700h-81zM213 838q0 30 14.5 47.5t41.5 17.5q43 0 43 -46q0 -30 -15.5 -46.5t-41.5 -16.5q-22 0 -32 12t-10 32zM354 838q0 30 15 47.5t41 17.5q44 0 44 -46q0 -30 -15.5 -46.5t-41.5 -16.5 q-23 0 -33 12t-10 32z" />
<glyph unicode="&#xc5;" horiz-adv-x="486" d="M0 0zM302 608l-156 -391h189zM353 0l-13 145h-222l-58 -145h-83l290 700h99l68 -700h-81zM350 946q31 0 49.5 -20t18.5 -55q0 -47 -27 -77t-66 -30q-31 0 -50 20.5t-19 56.5q0 21 6.5 40t18.5 33.5t29.5 23t39.5 8.5zM346 908q-25 0 -37.5 -20t-12.5 -43q0 -20 8.5 -31.5 t24.5 -11.5q22 0 35.5 20.5t13.5 45.5q0 19 -9 29.5t-23 10.5z" />
<glyph unicode="&#xc6;" horiz-adv-x="714" d="M305 623l-161 -406h187zM-28 0l296 700h473l-11 -71h-348l15 -239h258l-12 -75h-242l16 -243h233l-12 -72h-293l-10 145h-219l-60 -145h-84z" />
<glyph unicode="&#xc7;" horiz-adv-x="517" d="M213 -235q-32 0 -59.5 14.5t-38.5 49.5l49 27q10 -42 50 -42q22 0 33 14t11 33q0 21 -14 30.5t-31 4.5l-13 13l28 80q-85 7 -128 60t-43 169q0 32 3 63t9 70q14 99 39.5 167.5t61.5 111.5t81.5 62.5t100.5 19.5q81 0 128.5 -41t57.5 -139l-77 -25q-8 76 -36.5 105 t-80.5 29q-33 0 -62.5 -13t-54.5 -46t-45 -89t-33 -141q-12 -75 -12 -132q0 -46 8.5 -77t25 -50t40 -27t53.5 -8q45 0 83.5 25.5t70.5 97.5l66 -37q-16 -40 -38.5 -68t-49.5 -47t-56.5 -28.5t-60.5 -11.5l-21 -53q23 -1 39.5 -19t16.5 -53q0 -25 -8 -43.5t-22 -31 t-32.5 -18.5t-38.5 -6z" />
<glyph unicode="&#xc8;" horiz-adv-x="500" d="M38 0zM427 71l-10 -71h-379l111 700h385l-12 -72h-305l-39 -242h262l-12 -75h-261l-39 -240h299zM322 787l-72 109l1 6h93l38 -111v-4h-60z" />
<glyph unicode="&#xc9;" horiz-adv-x="500" d="M38 0zM427 71l-10 -71h-379l111 700h385l-12 -72h-305l-39 -242h262l-12 -75h-261l-39 -240h299zM388 902h93l-1 -6l-103 -109h-67v4z" />
<glyph unicode="&#xca;" horiz-adv-x="500" d="M38 0zM427 71l-10 -71h-379l111 700h385l-12 -72h-305l-39 -242h262l-12 -75h-261l-39 -240h299zM327 902h70l72 -112v-3h-74l-39 70l-60 -70h-77v3z" />
<glyph unicode="&#xcb;" horiz-adv-x="500" d="M38 0zM427 71l-10 -71h-379l111 700h385l-12 -72h-305l-39 -242h262l-12 -75h-261l-39 -240h299zM233 838q0 30 14.5 47.5t41.5 17.5q43 0 43 -46q0 -30 -15.5 -46.5t-41.5 -16.5q-22 0 -32 12t-10 32zM374 838q0 30 15 47.5t41 17.5q44 0 44 -46q0 -30 -15.5 -46.5 t-41.5 -16.5q-23 0 -33 12t-10 32z" />
<glyph unicode="&#xcc;" horiz-adv-x="241" d="M38 0zM38 0l111 700h81l-111 -700h-81zM178 787l-72 109l1 6h93l38 -111v-4h-60z" />
<glyph unicode="&#xcd;" horiz-adv-x="241" d="M38 0zM38 0l111 700h81l-111 -700h-81zM244 902h93l-1 -6l-103 -109h-67v4z" />
<glyph unicode="&#xce;" horiz-adv-x="241" d="M38 0zM38 0l111 700h81l-111 -700h-81zM182 902h70l72 -112v-3h-74l-39 70l-60 -70h-77v3z" />
<glyph unicode="&#xcf;" horiz-adv-x="241" d="M38 0zM38 0l111 700h81l-111 -700h-81zM90 838q0 30 14.5 47.5t41.5 17.5q43 0 43 -46q0 -30 -15.5 -46.5t-41.5 -16.5q-22 0 -32 12t-10 32zM231 838q0 30 15 47.5t41 17.5q44 0 44 -46q0 -30 -15.5 -46.5t-41.5 -16.5q-23 0 -33 12t-10 32z" />
<glyph unicode="&#xd0;" horiz-adv-x="568" d="M226 0h-181l52 325h-58l12 68h56l49 307h180q101 0 152 -54t51 -174q0 -23 -2.5 -54.5t-7.5 -63.5q-29 -184 -106 -269t-197 -85zM137 72h94q37 0 71 13t62 45t49.5 85.5t34.5 134.5q4 29 7 58.5t3 53.5q0 91 -34 129t-97 38h-102l-38 -236h111l-12 -68h-109z" />
<glyph unicode="&#xd1;" horiz-adv-x="584" d="M38 0zM387 0l-189 547l-85 -547h-75l111 700h78l188 -548l85 548h74l-111 -700h-76zM456 897h53q-2 -29 -10.5 -48t-20.5 -30.5t-26 -16.5t-27 -5q-16 0 -28 6.5t-22.5 14t-20 14t-19.5 6.5q-13 0 -19.5 -11t-8.5 -26h-54q3 28 12 47.5t20.5 30.5t24.5 16t26 5 q16 0 28.5 -6.5t23 -14t20 -14t19.5 -6.5q14 0 20.5 11t8.5 27z" />
<glyph unicode="&#xd2;" horiz-adv-x="581" d="M57 0zM358 712q100 0 146.5 -53.5t46.5 -173.5q0 -29 -2 -62.5t-8 -71.5q-14 -96 -39 -164.5t-60.5 -113t-83 -65t-106.5 -20.5q-99 0 -147 54.5t-48 175.5q0 29 3.5 62t8.5 71q14 96 38.5 164.5t60.5 112t83 64t107 20.5zM350 642q-38 0 -69.5 -13.5t-56 -47t-43.5 -90 t-32 -141.5q-12 -78 -12 -132q0 -90 31.5 -126t88.5 -36q38 0 69 14t56 48t44 91t33 143q6 38 8.5 70.5t2.5 58.5q0 45 -8 76t-23 50t-37.5 27t-51.5 8zM343 788l-72 109l1 6h93l38 -111v-4h-60z" />
<glyph unicode="&#xd3;" horiz-adv-x="581" d="M57 0zM358 712q100 0 146.5 -53.5t46.5 -173.5q0 -29 -2 -62.5t-8 -71.5q-14 -96 -39 -164.5t-60.5 -113t-83 -65t-106.5 -20.5q-99 0 -147 54.5t-48 175.5q0 29 3.5 62t8.5 71q14 96 38.5 164.5t60.5 112t83 64t107 20.5zM350 642q-38 0 -69.5 -13.5t-56 -47t-43.5 -90 t-32 -141.5q-12 -78 -12 -132q0 -90 31.5 -126t88.5 -36q38 0 69 14t56 48t44 91t33 143q6 38 8.5 70.5t2.5 58.5q0 45 -8 76t-23 50t-37.5 27t-51.5 8zM409 903h93l-1 -6l-103 -109h-67v4z" />
<glyph unicode="&#xd4;" horiz-adv-x="581" d="M57 0zM358 712q100 0 146.5 -53.5t46.5 -173.5q0 -29 -2 -62.5t-8 -71.5q-14 -96 -39 -164.5t-60.5 -113t-83 -65t-106.5 -20.5q-99 0 -147 54.5t-48 175.5q0 29 3.5 62t8.5 71q14 96 38.5 164.5t60.5 112t83 64t107 20.5zM350 642q-38 0 -69.5 -13.5t-56 -47t-43.5 -90 t-32 -141.5q-12 -78 -12 -132q0 -90 31.5 -126t88.5 -36q38 0 69 14t56 48t44 91t33 143q6 38 8.5 70.5t2.5 58.5q0 45 -8 76t-23 50t-37.5 27t-51.5 8zM348 903h70l72 -112v-3h-74l-39 70l-60 -70h-77v3z" />
<glyph unicode="&#xd5;" horiz-adv-x="581" d="M57 0zM358 712q100 0 146.5 -53.5t46.5 -173.5q0 -29 -2 -62.5t-8 -71.5q-14 -96 -39 -164.5t-60.5 -113t-83 -65t-106.5 -20.5q-99 0 -147 54.5t-48 175.5q0 29 3.5 62t8.5 71q14 96 38.5 164.5t60.5 112t83 64t107 20.5zM350 642q-38 0 -69.5 -13.5t-56 -47t-43.5 -90 t-32 -141.5q-12 -78 -12 -132q0 -90 31.5 -126t88.5 -36q38 0 69 14t56 48t44 91t33 143q6 38 8.5 70.5t2.5 58.5q0 45 -8 76t-23 50t-37.5 27t-51.5 8zM450 897h53q-2 -29 -10.5 -48t-20.5 -30.5t-26 -16.5t-27 -5q-16 0 -28 6.5t-22.5 14t-20 14t-19.5 6.5 q-13 0 -19.5 -11t-8.5 -26h-54q3 28 12 47.5t20.5 30.5t24.5 16t26 5q16 0 28.5 -6.5t23 -14t20 -14t19.5 -6.5q14 0 20.5 11t8.5 27z" />
<glyph unicode="&#xd6;" horiz-adv-x="581" d="M57 0zM358 712q100 0 146.5 -53.5t46.5 -173.5q0 -29 -2 -62.5t-8 -71.5q-14 -96 -39 -164.5t-60.5 -113t-83 -65t-106.5 -20.5q-99 0 -147 54.5t-48 175.5q0 29 3.5 62t8.5 71q14 96 38.5 164.5t60.5 112t83 64t107 20.5zM350 642q-38 0 -69.5 -13.5t-56 -47t-43.5 -90 t-32 -141.5q-12 -78 -12 -132q0 -90 31.5 -126t88.5 -36q38 0 69 14t56 48t44 91t33 143q6 38 8.5 70.5t2.5 58.5q0 45 -8 76t-23 50t-37.5 27t-51.5 8zM254 839q0 30 14.5 47.5t41.5 17.5q43 0 43 -46q0 -30 -15.5 -46.5t-41.5 -16.5q-22 0 -32 12t-10 32zM395 839 q0 30 15 47.5t41 17.5q44 0 44 -46q0 -30 -15.5 -46.5t-41.5 -16.5q-23 0 -33 12t-10 32z" />
<glyph unicode="&#xd7;" horiz-adv-x="377" d="M76 146l-41 40l119 130l-79 131l53 37l71 -118l108 117l42 -41l-118 -128l75 -126l-53 -39l-67 115z" />
<glyph unicode="&#xd8;" horiz-adv-x="574" d="M254 -12q-102 0 -152 62l-40 -50h-71l84 105q-16 45 -16 119q0 27 3 61t8 66q27 187 97 274t192 87q51 0 89 -15t64 -47l41 50h72l-87 -106q9 -24 13 -52.5t4 -63.5q0 -26 -3.5 -59t-8.5 -68q-29 -189 -98.5 -276t-190.5 -87zM139 188l320 393q-15 35 -42 48t-64 13 q-39 0 -70.5 -14t-56.5 -48t-44 -89.5t-32 -139.5q-5 -35 -8.5 -71.5t-3.5 -64.5q0 -8 0.5 -14t0.5 -13zM258 56q39 0 70.5 14.5t56.5 48.5t43.5 90.5t32.5 141.5q5 32 8.5 66t3.5 62v15q0 8 -1 15l-318 -393q15 -33 41 -46.5t63 -13.5z" />
<glyph unicode="&#xd9;" horiz-adv-x="561" d="M56 0zM409 230l74 470h80l-74 -469q-19 -121 -82.5 -182t-163.5 -61q-91 0 -139 46t-48 135q0 14 2 29.5t4 32.5l74 469h81l-75 -469q-2 -14 -3.5 -26t-1.5 -24q0 -59 27 -89.5t84 -30.5q64 0 105.5 39.5t55.5 129.5zM337 788l-72 109l1 6h93l38 -111v-4h-60z" />
<glyph unicode="&#xda;" horiz-adv-x="561" d="M56 0zM409 230l74 470h80l-74 -469q-19 -121 -82.5 -182t-163.5 -61q-91 0 -139 46t-48 135q0 14 2 29.5t4 32.5l74 469h81l-75 -469q-2 -14 -3.5 -26t-1.5 -24q0 -59 27 -89.5t84 -30.5q64 0 105.5 39.5t55.5 129.5zM403 903h93l-1 -6l-103 -109h-67v4z" />
<glyph unicode="&#xdb;" horiz-adv-x="561" d="M56 0zM409 230l74 470h80l-74 -469q-19 -121 -82.5 -182t-163.5 -61q-91 0 -139 46t-48 135q0 14 2 29.5t4 32.5l74 469h81l-75 -469q-2 -14 -3.5 -26t-1.5 -24q0 -59 27 -89.5t84 -30.5q64 0 105.5 39.5t55.5 129.5zM342 903h70l72 -112v-3h-74l-39 70l-60 -70h-77v3z " />
<glyph unicode="&#xdc;" horiz-adv-x="561" d="M56 0zM409 230l74 470h80l-74 -469q-19 -121 -82.5 -182t-163.5 -61q-91 0 -139 46t-48 135q0 14 2 29.5t4 32.5l74 469h81l-75 -469q-2 -14 -3.5 -26t-1.5 -24q0 -59 27 -89.5t84 -30.5q64 0 105.5 39.5t55.5 129.5zM247 839q0 30 14.5 47.5t41.5 17.5q43 0 43 -46 q0 -30 -15.5 -46.5t-41.5 -16.5q-22 0 -32 12t-10 32zM388 839q0 30 15 47.5t41 17.5q44 0 44 -46q0 -30 -15.5 -46.5t-41.5 -16.5q-23 0 -33 12t-10 32z" />
<glyph unicode="&#xdd;" horiz-adv-x="462" d="M70 0zM188 280l-118 420h89l82 -338l191 338h90l-253 -419l-44 -281h-81zM346 903h93l-1 -6l-103 -109h-67v4z" />
<glyph unicode="&#xde;" horiz-adv-x="494" d="M39 0l111 700h82l-21 -133h127q73 0 109.5 -39.5t36.5 -114.5q0 -62 -15 -111t-43 -83t-67 -52t-87 -18h-128l-23 -149h-82zM327 495h-128l-43 -273h127q31 0 54 14t38 37.5t22.5 55t7.5 66.5q0 100 -78 100z" />
<glyph unicode="&#xdf;" horiz-adv-x="468" d="M156 14l29 63q28 -19 61 -19q25 0 45 13.5t33.5 36t20.5 52.5t7 63q0 25 -5 46.5t-16 37.5t-28 25.5t-40 9.5h-28l10 68h24q23 0 42 11t32 29t20 41.5t7 49.5q0 45 -21.5 73.5t-59.5 28.5q-86 0 -107 -123l-81 -520h-78l80 514q15 91 62.5 144t134.5 53q70 0 109.5 -42.5 t39.5 -114.5q0 -64 -26.5 -109.5t-68.5 -67.5q35 -14 55 -51.5t20 -97.5q0 -48 -12 -91t-35 -75.5t-57 -52t-79 -19.5q-53 0 -90 24z" />
<glyph unicode="&#xe0;" horiz-adv-x="422" d="M23 0zM95 115q0 -29 14.5 -45t39.5 -16q47 0 83.5 43.5t50.5 124.5l2 12h-46q-32 0 -58 -9t-45.5 -24.5t-30 -37.5t-10.5 -48zM267 89q-27 -48 -63.5 -74t-80.5 -26q-41 0 -70.5 29.5t-29.5 84.5q0 39 14 74t41.5 61.5t68.5 42t95 15.5h54q2 8 3 22t1 27q0 50 -21.5 68.5 t-51.5 18.5q-31 0 -57.5 -18t-43.5 -56l-62 33q23 47 65 77.5t110 30.5q64 0 101.5 -32.5t37.5 -102.5q0 -13 -1 -28t-4 -32l-48 -304h-65zM225 577l-72 109l1 6h93l38 -111v-4h-60z" />
<glyph unicode="&#xe1;" horiz-adv-x="422" d="M23 0zM95 115q0 -29 14.5 -45t39.5 -16q47 0 83.5 43.5t50.5 124.5l2 12h-46q-32 0 -58 -9t-45.5 -24.5t-30 -37.5t-10.5 -48zM267 89q-27 -48 -63.5 -74t-80.5 -26q-41 0 -70.5 29.5t-29.5 84.5q0 39 14 74t41.5 61.5t68.5 42t95 15.5h54q2 8 3 22t1 27q0 50 -21.5 68.5 t-51.5 18.5q-31 0 -57.5 -18t-43.5 -56l-62 33q23 47 65 77.5t110 30.5q64 0 101.5 -32.5t37.5 -102.5q0 -13 -1 -28t-4 -32l-48 -304h-65zM291 690h93l-1 -6l-103 -109h-67v4z" />
<glyph unicode="&#xe2;" horiz-adv-x="422" d="M23 0zM95 115q0 -29 14.5 -45t39.5 -16q47 0 83.5 43.5t50.5 124.5l2 12h-46q-32 0 -58 -9t-45.5 -24.5t-30 -37.5t-10.5 -48zM267 89q-27 -48 -63.5 -74t-80.5 -26q-41 0 -70.5 29.5t-29.5 84.5q0 39 14 74t41.5 61.5t68.5 42t95 15.5h54q2 8 3 22t1 27q0 50 -21.5 68.5 t-51.5 18.5q-31 0 -57.5 -18t-43.5 -56l-62 33q23 47 65 77.5t110 30.5q64 0 101.5 -32.5t37.5 -102.5q0 -13 -1 -28t-4 -32l-48 -304h-65zM230 690h70l72 -112v-3h-74l-39 70l-60 -70h-77v3z" />
<glyph unicode="&#xe3;" horiz-adv-x="422" d="M23 0zM95 115q0 -29 14.5 -45t39.5 -16q47 0 83.5 43.5t50.5 124.5l2 12h-46q-32 0 -58 -9t-45.5 -24.5t-30 -37.5t-10.5 -48zM267 89q-27 -48 -63.5 -74t-80.5 -26q-41 0 -70.5 29.5t-29.5 84.5q0 39 14 74t41.5 61.5t68.5 42t95 15.5h54q2 8 3 22t1 27q0 50 -21.5 68.5 t-51.5 18.5q-31 0 -57.5 -18t-43.5 -56l-62 33q23 47 65 77.5t110 30.5q64 0 101.5 -32.5t37.5 -102.5q0 -13 -1 -28t-4 -32l-48 -304h-65zM333 684h53q-2 -29 -10.5 -48t-20.5 -30.5t-26 -16.5t-27 -5q-16 0 -28 6.5t-22.5 14t-20 14t-19.5 6.5q-13 0 -19.5 -11t-8.5 -26 h-54q3 28 12 47.5t20.5 30.5t24.5 16t26 5q16 0 28.5 -6.5t23 -14t20 -14t19.5 -6.5q14 0 20.5 11t8.5 27z" />
<glyph unicode="&#xe4;" horiz-adv-x="422" d="M23 0zM95 115q0 -29 14.5 -45t39.5 -16q47 0 83.5 43.5t50.5 124.5l2 12h-46q-32 0 -58 -9t-45.5 -24.5t-30 -37.5t-10.5 -48zM267 89q-27 -48 -63.5 -74t-80.5 -26q-41 0 -70.5 29.5t-29.5 84.5q0 39 14 74t41.5 61.5t68.5 42t95 15.5h54q2 8 3 22t1 27q0 50 -21.5 68.5 t-51.5 18.5q-31 0 -57.5 -18t-43.5 -56l-62 33q23 47 65 77.5t110 30.5q64 0 101.5 -32.5t37.5 -102.5q0 -13 -1 -28t-4 -32l-48 -304h-65zM145 626q0 30 14.5 47.5t41.5 17.5q43 0 43 -46q0 -30 -15.5 -46.5t-41.5 -16.5q-22 0 -32 12t-10 32zM286 626q0 30 15 47.5 t41 17.5q44 0 44 -46q0 -30 -15.5 -46.5t-41.5 -16.5q-23 0 -33 12t-10 32z" />
<glyph unicode="&#xe5;" horiz-adv-x="422" d="M23 0zM95 115q0 -29 14.5 -45t39.5 -16q47 0 83.5 43.5t50.5 124.5l2 12h-46q-32 0 -58 -9t-45.5 -24.5t-30 -37.5t-10.5 -48zM267 89q-27 -48 -63.5 -74t-80.5 -26q-41 0 -70.5 29.5t-29.5 84.5q0 39 14 74t41.5 61.5t68.5 42t95 15.5h54q2 8 3 22t1 27q0 50 -21.5 68.5 t-51.5 18.5q-31 0 -57.5 -18t-43.5 -56l-62 33q23 47 65 77.5t110 30.5q64 0 101.5 -32.5t37.5 -102.5q0 -13 -1 -28t-4 -32l-48 -304h-65zM273 734q31 0 49.5 -20t18.5 -55q0 -47 -27 -77t-66 -30q-31 0 -50 20.5t-19 56.5q0 21 6.5 40t18.5 33.5t29.5 23t39.5 8.5z M269 696q-25 0 -37.5 -20t-12.5 -43q0 -20 8.5 -31.5t24.5 -11.5q22 0 35.5 20.5t13.5 45.5q0 19 -9 29.5t-23 10.5z" />
<glyph unicode="&#xe6;" horiz-adv-x="661" d="M293 99q-31 -51 -71.5 -81t-88.5 -30q-50 0 -79 30t-29 87q0 39 15 72.5t42.5 58.5t67 39t89.5 14h53q2 11 4 28.5t2 29.5q0 49 -19.5 67.5t-54.5 18.5q-32 0 -57.5 -18.5t-42.5 -56.5l-59 33q23 47 63.5 77.5t107.5 30.5q47 0 77.5 -20.5t41.5 -70.5q52 91 144 91 q35 0 60 -12t41 -34t23.5 -52.5t7.5 -67.5q0 -26 -3.5 -51.5t-11.5 -53.5h-258q-2 -21 -3 -36t-1 -27q0 -62 21 -87.5t61 -25.5q34 0 60 22t47 64l59 -33q-13 -22 -27.5 -43t-35 -37.5t-48 -26.5t-66.5 -10q-53 0 -88 27t-44 84zM561 338q0 46 -17.5 70.5t-52.5 24.5 q-40 0 -69.5 -32t-49.5 -112h185q3 14 3.5 26t0.5 23zM98 115q0 -30 15.5 -45.5t41.5 -15.5q47 0 79 40.5t45 121.5l2 13h-44q-63 0 -101 -32t-38 -82z" />
<glyph unicode="&#xe7;" horiz-adv-x="398" d="M141 -235q-32 0 -59.5 14.5t-38.5 49.5l49 27q10 -42 50 -42q22 0 33 14t11 33q0 21 -14 30.5t-31 4.5l-13 13l28 81q-121 14 -121 172q0 18 2 38t5 43q20 131 75 193.5t140 62.5q68 0 99 -35t38 -104l-70 -24q-7 47 -21.5 71t-54.5 24q-50 0 -81 -44.5t-48 -144.5 q-4 -24 -6.5 -44.5t-2.5 -37.5q0 -58 20 -82t64 -24q31 0 57.5 20t46.5 65l62 -32q-23 -47 -59 -79.5t-94 -38.5l-21 -53q23 -1 39.5 -19t16.5 -53q0 -25 -8 -43.5t-22 -31t-32.5 -18.5t-38.5 -6z" />
<glyph unicode="&#xe8;" horiz-adv-x="416" d="M36 0zM181 -12q-69 0 -107 43t-38 134q0 34 6 78q18 126 72.5 191t140.5 65q34 0 58 -12t40 -34t23.5 -52.5t7.5 -67.5q0 -27 -4 -56t-9 -58h-257q-2 -8 -2.5 -25.5t-0.5 -28.5q0 -61 20.5 -86.5t60.5 -25.5q34 0 60 21.5t47 63.5l58 -33q-13 -23 -27.5 -44t-34.5 -37 t-47.5 -26t-66.5 -10zM312 338q0 51 -17 73t-49 22q-43 0 -74 -34.5t-48 -116.5h184q2 15 3 29t1 27zM239 576l-72 109l1 6h93l38 -111v-4h-60z" />
<glyph unicode="&#xe9;" horiz-adv-x="416" d="M36 0zM181 -12q-69 0 -107 43t-38 134q0 34 6 78q18 126 72.5 191t140.5 65q34 0 58 -12t40 -34t23.5 -52.5t7.5 -67.5q0 -27 -4 -56t-9 -58h-257q-2 -8 -2.5 -25.5t-0.5 -28.5q0 -61 20.5 -86.5t60.5 -25.5q34 0 60 21.5t47 63.5l58 -33q-13 -23 -27.5 -44t-34.5 -37 t-47.5 -26t-66.5 -10zM312 338q0 51 -17 73t-49 22q-43 0 -74 -34.5t-48 -116.5h184q2 15 3 29t1 27zM305 689h93l-1 -6l-103 -109h-67v4z" />
<glyph unicode="&#xea;" horiz-adv-x="416" d="M36 0zM181 -12q-69 0 -107 43t-38 134q0 34 6 78q18 126 72.5 191t140.5 65q34 0 58 -12t40 -34t23.5 -52.5t7.5 -67.5q0 -27 -4 -56t-9 -58h-257q-2 -8 -2.5 -25.5t-0.5 -28.5q0 -61 20.5 -86.5t60.5 -25.5q34 0 60 21.5t47 63.5l58 -33q-13 -23 -27.5 -44t-34.5 -37 t-47.5 -26t-66.5 -10zM312 338q0 51 -17 73t-49 22q-43 0 -74 -34.5t-48 -116.5h184q2 15 3 29t1 27zM244 689h70l72 -112v-3h-74l-39 70l-60 -70h-77v3z" />
<glyph unicode="&#xeb;" horiz-adv-x="416" d="M36 0zM181 -12q-69 0 -107 43t-38 134q0 34 6 78q18 126 72.5 191t140.5 65q34 0 58 -12t40 -34t23.5 -52.5t7.5 -67.5q0 -27 -4 -56t-9 -58h-257q-2 -8 -2.5 -25.5t-0.5 -28.5q0 -61 20.5 -86.5t60.5 -25.5q34 0 60 21.5t47 63.5l58 -33q-13 -23 -27.5 -44t-34.5 -37 t-47.5 -26t-66.5 -10zM312 338q0 51 -17 73t-49 22q-43 0 -74 -34.5t-48 -116.5h184q2 15 3 29t1 27zM157 625q0 30 14.5 47.5t41.5 17.5q43 0 43 -46q0 -30 -15.5 -46.5t-41.5 -16.5q-22 0 -32 12t-10 32zM298 625q0 30 15 47.5t41 17.5q44 0 44 -46q0 -30 -15.5 -46.5 t-41.5 -16.5q-23 0 -33 12t-10 32z" />
<glyph unicode="&#xec;" horiz-adv-x="210" d="M27 0zM104 487h79l-76 -487h-80zM130 576l-72 109l1 6h93l38 -111v-4h-60z" />
<glyph unicode="&#xed;" horiz-adv-x="210" d="M27 0zM104 487h79l-76 -487h-80zM196 689h93l-1 -6l-103 -109h-67v4z" />
<glyph unicode="&#xee;" horiz-adv-x="210" d="M26 0zM104 487h79l-76 -487h-80zM134 689h70l72 -112v-3h-74l-39 70l-60 -70h-77v3z" />
<glyph unicode="&#xef;" horiz-adv-x="210" d="M27 0zM104 487h79l-76 -487h-80zM47 625q0 30 14.5 47.5t41.5 17.5q43 0 43 -46q0 -30 -15.5 -46.5t-41.5 -16.5q-22 0 -32 12t-10 32zM188 625q0 30 15 47.5t41 17.5q44 0 44 -46q0 -30 -15.5 -46.5t-41.5 -16.5q-23 0 -33 12t-10 32z" />
<glyph unicode="&#xf0;" horiz-adv-x="440" d="M42 242q18 131 72 192.5t139 61.5q33 0 56 -14t40 -42q-1 39 -7 73.5t-20 63.5l-70 -50l-16 46l61 44q-34 43 -92 66l38 57q36 -12 63.5 -32.5t46.5 -46.5l77 55l18 -45l-71 -51q20 -43 28.5 -93t8.5 -107q0 -34 -3 -73.5t-10 -90.5q-18 -139 -73 -203.5t-142 -64.5 q-74 0 -112.5 42t-38.5 135q0 17 2 35.5t5 41.5zM191 55q51 0 84.5 42.5t48.5 143.5q4 24 6 44.5t2 37.5q0 58 -19.5 82.5t-61.5 24.5q-54 0 -86.5 -43.5t-47.5 -145.5q-3 -23 -5 -42.5t-2 -35.5q0 -58 21 -83t60 -25z" />
<glyph unicode="&#xf1;" horiz-adv-x="469" d="M26 0zM26 0l77 487h68l-8 -95q30 58 69 82.5t81 24.5q57 0 84.5 -33t27.5 -94q0 -14 -1.5 -28t-3.5 -29l-49 -315h-78l49 303q2 13 2.5 24.5t0.5 21.5q0 42 -16 61.5t-49 19.5q-47 0 -85 -49t-51 -136l-39 -245h-79zM363 683h53q-2 -29 -10.5 -48t-20.5 -30.5t-26 -16.5 t-27 -5q-16 0 -28 6.5t-22.5 14t-20 14t-19.5 6.5q-13 0 -19.5 -11t-8.5 -26h-54q3 28 12 47.5t20.5 30.5t24.5 16t26 5q16 0 28.5 -6.5t23 -14t20 -14t19.5 -6.5q14 0 20.5 11t8.5 27z" />
<glyph unicode="&#xf2;" horiz-adv-x="442" d="M35 0zM35 162q0 18 2 39t5 44q20 133 75 193.5t141 60.5q74 0 111.5 -40.5t37.5 -130.5q0 -18 -2 -38.5t-6 -44.5q-19 -132 -73 -194.5t-142 -62.5q-72 0 -110.5 41.5t-38.5 132.5zM190 54q52 0 84 43t49 147q4 24 6.5 44.5t2.5 37.5q0 58 -20.5 81.5t-62.5 23.5 q-27 0 -47.5 -10t-36 -32t-27 -57.5t-19.5 -87.5q-4 -26 -6 -47t-2 -38q0 -57 19.5 -81t59.5 -24zM245 576l-72 109l1 6h93l38 -111v-4h-60z" />
<glyph unicode="&#xf3;" horiz-adv-x="442" d="M35 0zM35 162q0 18 2 39t5 44q20 133 75 193.5t141 60.5q74 0 111.5 -40.5t37.5 -130.5q0 -18 -2 -38.5t-6 -44.5q-19 -132 -73 -194.5t-142 -62.5q-72 0 -110.5 41.5t-38.5 132.5zM190 54q52 0 84 43t49 147q4 24 6.5 44.5t2.5 37.5q0 58 -20.5 81.5t-62.5 23.5 q-27 0 -47.5 -10t-36 -32t-27 -57.5t-19.5 -87.5q-4 -26 -6 -47t-2 -38q0 -57 19.5 -81t59.5 -24zM311 689h93l-1 -6l-103 -109h-67v4z" />
<glyph unicode="&#xf4;" horiz-adv-x="442" d="M35 0zM35 162q0 18 2 39t5 44q20 133 75 193.5t141 60.5q74 0 111.5 -40.5t37.5 -130.5q0 -18 -2 -38.5t-6 -44.5q-19 -132 -73 -194.5t-142 -62.5q-72 0 -110.5 41.5t-38.5 132.5zM190 54q52 0 84 43t49 147q4 24 6.5 44.5t2.5 37.5q0 58 -20.5 81.5t-62.5 23.5 q-27 0 -47.5 -10t-36 -32t-27 -57.5t-19.5 -87.5q-4 -26 -6 -47t-2 -38q0 -57 19.5 -81t59.5 -24zM251 689h70l72 -112v-3h-74l-39 70l-60 -70h-77v3z" />
<glyph unicode="&#xf5;" horiz-adv-x="442" d="M35 0zM35 162q0 18 2 39t5 44q20 133 75 193.5t141 60.5q74 0 111.5 -40.5t37.5 -130.5q0 -18 -2 -38.5t-6 -44.5q-19 -132 -73 -194.5t-142 -62.5q-72 0 -110.5 41.5t-38.5 132.5zM190 54q52 0 84 43t49 147q4 24 6.5 44.5t2.5 37.5q0 58 -20.5 81.5t-62.5 23.5 q-27 0 -47.5 -10t-36 -32t-27 -57.5t-19.5 -87.5q-4 -26 -6 -47t-2 -38q0 -57 19.5 -81t59.5 -24zM352 683h53q-2 -29 -10.5 -48t-20.5 -30.5t-26 -16.5t-27 -5q-16 0 -28 6.5t-22.5 14t-20 14t-19.5 6.5q-13 0 -19.5 -11t-8.5 -26h-54q3 28 12 47.5t20.5 30.5t24.5 16t26 5 q16 0 28.5 -6.5t23 -14t20 -14t19.5 -6.5q14 0 20.5 11t8.5 27z" />
<glyph unicode="&#xf6;" horiz-adv-x="442" d="M35 0zM35 162q0 18 2 39t5 44q20 133 75 193.5t141 60.5q74 0 111.5 -40.5t37.5 -130.5q0 -18 -2 -38.5t-6 -44.5q-19 -132 -73 -194.5t-142 -62.5q-72 0 -110.5 41.5t-38.5 132.5zM190 54q52 0 84 43t49 147q4 24 6.5 44.5t2.5 37.5q0 58 -20.5 81.5t-62.5 23.5 q-27 0 -47.5 -10t-36 -32t-27 -57.5t-19.5 -87.5q-4 -26 -6 -47t-2 -38q0 -57 19.5 -81t59.5 -24zM164 625q0 30 14.5 47.5t41.5 17.5q43 0 43 -46q0 -30 -15.5 -46.5t-41.5 -16.5q-22 0 -32 12t-10 32zM305 625q0 30 15 47.5t41 17.5q44 0 44 -46q0 -30 -15.5 -46.5 t-41.5 -16.5q-23 0 -33 12t-10 32z" />
<glyph unicode="&#xf7;" horiz-adv-x="381" d="M172 465q1 33 16.5 48t38.5 15q19 0 29.5 -12t9.5 -35q-2 -30 -17 -46.5t-38 -16.5q-21 0 -30.5 13t-8.5 34zM347 344l-10 -69h-299l11 69h298zM121 142q2 31 16.5 46.5t37.5 15.5q20 0 30.5 -12.5t9.5 -35.5q-2 -32 -17 -47.5t-38 -15.5q-41 0 -39 49z" />
<glyph unicode="&#xf8;" horiz-adv-x="442" d="M185 -12q-38 0 -67 11t-46 34l-30 -33h-65l70 80q-5 17 -8.5 38t-3.5 45q0 36 6 81q19 128 74 191.5t143 63.5q38 0 67.5 -12t46.5 -36l31 36h66l-73 -83q6 -17 8.5 -35.5t2.5 -41.5q0 -18 -2 -39t-5 -44q-19 -128 -73.5 -192t-141.5 -64zM110 148l210 245q-18 41 -68 41 q-55 0 -87 -45.5t-48 -145.5q-4 -26 -5.5 -49.5t-1.5 -43.5v-2zM192 54q54 0 85.5 44t47.5 145q4 26 6 49t2 41v2l-209 -245q18 -36 68 -36z" />
<glyph unicode="&#xf9;" horiz-adv-x="467" d="M44 0zM161 -12q-60 0 -88.5 35t-28.5 100q0 13 1 26.5t3 27.5l49 310h79l-48 -300q-2 -14 -2.5 -25.5t-0.5 -22.5q0 -84 66 -84q46 0 81 46t51 134l39 252h78l-78 -487h-66l8 88q-28 -54 -65.5 -77t-77.5 -23zM259 576l-72 109l1 6h93l38 -111v-4h-60z" />
<glyph unicode="&#xfa;" horiz-adv-x="467" d="M44 0zM161 -12q-60 0 -88.5 35t-28.5 100q0 13 1 26.5t3 27.5l49 310h79l-48 -300q-2 -14 -2.5 -25.5t-0.5 -22.5q0 -84 66 -84q46 0 81 46t51 134l39 252h78l-78 -487h-66l8 88q-28 -54 -65.5 -77t-77.5 -23zM324 689h93l-1 -6l-103 -109h-67v4z" />
<glyph unicode="&#xfb;" horiz-adv-x="467" d="M44 0zM161 -12q-60 0 -88.5 35t-28.5 100q0 13 1 26.5t3 27.5l49 310h79l-48 -300q-2 -14 -2.5 -25.5t-0.5 -22.5q0 -84 66 -84q46 0 81 46t51 134l39 252h78l-78 -487h-66l8 88q-28 -54 -65.5 -77t-77.5 -23zM263 689h70l72 -112v-3h-74l-39 70l-60 -70h-77v3z" />
<glyph unicode="&#xfc;" horiz-adv-x="467" d="M44 0zM161 -12q-60 0 -88.5 35t-28.5 100q0 13 1 26.5t3 27.5l49 310h79l-48 -300q-2 -14 -2.5 -25.5t-0.5 -22.5q0 -84 66 -84q46 0 81 46t51 134l39 252h78l-78 -487h-66l8 88q-28 -54 -65.5 -77t-77.5 -23zM177 625q0 30 14.5 47.5t41.5 17.5q43 0 43 -46 q0 -30 -15.5 -46.5t-41.5 -16.5q-22 0 -32 12t-10 32zM318 625q0 30 15 47.5t41 17.5q44 0 44 -46q0 -30 -15.5 -46.5t-41.5 -16.5q-23 0 -33 12t-10 32z" />
<glyph unicode="&#xfd;" horiz-adv-x="393" d="M0 0zM92 -65l22 53l-69 499h82l45 -392l167 392h80l-263 -579q-17 -38 -36.5 -62t-40 -38t-41 -19t-39.5 -5q-17 0 -34 3.5t-34 11.5l31 66q13 -5 24.5 -6.5t22.5 -1.5q26 0 45 16t38 62zM288 689h93l-1 -6l-103 -109h-67v4z" />
<glyph unicode="&#xfe;" horiz-adv-x="462" d="M277 431q-45 0 -81 -44.5t-52 -144.5q-3 -20 -5 -37.5t-2 -33.5q0 -62 21.5 -90t55.5 -28q51 0 82.5 47t47.5 143q5 25 6.5 42t1.5 36q0 110 -75 110zM116 65l-39 -251h-80l142 886h78l-47 -289q24 43 60 65.5t78 22.5q59 0 89.5 -43t30.5 -128q0 -21 -2 -39.5t-6 -44.5 q-17 -122 -67.5 -189t-131.5 -67q-35 0 -62.5 19.5t-42.5 57.5z" />
<glyph unicode="&#xff;" horiz-adv-x="393" d="M0 0zM92 -65l22 53l-69 499h82l45 -392l167 392h80l-263 -579q-17 -38 -36.5 -62t-40 -38t-41 -19t-39.5 -5q-17 0 -34 3.5t-34 11.5l31 66q13 -5 24.5 -6.5t22.5 -1.5q26 0 45 16t38 62zM140 625q0 30 14.5 47.5t41.5 17.5q43 0 43 -46q0 -30 -15.5 -46.5t-41.5 -16.5 q-22 0 -32 12t-10 32zM281 625q0 30 15 47.5t41 17.5q44 0 44 -46q0 -30 -15.5 -46.5t-41.5 -16.5q-23 0 -33 12t-10 32z" />
<glyph unicode="&#x100;" horiz-adv-x="486" d="M0 0zM302 608l-156 -391h189zM353 0l-13 145h-222l-58 -145h-83l290 700h99l68 -700h-81zM438 872l-9 -58h-194l9 58h194z" />
<glyph unicode="&#x101;" horiz-adv-x="422" d="M23 0zM95 115q0 -29 14.5 -45t39.5 -16q47 0 83.5 43.5t50.5 124.5l2 12h-46q-32 0 -58 -9t-45.5 -24.5t-30 -37.5t-10.5 -48zM267 89q-27 -48 -63.5 -74t-80.5 -26q-41 0 -70.5 29.5t-29.5 84.5q0 39 14 74t41.5 61.5t68.5 42t95 15.5h54q2 8 3 22t1 27q0 50 -21.5 68.5 t-51.5 18.5q-31 0 -57.5 -18t-43.5 -56l-62 33q23 47 65 77.5t110 30.5q64 0 101.5 -32.5t37.5 -102.5q0 -13 -1 -28t-4 -32l-48 -304h-65zM361 660l-9 -58h-194l9 58h194z" />
<glyph unicode="&#x102;" horiz-adv-x="486" d="M0 0zM302 608l-156 -391h189zM353 0l-13 145h-222l-58 -145h-83l290 700h99l68 -700h-81zM402 902h54q-11 -69 -43.5 -95t-85.5 -26q-26 0 -45.5 6t-31.5 20t-16 37t1 58h55q-7 -38 4 -52t39 -14q29 0 45.5 14t23.5 52z" />
<glyph unicode="&#x103;" horiz-adv-x="422" d="M23 0zM95 115q0 -29 14.5 -45t39.5 -16q47 0 83.5 43.5t50.5 124.5l2 12h-46q-32 0 -58 -9t-45.5 -24.5t-30 -37.5t-10.5 -48zM267 89q-27 -48 -63.5 -74t-80.5 -26q-41 0 -70.5 29.5t-29.5 84.5q0 39 14 74t41.5 61.5t68.5 42t95 15.5h54q2 8 3 22t1 27q0 50 -21.5 68.5 t-51.5 18.5q-31 0 -57.5 -18t-43.5 -56l-62 33q23 47 65 77.5t110 30.5q64 0 101.5 -32.5t37.5 -102.5q0 -13 -1 -28t-4 -32l-48 -304h-65zM324 690h54q-11 -69 -43.5 -95t-85.5 -26q-26 0 -45.5 6t-31.5 20t-16 37t1 58h55q-7 -38 4 -52t39 -14q29 0 45.5 14t23.5 52z" />
<glyph unicode="&#x104;" horiz-adv-x="486" d="M418 -184q-20 -14 -38 -20.5t-41 -6.5q-39 0 -61.5 22.5t-22.5 68.5q0 55 28.5 94t67.5 53l-11 118h-222l-58 -145h-83l290 700h99l68 -700h-43q-19 -2 -34 -12.5t-25.5 -25.5t-16 -33t-5.5 -35q0 -26 12 -36t27 -10q27 0 46 17zM302 608l-156 -391h189z" />
<glyph unicode="&#x105;" horiz-adv-x="423" d="M347 -184q-20 -14 -38 -20.5t-41 -6.5q-39 0 -61.5 22.5t-22.5 68.5q0 48 22.5 84t54.5 55l6 70q-27 -48 -63.5 -74t-80.5 -26q-41 0 -70.5 29.5t-29.5 84.5q0 39 14 74t41.5 61.5t68.5 42t95 15.5h54q2 8 3 22t1 27q0 50 -21.5 68.5t-51.5 18.5q-31 0 -57.5 -18 t-43.5 -56l-62 33q23 47 65 77.5t110 30.5q64 0 101.5 -32.5t37.5 -102.5q0 -13 -1 -28t-4 -32l-48 -304h-5q-19 -2 -34 -12.5t-25.5 -25.5t-16 -33t-5.5 -35q0 -26 12 -36t27 -10q27 0 46 17zM95 115q0 -29 14.5 -45t39.5 -16q47 0 83.5 43.5t50.5 124.5l2 12h-46 q-32 0 -58 -9t-45.5 -24.5t-30 -37.5t-10.5 -48z" />
<glyph unicode="&#x106;" horiz-adv-x="517" d="M57 0zM69 351q14 99 39.5 167.5t61.5 111.5t81.5 62.5t100.5 19.5q81 0 128.5 -41t57.5 -139l-77 -25q-8 76 -36.5 105t-80.5 29q-33 0 -62.5 -13t-54.5 -46t-45 -89t-33 -141q-12 -75 -12 -132q0 -46 8.5 -77t25 -50t40 -27t53.5 -8q45 0 83.5 25.5t70.5 97.5l66 -37 q-18 -44 -43 -73.5t-55 -48t-63 -26.5t-67 -8q-50 0 -87 12.5t-62 40t-37.5 71.5t-12.5 106q0 32 3 63t9 70zM409 903h93l-1 -6l-103 -109h-67v4z" />
<glyph unicode="&#x107;" horiz-adv-x="398" d="M35 0zM298 139l62 -32q-25 -51 -66.5 -85t-110.5 -34q-74 0 -111 42.5t-37 131.5q0 18 2 38t5 43q20 131 75 193.5t140 62.5q68 0 99 -35t38 -104l-70 -24q-7 47 -21.5 71t-54.5 24q-50 0 -81 -44.5t-48 -144.5q-4 -24 -6.5 -44.5t-2.5 -37.5q0 -58 20 -82t64 -24 q31 0 57.5 20t46.5 65zM309 689h93l-1 -6l-103 -109h-67v4z" />
<glyph unicode="&#x108;" horiz-adv-x="517" d="M57 0zM69 351q14 99 39.5 167.5t61.5 111.5t81.5 62.5t100.5 19.5q81 0 128.5 -41t57.5 -139l-77 -25q-8 76 -36.5 105t-80.5 29q-33 0 -62.5 -13t-54.5 -46t-45 -89t-33 -141q-12 -75 -12 -132q0 -46 8.5 -77t25 -50t40 -27t53.5 -8q45 0 83.5 25.5t70.5 97.5l66 -37 q-18 -44 -43 -73.5t-55 -48t-63 -26.5t-67 -8q-50 0 -87 12.5t-62 40t-37.5 71.5t-12.5 106q0 32 3 63t9 70zM348 903h70l72 -112v-3h-74l-39 70l-60 -70h-77v3z" />
<glyph unicode="&#x109;" horiz-adv-x="398" d="M35 0zM298 139l62 -32q-25 -51 -66.5 -85t-110.5 -34q-74 0 -111 42.5t-37 131.5q0 18 2 38t5 43q20 131 75 193.5t140 62.5q68 0 99 -35t38 -104l-70 -24q-7 47 -21.5 71t-54.5 24q-50 0 -81 -44.5t-48 -144.5q-4 -24 -6.5 -44.5t-2.5 -37.5q0 -58 20 -82t64 -24 q31 0 57.5 20t46.5 65zM248 689h70l72 -112v-3h-74l-39 70l-60 -70h-77v3z" />
<glyph unicode="&#x10a;" horiz-adv-x="517" d="M57 0zM69 351q14 99 39.5 167.5t61.5 111.5t81.5 62.5t100.5 19.5q81 0 128.5 -41t57.5 -139l-77 -25q-8 76 -36.5 105t-80.5 29q-33 0 -62.5 -13t-54.5 -46t-45 -89t-33 -141q-12 -75 -12 -132q0 -46 8.5 -77t25 -50t40 -27t53.5 -8q45 0 83.5 25.5t70.5 97.5l66 -37 q-18 -44 -43 -73.5t-55 -48t-63 -26.5t-67 -8q-50 0 -87 12.5t-62 40t-37.5 71.5t-12.5 106q0 32 3 63t9 70zM328 839q0 30 15 47.5t41 17.5q43 0 43 -46q0 -30 -15.5 -46.5t-41.5 -16.5q-22 0 -32 12t-10 32z" />
<glyph unicode="&#x10b;" horiz-adv-x="398" d="M35 0zM298 139l62 -32q-25 -51 -66.5 -85t-110.5 -34q-74 0 -111 42.5t-37 131.5q0 18 2 38t5 43q20 131 75 193.5t140 62.5q68 0 99 -35t38 -104l-70 -24q-7 47 -21.5 71t-54.5 24q-50 0 -81 -44.5t-48 -144.5q-4 -24 -6.5 -44.5t-2.5 -37.5q0 -58 20 -82t64 -24 q31 0 57.5 20t46.5 65zM227 625q0 30 15 47.5t41 17.5q43 0 43 -46q0 -30 -15.5 -46.5t-41.5 -16.5q-22 0 -32 12t-10 32z" />
<glyph unicode="&#x10c;" horiz-adv-x="517" d="M57 0zM69 351q14 99 39.5 167.5t61.5 111.5t81.5 62.5t100.5 19.5q81 0 128.5 -41t57.5 -139l-77 -25q-8 76 -36.5 105t-80.5 29q-33 0 -62.5 -13t-54.5 -46t-45 -89t-33 -141q-12 -75 -12 -132q0 -46 8.5 -77t25 -50t40 -27t53.5 -8q45 0 83.5 25.5t70.5 97.5l66 -37 q-18 -44 -43 -73.5t-55 -48t-63 -26.5t-67 -8q-50 0 -87 12.5t-62 40t-37.5 71.5t-12.5 106q0 32 3 63t9 70zM335 788l-71 113v2h76l34 -67l63 67h77v-2l-109 -113h-70z" />
<glyph unicode="&#x10d;" horiz-adv-x="398" d="M35 0zM298 139l62 -32q-25 -51 -66.5 -85t-110.5 -34q-74 0 -111 42.5t-37 131.5q0 18 2 38t5 43q20 131 75 193.5t140 62.5q68 0 99 -35t38 -104l-70 -24q-7 47 -21.5 71t-54.5 24q-50 0 -81 -44.5t-48 -144.5q-4 -24 -6.5 -44.5t-2.5 -37.5q0 -58 20 -82t64 -24 q31 0 57.5 20t46.5 65zM235 574l-71 113v2h76l34 -67l63 67h77v-2l-109 -113h-70z" />
<glyph unicode="&#x10e;" horiz-adv-x="561" d="M38 0zM38 0l111 700h180q102 0 152.5 -54t50.5 -174q0 -23 -2 -54.5t-7 -63.5q-29 -184 -106 -269t-198 -85h-181zM130 72h95q37 0 71 13t62.5 45t50 85.5t33.5 134.5q5 29 7.5 58.5t2.5 53.5q0 91 -34.5 129t-97.5 38h-101zM333 787l-71 113v2h76l34 -67l63 67h77v-2 l-109 -113h-70z" />
<glyph unicode="&#x10f;" horiz-adv-x="518" d="M35 0zM538 482h-55l39 218h73zM187 54q44 0 79.5 44.5t50.5 143.5q6 43 6 74q0 63 -20.5 89.5t-55.5 26.5q-50 0 -80.5 -46t-47.5 -143q-5 -26 -6.5 -42.5t-1.5 -34.5q0 -112 76 -112zM157 -12q-60 0 -91 43.5t-31 128.5q0 19 2 40t5 44q18 125 69 190t128 65 q74 0 105 -84l45 285h77l-111 -700h-63l5 79q-27 -45 -61 -68t-79 -23z" />
<glyph unicode="&#x110;" horiz-adv-x="568" d="M226 0h-181l52 325h-58l12 68h56l49 307h180q101 0 152 -54t51 -174q0 -23 -2.5 -54.5t-7.5 -63.5q-29 -184 -106 -269t-197 -85zM137 72h94q37 0 71 13t62.5 45t50 85.5t33.5 134.5q5 29 7.5 58.5t2.5 53.5q0 91 -34 129t-97 38h-102l-38 -236h111l-12 -68h-109z" />
<glyph unicode="&#x111;" horiz-adv-x="472" d="M317 242q6 43 6 75q0 60 -20.5 87t-55.5 27q-50 0 -81.5 -45.5t-47.5 -142.5q-7 -41 -7 -78q0 -111 75 -111q45 0 80.5 44t50.5 144zM157 -12q-60 0 -91 43.5t-31 128.5q0 19 2 40t5 44q18 125 69 190t128 65q38 0 64.5 -22.5t40.5 -64.5l23 145h-110l9 56h110l14 87h78 l-14 -87h54l-9 -56h-54l-88 -557h-65l5 79q-27 -45 -61 -68t-79 -23z" />
<glyph unicode="&#x112;" horiz-adv-x="500" d="M38 0zM427 71l-10 -71h-379l111 700h385l-12 -72h-305l-39 -242h262l-12 -75h-261l-39 -240h299zM456 872l-9 -58h-194l9 58h194z" />
<glyph unicode="&#x113;" horiz-adv-x="416" d="M36 0zM181 -12q-69 0 -107 43t-38 134q0 34 6 78q18 126 72.5 191t140.5 65q34 0 58 -12t40 -34t23.5 -52.5t7.5 -67.5q0 -27 -4 -56t-9 -58h-257q-2 -8 -2.5 -25.5t-0.5 -28.5q0 -61 20.5 -86.5t60.5 -25.5q34 0 60 21.5t47 63.5l58 -33q-13 -23 -27.5 -44t-34.5 -37 t-47.5 -26t-66.5 -10zM312 338q0 51 -17 73t-49 22q-43 0 -74 -34.5t-48 -116.5h184q2 15 3 29t1 27zM374 659l-9 -58h-194l9 58h194z" />
<glyph unicode="&#x114;" horiz-adv-x="500" d="M38 0zM427 71l-10 -71h-379l111 700h385l-12 -72h-305l-39 -242h262l-12 -75h-261l-39 -240h299zM421 902h54q-11 -69 -43.5 -95t-85.5 -26q-26 0 -45.5 6t-31.5 20t-16 37t1 58h55q-7 -38 4 -52t39 -14q29 0 45.5 14t23.5 52z" />
<glyph unicode="&#x115;" horiz-adv-x="416" d="M36 0zM181 -12q-69 0 -107 43t-38 134q0 34 6 78q18 126 72.5 191t140.5 65q34 0 58 -12t40 -34t23.5 -52.5t7.5 -67.5q0 -27 -4 -56t-9 -58h-257q-2 -8 -2.5 -25.5t-0.5 -28.5q0 -61 20.5 -86.5t60.5 -25.5q34 0 60 21.5t47 63.5l58 -33q-13 -23 -27.5 -44t-34.5 -37 t-47.5 -26t-66.5 -10zM312 338q0 51 -17 73t-49 22q-43 0 -74 -34.5t-48 -116.5h184q2 15 3 29t1 27zM337 689h54q-11 -69 -43.5 -95t-85.5 -26q-26 0 -45.5 6t-31.5 20t-16 37t1 58h55q-7 -38 4 -52t39 -14q29 0 45.5 14t23.5 52z" />
<glyph unicode="&#x116;" horiz-adv-x="500" d="M38 0zM427 71l-10 -71h-379l111 700h385l-12 -72h-305l-39 -242h262l-12 -75h-261l-39 -240h299zM307 838q0 30 15 47.5t41 17.5q43 0 43 -46q0 -30 -15.5 -46.5t-41.5 -16.5q-22 0 -32 12t-10 32z" />
<glyph unicode="&#x117;" horiz-adv-x="416" d="M36 0zM181 -12q-69 0 -107 43t-38 134q0 34 6 78q18 126 72.5 191t140.5 65q34 0 58 -12t40 -34t23.5 -52.5t7.5 -67.5q0 -27 -4 -56t-9 -58h-257q-2 -8 -2.5 -25.5t-0.5 -28.5q0 -61 20.5 -86.5t60.5 -25.5q34 0 60 21.5t47 63.5l58 -33q-13 -23 -27.5 -44t-34.5 -37 t-47.5 -26t-66.5 -10zM312 338q0 51 -17 73t-49 22q-43 0 -74 -34.5t-48 -116.5h184q2 15 3 29t1 27zM223 625q0 30 15 47.5t41 17.5q43 0 43 -46q0 -30 -15.5 -46.5t-41.5 -16.5q-22 0 -32 12t-10 32z" />
<glyph unicode="&#x118;" horiz-adv-x="500" d="M394 -184q-20 -14 -38 -20.5t-41 -6.5q-39 0 -61.5 22.5t-22.5 68.5q0 38 14 68.5t37 51.5h-244l111 700h385l-12 -72h-305l-39 -242h262l-12 -75h-261l-39 -240h299l-10 -71h-50q-19 -2 -34 -12.5t-25.5 -25.5t-16 -33t-5.5 -35q0 -26 12 -36t27 -10q27 0 46 17z" />
<glyph unicode="&#x119;" horiz-adv-x="416" d="M203 -211q-17 0 -32.5 4.5t-27.5 15.5t-19 30t-5 48q1 32 12 57.5t27 44.5q-59 7 -90.5 50t-31.5 126q0 34 6 78q18 126 72.5 191t140.5 65q34 0 58 -12t40 -34t23.5 -52.5t7.5 -67.5q0 -27 -4 -56t-9 -58h-257q-2 -8 -2.5 -25.5t-0.5 -28.5q0 -61 20.5 -86.5t60.5 -25.5 q34 0 60 21.5t47 63.5l58 -33q-11 -19 -23 -37t-27 -33t-35 -26.5t-46 -16.5q-24 -14 -37.5 -40.5t-14.5 -53.5q-2 -29 10.5 -39.5t28.5 -10.5q27 0 46 17l23 -49q-20 -14 -38 -20.5t-41 -6.5zM312 338q0 51 -17 73t-49 22q-43 0 -74 -34.5t-48 -116.5h184q2 15 3 29t1 27z " />
<glyph unicode="&#x11a;" horiz-adv-x="500" d="M38 0zM427 71l-10 -71h-379l111 700h385l-12 -72h-305l-39 -242h262l-12 -75h-261l-39 -240h299zM315 787l-71 113v2h76l34 -67l63 67h77v-2l-109 -113h-70z" />
<glyph unicode="&#x11b;" horiz-adv-x="415" d="M36 0zM181 -12q-69 0 -107 43t-38 134q0 34 6 78q18 126 72.5 191t140.5 65q34 0 58 -12t40 -34t23.5 -52.5t7.5 -67.5q0 -27 -4 -56t-9 -58h-257q-2 -8 -2.5 -25.5t-0.5 -28.5q0 -61 20.5 -86.5t60.5 -25.5q34 0 60 21.5t47 63.5l58 -33q-13 -23 -27.5 -44t-34.5 -37 t-47.5 -26t-66.5 -10zM312 338q0 51 -17 73t-49 22q-43 0 -74 -34.5t-48 -116.5h184q2 15 3 29t1 27zM232 574l-71 113v2h76l34 -67l63 67h77v-2l-109 -113h-70z" />
<glyph unicode="&#x11c;" horiz-adv-x="551" d="M58 0zM238 -12q-89 0 -134.5 58t-45.5 179q0 28 3 59.5t8 66.5q14 97 38.5 166t60 112t82.5 63t106 20q39 1 70.5 -8t54.5 -29.5t36.5 -54t18.5 -82.5l-74 -26q-4 39 -13.5 64t-23.5 39.5t-33.5 20t-44.5 5.5q-36 0 -67 -13.5t-55.5 -46.5t-43.5 -89t-32 -141 q-6 -39 -8.5 -72t-2.5 -60q0 -92 30.5 -128t86.5 -36q24 0 50 10t49 35.5t42 70t28 112.5h-130l11 67h206l-56 -350h-58l5 94q-28 -52 -71.5 -79t-92.5 -27zM346 903h70l72 -112v-3h-74l-39 70l-60 -70h-77v3z" />
<glyph unicode="&#x11d;" horiz-adv-x="457" d="M0 0zM184 65q47 0 81.5 44t50.5 142q6 37 6 69q0 59 -20.5 85.5t-55.5 26.5q-49 0 -81 -43t-47 -139q-7 -41 -7 -76q0 -55 19.5 -82t53.5 -27zM53 -60q5 -45 27.5 -67t60.5 -22q115 0 136 154l11 79q-23 -42 -57 -62.5t-72 -20.5q-60 0 -92.5 42.5t-32.5 127.5q0 36 6 78 q19 123 70 186.5t130 63.5q80 0 110 -88l17 76h63l-76 -484q-17 -110 -74.5 -164t-139.5 -54q-71 0 -107.5 32.5t-50.5 92.5zM242 689h70l72 -112v-3h-74l-39 70l-60 -70h-77v3z" />
<glyph unicode="&#x11e;" horiz-adv-x="551" d="M58 0zM238 -12q-89 0 -134.5 58t-45.5 179q0 28 3 59.5t8 66.5q14 97 38.5 166t60 112t82.5 63t106 20q39 1 70.5 -8t54.5 -29.5t36.5 -54t18.5 -82.5l-74 -26q-4 39 -13.5 64t-23.5 39.5t-33.5 20t-44.5 5.5q-36 0 -67 -13.5t-55.5 -46.5t-43.5 -89t-32 -141 q-6 -39 -8.5 -72t-2.5 -60q0 -92 30.5 -128t86.5 -36q24 0 50 10t49 35.5t42 70t28 112.5h-130l11 67h206l-56 -350h-58l5 94q-28 -52 -71.5 -79t-92.5 -27zM440 903h54q-11 -69 -43.5 -95t-85.5 -26q-26 0 -45.5 6t-31.5 20t-16 37t1 58h55q-7 -38 4 -52t39 -14 q29 0 45.5 14t23.5 52z" />
<glyph unicode="&#x11f;" horiz-adv-x="457" d="M0 0zM184 65q47 0 81.5 44t50.5 142q6 37 6 69q0 59 -20.5 85.5t-55.5 26.5q-49 0 -81 -43t-47 -139q-7 -41 -7 -76q0 -55 19.5 -82t53.5 -27zM53 -60q5 -45 27.5 -67t60.5 -22q115 0 136 154l11 79q-23 -42 -57 -62.5t-72 -20.5q-60 0 -92.5 42.5t-32.5 127.5q0 36 6 78 q19 123 70 186.5t130 63.5q80 0 110 -88l17 76h63l-76 -484q-17 -110 -74.5 -164t-139.5 -54q-71 0 -107.5 32.5t-50.5 92.5zM336 689h54q-11 -69 -43.5 -95t-85.5 -26q-26 0 -45.5 6t-31.5 20t-16 37t1 58h55q-7 -38 4 -52t39 -14q29 0 45.5 14t23.5 52z" />
<glyph unicode="&#x120;" horiz-adv-x="551" d="M58 0zM238 -12q-89 0 -134.5 58t-45.5 179q0 28 3 59.5t8 66.5q14 97 38.5 166t60 112t82.5 63t106 20q39 1 70.5 -8t54.5 -29.5t36.5 -54t18.5 -82.5l-74 -26q-4 39 -13.5 64t-23.5 39.5t-33.5 20t-44.5 5.5q-36 0 -67 -13.5t-55.5 -46.5t-43.5 -89t-32 -141 q-6 -39 -8.5 -72t-2.5 -60q0 -92 30.5 -128t86.5 -36q24 0 50 10t49 35.5t42 70t28 112.5h-130l11 67h206l-56 -350h-58l5 94q-28 -52 -71.5 -79t-92.5 -27zM326 839q0 30 15 47.5t41 17.5q43 0 43 -46q0 -30 -15.5 -46.5t-41.5 -16.5q-22 0 -32 12t-10 32z" />
<glyph unicode="&#x121;" horiz-adv-x="457" d="M0 0zM184 65q47 0 81.5 44t50.5 142q6 37 6 69q0 59 -20.5 85.5t-55.5 26.5q-49 0 -81 -43t-47 -139q-7 -41 -7 -76q0 -55 19.5 -82t53.5 -27zM53 -60q5 -45 27.5 -67t60.5 -22q115 0 136 154l11 79q-23 -42 -57 -62.5t-72 -20.5q-60 0 -92.5 42.5t-32.5 127.5q0 36 6 78 q19 123 70 186.5t130 63.5q80 0 110 -88l17 76h63l-76 -484q-17 -110 -74.5 -164t-139.5 -54q-71 0 -107.5 32.5t-50.5 92.5zM223 625q0 30 15 47.5t41 17.5q43 0 43 -46q0 -30 -15.5 -46.5t-41.5 -16.5q-22 0 -32 12t-10 32z" />
<glyph unicode="&#x122;" horiz-adv-x="551" d="M58 0zM238 -12q-89 0 -134.5 58t-45.5 179q0 28 3 59.5t8 66.5q14 97 38.5 166t60 112t82.5 63t106 20q39 1 70.5 -8t54.5 -29.5t36.5 -54t18.5 -82.5l-74 -26q-4 39 -13.5 64t-23.5 39.5t-33.5 20t-44.5 5.5q-36 0 -67 -13.5t-55.5 -46.5t-43.5 -89t-32 -141 q-6 -39 -8.5 -72t-2.5 -60q0 -92 30.5 -128t86.5 -36q24 0 50 10t49 35.5t42 70t28 112.5h-130l11 67h206l-56 -350h-58l5 94q-28 -52 -71.5 -79t-92.5 -27zM174 -280l-18 31q23 14 42.5 36t23.5 49q-18 -3 -30.5 7t-12.5 33t14 41t40 18q21 0 32 -13t11 -35q0 -27 -8 -53 t-21.5 -48.5t-32.5 -39.5t-40 -26z" />
<glyph unicode="&#x123;" horiz-adv-x="457" d="M319 781l18 -31q-23 -14 -42.5 -36t-23.5 -49q18 3 30.5 -7t12.5 -33t-14 -41t-40 -18q-21 0 -32 13t-11 35q0 27 8 53t21.5 48.5t32.5 39.5t40 26zM184 65q47 0 81.5 44t50.5 142q6 37 6 69q0 59 -20.5 85.5t-55.5 26.5q-49 0 -81 -43t-47 -139q-7 -41 -7 -76 q0 -55 19.5 -82t53.5 -27zM53 -60q5 -45 27.5 -67t60.5 -22q115 0 136 154l11 79q-23 -42 -57 -62.5t-72 -20.5q-60 0 -92.5 42.5t-32.5 127.5q0 36 6 78q19 123 70 186.5t130 63.5q80 0 110 -88l17 76h63l-76 -484q-17 -110 -74.5 -164t-139.5 -54q-71 0 -107.5 32.5 t-50.5 92.5z" />
<glyph unicode="&#x124;" horiz-adv-x="592" d="M38 0zM391 0l49 315h-271l-50 -315h-81l111 700h81l-49 -311h272l49 311h80l-111 -700h-80zM357 903h70l72 -112v-3h-74l-39 70l-60 -70h-77v3z" />
<glyph unicode="&#x125;" horiz-adv-x="469" d="M26 0zM216 700l-51 -311q29 60 68 85t82 25q56 0 83 -33t27 -94q0 -13 -1.5 -27.5t-3.5 -29.5l-49 -315h-78l48 303q2 13 3 25.5t1 23.5q0 78 -65 78q-48 0 -85 -50.5t-52 -139.5l-38 -240h-79l111 700h79zM170 902h70l72 -112v-3h-74l-39 70l-60 -70h-77v3z" />
<glyph unicode="&#x126;" horiz-adv-x="606" d="M189 389h271l16 101h-272zM82 549h52l24 151h80l-23 -151h271l24 151h81l-24 -151h52l-10 -59h-52l-77 -490h-80l49 315h-272l-49 -315h-81l77 490h-52z" />
<glyph unicode="&#x127;" horiz-adv-x="479" d="M70 557l9 56h55l14 87h79l-14 -87h109l-8 -56h-109l-27 -166q29 58 67 83t81 25q54 0 81 -35t27 -99q0 -15 -1 -31t-4 -33l-47 -301h-79l45 290q2 16 4 30t2 26q0 83 -63 83q-48 0 -84.5 -49.5t-51.5 -138.5l-39 -241h-79l88 557h-55z" />
<glyph unicode="&#x128;" horiz-adv-x="241" d="M38 0zM38 0l111 700h81l-111 -700h-81zM285 896h53q-2 -29 -10.5 -48t-20.5 -30.5t-26 -16.5t-27 -5q-16 0 -28 6.5t-22.5 14t-20 14t-19.5 6.5q-13 0 -19.5 -11t-8.5 -26h-54q3 28 12 47.5t20.5 30.5t24.5 16t26 5q16 0 28.5 -6.5t23 -14t20 -14t19.5 -6.5q14 0 20.5 11 t8.5 27z" />
<glyph unicode="&#x129;" horiz-adv-x="210" d="M27 0zM104 487h79l-76 -487h-80zM237 683h53q-2 -29 -10.5 -48t-20.5 -30.5t-26 -16.5t-27 -5q-16 0 -28 6.5t-22.5 14t-20 14t-19.5 6.5q-13 0 -19.5 -11t-8.5 -26h-54q3 28 12 47.5t20.5 30.5t24.5 16t26 5q16 0 28.5 -6.5t23 -14t20 -14t19.5 -6.5q14 0 20.5 11 t8.5 27z" />
<glyph unicode="&#x12a;" horiz-adv-x="241" d="M38 0zM38 0l111 700h81l-111 -700h-81zM312 872l-9 -58h-194l9 58h194z" />
<glyph unicode="&#x12b;" horiz-adv-x="211" d="M27 0zM104 487h79l-76 -487h-80zM266 659l-9 -58h-194l9 58h194z" />
<glyph unicode="&#x12c;" horiz-adv-x="241" d="M38 0zM38 0l111 700h81l-111 -700h-81zM276 902h54q-11 -69 -43.5 -95t-85.5 -26q-26 0 -45.5 6t-31.5 20t-16 37t1 58h55q-7 -38 4 -52t39 -14q29 0 45.5 14t23.5 52z" />
<glyph unicode="&#x12d;" horiz-adv-x="210" d="M27 0zM104 487h79l-76 -487h-80zM228 689h54q-11 -69 -43.5 -95t-85.5 -26q-26 0 -45.5 6t-31.5 20t-16 37t1 58h55q-7 -38 4 -52t39 -14q29 0 45.5 14t23.5 52z" />
<glyph unicode="&#x12e;" horiz-adv-x="241" d="M108 -184q-20 -14 -38 -20.5t-41 -6.5q-39 0 -61.5 22.5t-22.5 68.5q0 27 8 51t21 43t30.5 33t37.5 21l107 672h81l-111 -700h-38q-19 -2 -34 -12.5t-25.5 -25.5t-16 -33t-5.5 -35q0 -26 12 -36t27 -10q27 0 46 17z" />
<glyph unicode="&#x12f;" horiz-adv-x="210" d="M113 627q0 29 15 47t44 18q45 0 45 -47q0 -31 -16.5 -48t-42.5 -17q-22 0 -33.5 13t-11.5 34zM94 -184q-20 -14 -38 -20.5t-41 -6.5q-39 0 -61.5 22.5t-22.5 68.5q0 57 30 96t71 53l72 458h79l-76 -487h-40q-19 -2 -34 -12.5t-25.5 -25.5t-16 -33t-5.5 -35q0 -26 12 -36 t27 -10q27 0 46 17z" />
<glyph unicode="&#x130;" horiz-adv-x="241" d="M38 0zM38 0l111 700h81l-111 -700h-81zM162 838q0 30 15 47.5t41 17.5q43 0 43 -46q0 -30 -15.5 -46.5t-41.5 -16.5q-22 0 -32 12t-10 32z" />
<glyph unicode="&#x131;" horiz-adv-x="210" d="M104 487h79l-76 -487h-80z" />
<glyph unicode="&#x132;" horiz-adv-x="623" d="M38 0zM38 0l111 700h81l-111 -700h-81zM331 -12q-34 0 -69 11t-60 37l53 64q17 -20 39.5 -30t46.5 -10q47 0 81.5 41.5t49.5 138.5l73 460h81l-72 -453q-12 -75 -33.5 -125t-50 -79.5t-64 -42t-75.5 -12.5z" />
<glyph unicode="&#x133;" horiz-adv-x="419" d="M27 0zM113 627q0 29 15 47t44 18q45 0 45 -47q0 -31 -16.5 -48t-42.5 -17q-22 0 -33.5 13t-11.5 34zM104 487h79l-76 -487h-80zM320 627q0 29 15 47t44 18q45 0 45 -47q0 -31 -16.5 -48t-42.5 -17q-22 0 -33.5 13t-11.5 34zM227 -44l84 531h79l-86 -541 q-13 -84 -52.5 -122.5t-92.5 -38.5q-19 0 -35.5 2.5t-35.5 10.5l33 73q10 -5 18 -8t19 -3q25 0 42.5 20t26.5 76z" />
<glyph unicode="&#x134;" horiz-adv-x="388" d="M0 0zM95 -12q-34 0 -69 11t-60 37l53 64q17 -20 39.5 -30t46.5 -10q47 0 81.5 41.5t49.5 138.5l73 460h81l-72 -453q-12 -75 -33.5 -125t-50 -79.5t-64 -42t-75.5 -12.5zM342 902h70l72 -112v-3h-74l-39 70l-60 -70h-77v3z" />
<glyph unicode="&#x135;" horiz-adv-x="209" d="M0 0zM20 -44l84 531h79l-86 -541q-13 -84 -52.5 -122.5t-92.5 -38.5q-19 0 -35.5 2.5t-34.5 10.5l32 73q10 -5 18 -8t19 -3q25 0 42.5 20t26.5 76zM134 689h70l72 -112v-3h-74l-39 70l-60 -70h-77v3z" />
<glyph unicode="&#x136;" horiz-adv-x="495" d="M38 0zM360 0l-116 316l-94 -114l-31 -202h-81l111 700h81l-61 -373l288 373h91l-244 -314l144 -386h-88zM165 -280l-18 31q23 14 42.5 36t23.5 49q-18 -3 -30.5 7t-12.5 33t14 41t40 18q21 0 32 -13t11 -35q0 -27 -8 -53t-21.5 -48.5t-32.5 -39.5t-40 -26z" />
<glyph unicode="&#x137;" horiz-adv-x="401" d="M26 0zM124 122l-18 -122h-80l111 700h79l-79 -474l204 261h91l-180 -215l105 -272h-87l-73 206zM114 -280l-18 31q23 14 42.5 36t23.5 49q-18 -3 -30.5 7t-12.5 33t14 41t40 18q21 0 32 -13t11 -35q0 -27 -8 -53t-21.5 -48.5t-32.5 -39.5t-40 -26z" />
<glyph unicode="&#x138;" horiz-adv-x="407" d="M125 124l-19 -124h-80l77 487h79l-43 -261l202 261h91l-179 -215l104 -272h-87l-75 208z" />
<glyph unicode="&#x139;" horiz-adv-x="468" d="M38 0zM130 73h290l-12 -73h-370l110 700h81zM243 902h93l-1 -6l-103 -109h-67v4z" />
<glyph unicode="&#x13a;" horiz-adv-x="208" d="M29 0zM117 109q-7 -41 28 -41h28l-10 -68h-47q-41 0 -64 22t-15 75l95 603h78zM231 902h93l-1 -6l-103 -109h-67v4z" />
<glyph unicode="&#x13b;" horiz-adv-x="468" d="M38 0zM130 73h290l-12 -73h-370l110 700h81zM153 -280l-18 31q23 14 42.5 36t23.5 49q-18 -3 -30.5 7t-12.5 33t14 41t40 18q21 0 32 -13t11 -35q0 -27 -8 -53t-21.5 -48.5t-32.5 -39.5t-40 -26z" />
<glyph unicode="&#x13c;" horiz-adv-x="208" d="M0 0zM117 109q-7 -41 28 -41h28l-10 -68h-47q-41 0 -64 22t-15 75l95 603h78zM-3 -280l-18 31q23 14 42.5 36t23.5 49q-18 -3 -30.5 7t-12.5 33t14 41t40 18q21 0 32 -13t11 -35q0 -27 -8 -53t-21.5 -48.5t-32.5 -39.5t-40 -26z" />
<glyph unicode="&#x13d;" horiz-adv-x="468" d="M38 0zM385 483h-55l39 218h73zM130 73h290l-12 -73h-370l110 700h81z" />
<glyph unicode="&#x13e;" horiz-adv-x="262" d="M30 0zM288 483h-55l39 218h73zM118 109q-7 -41 28 -41h28l-10 -68h-47q-41 0 -64 22t-15 75l95 603h78z" />
<glyph unicode="&#x13f;" horiz-adv-x="468" d="M38 0zM130 73h290l-12 -73h-370l110 700h81zM316 348q0 30 15 47.5t41 17.5q43 0 43 -46q0 -30 -15.5 -46.5t-41.5 -16.5q-22 0 -32 12t-10 32z" />
<glyph unicode="&#x140;" horiz-adv-x="293" d="M30 0zM118 109q-7 -41 28 -41h28l-10 -68h-47q-41 0 -64 22t-15 75l95 603h78zM214 296q0 30 15 47.5t41 17.5q43 0 43 -46q0 -30 -15.5 -46.5t-41.5 -16.5q-22 0 -32 12t-10 32z" />
<glyph unicode="&#x141;" horiz-adv-x="482" d="M145 73h290l-12 -73h-371l41 254l-85 -68l13 79l83 66l59 369h81l-48 -313l145 112l-13 -81l-145 -110z" />
<glyph unicode="&#x142;" horiz-adv-x="232" d="M181 0h-47q-41 0 -64 22t-15 75l26 165l-79 -74l13 78l78 74l57 360h78l-45 -286l86 82l-13 -79l-85 -81l-36 -227q-7 -41 28 -41h28z" />
<glyph unicode="&#x143;" horiz-adv-x="584" d="M38 0zM387 0l-189 547l-85 -547h-75l111 700h78l188 -548l85 548h74l-111 -700h-76zM415 903h93l-1 -6l-103 -109h-67v4z" />
<glyph unicode="&#x144;" horiz-adv-x="469" d="M26 0zM26 0l77 487h68l-8 -95q30 58 69 82.5t81 24.5q57 0 84.5 -33t27.5 -94q0 -14 -1.5 -28t-3.5 -29l-49 -315h-78l49 303q2 13 2.5 24.5t0.5 21.5q0 42 -16 61.5t-49 19.5q-47 0 -85 -49t-51 -136l-39 -245h-79zM321 689h93l-1 -6l-103 -109h-67v4z" />
<glyph unicode="&#x145;" horiz-adv-x="584" d="M38 0zM387 0l-189 547l-85 -547h-75l111 700h78l188 -548l85 548h74l-111 -700h-76zM184 -280l-18 31q23 14 42.5 36t23.5 49q-18 -3 -30.5 7t-12.5 33t14 41t40 18q21 0 32 -13t11 -35q0 -27 -8 -53t-21.5 -48.5t-32.5 -39.5t-40 -26z" />
<glyph unicode="&#x146;" horiz-adv-x="469" d="M26 0zM26 0l77 487h68l-8 -95q30 58 69 82.5t81 24.5q57 0 84.5 -33t27.5 -94q0 -14 -1.5 -28t-3.5 -29l-49 -315h-78l49 303q2 13 2.5 24.5t0.5 21.5q0 42 -16 61.5t-49 19.5q-47 0 -85 -49t-51 -136l-39 -245h-79zM127 -280l-18 31q23 14 42.5 36t23.5 49 q-18 -3 -30.5 7t-12.5 33t14 41t40 18q21 0 32 -13t11 -35q0 -27 -8 -53t-21.5 -48.5t-32.5 -39.5t-40 -26z" />
<glyph unicode="&#x147;" horiz-adv-x="584" d="M38 0zM387 0l-189 547l-85 -547h-75l111 700h78l188 -548l85 548h74l-111 -700h-76zM341 788l-71 113v2h76l34 -67l63 67h77v-2l-109 -113h-70z" />
<glyph unicode="&#x148;" horiz-adv-x="469" d="M26 0zM26 0l77 487h68l-8 -95q30 58 69 82.5t81 24.5q57 0 84.5 -33t27.5 -94q0 -14 -1.5 -28t-3.5 -29l-49 -315h-78l49 303q2 13 2.5 24.5t0.5 21.5q0 42 -16 61.5t-49 19.5q-47 0 -85 -49t-51 -136l-39 -245h-79zM248 574l-71 113v2h76l34 -67l63 67h77v-2l-109 -113 h-70z" />
<glyph unicode="&#x14a;" horiz-adv-x="584" d="M380 -44l7 48l-190 544l-84 -548h-75l111 700h78l191 -550l83 550h75l-120 -754q-14 -86 -52.5 -123.5t-93.5 -37.5q-17 0 -33.5 2.5t-35.5 10.5l32 73q9 -5 17.5 -8t21.5 -3q25 0 42.5 19.5t25.5 76.5z" />
<glyph unicode="&#x14b;" horiz-adv-x="469" d="M363 -58q-13 -84 -52.5 -120.5t-93.5 -36.5q-18 0 -35 2.5t-36 10.5l33 73q11 -5 19 -8t19 -3q26 0 43 20.5t26 75.5l55 347q2 13 3 25t1 22q0 80 -65 80q-47 0 -85 -49t-51 -136l-38 -245h-80l77 487h68l-8 -93q30 57 69 81t81 24q57 0 84.5 -33t27.5 -94q0 -14 -1 -28 t-3 -29z" />
<glyph unicode="&#x14c;" horiz-adv-x="581" d="M57 0zM358 712q100 0 146.5 -53.5t46.5 -173.5q0 -29 -2 -62.5t-8 -71.5q-14 -96 -39 -164.5t-60.5 -113t-83 -65t-106.5 -20.5q-99 0 -147 54.5t-48 175.5q0 29 3.5 62t8.5 71q14 96 38.5 164.5t60.5 112t83 64t107 20.5zM350 642q-38 0 -69.5 -13.5t-56 -47t-43.5 -90 t-32 -141.5q-12 -78 -12 -132q0 -90 31.5 -126t88.5 -36q38 0 69 14t56 48t44 91t33 143q6 38 8.5 70.5t2.5 58.5q0 45 -8 76t-23 50t-37.5 27t-51.5 8zM477 873l-9 -58h-194l9 58h194z" />
<glyph unicode="&#x14d;" horiz-adv-x="442" d="M35 0zM35 162q0 18 2 39t5 44q20 133 75 193.5t141 60.5q74 0 111.5 -40.5t37.5 -130.5q0 -18 -2 -38.5t-6 -44.5q-19 -132 -73 -194.5t-142 -62.5q-72 0 -110.5 41.5t-38.5 132.5zM190 54q52 0 84 43t49 147q4 24 6.5 44.5t2.5 37.5q0 58 -20.5 81.5t-62.5 23.5 q-27 0 -47.5 -10t-36 -32t-27 -57.5t-19.5 -87.5q-4 -26 -6 -47t-2 -38q0 -57 19.5 -81t59.5 -24zM381 659l-9 -58h-194l9 58h194z" />
<glyph unicode="&#x14e;" horiz-adv-x="581" d="M57 0zM358 712q100 0 146.5 -53.5t46.5 -173.5q0 -29 -2 -62.5t-8 -71.5q-14 -96 -39 -164.5t-60.5 -113t-83 -65t-106.5 -20.5q-99 0 -147 54.5t-48 175.5q0 29 3.5 62t8.5 71q14 96 38.5 164.5t60.5 112t83 64t107 20.5zM350 642q-38 0 -69.5 -13.5t-56 -47t-43.5 -90 t-32 -141.5q-12 -78 -12 -132q0 -90 31.5 -126t88.5 -36q38 0 69 14t56 48t44 91t33 143q6 38 8.5 70.5t2.5 58.5q0 45 -8 76t-23 50t-37.5 27t-51.5 8zM441 903h54q-11 -69 -43.5 -95t-85.5 -26q-26 0 -45.5 6t-31.5 20t-16 37t1 58h55q-7 -38 4 -52t39 -14q29 0 45.5 14 t23.5 52z" />
<glyph unicode="&#x14f;" horiz-adv-x="442" d="M35 0zM35 162q0 18 2 39t5 44q20 133 75 193.5t141 60.5q74 0 111.5 -40.5t37.5 -130.5q0 -18 -2 -38.5t-6 -44.5q-19 -132 -73 -194.5t-142 -62.5q-72 0 -110.5 41.5t-38.5 132.5zM190 54q52 0 84 43t49 147q4 24 6.5 44.5t2.5 37.5q0 58 -20.5 81.5t-62.5 23.5 q-27 0 -47.5 -10t-36 -32t-27 -57.5t-19.5 -87.5q-4 -26 -6 -47t-2 -38q0 -57 19.5 -81t59.5 -24zM344 689h54q-11 -69 -43.5 -95t-85.5 -26q-26 0 -45.5 6t-31.5 20t-16 37t1 58h55q-7 -38 4 -52t39 -14q29 0 45.5 14t23.5 52z" />
<glyph unicode="&#x150;" horiz-adv-x="581" d="M57 0zM358 712q100 0 146.5 -53.5t46.5 -173.5q0 -29 -2 -62.5t-8 -71.5q-14 -96 -39 -164.5t-60.5 -113t-83 -65t-106.5 -20.5q-99 0 -147 54.5t-48 175.5q0 29 3.5 62t8.5 71q14 96 38.5 164.5t60.5 112t83 64t107 20.5zM350 642q-38 0 -69.5 -13.5t-56 -47t-43.5 -90 t-32 -141.5q-12 -78 -12 -132q0 -90 31.5 -126t88.5 -36q38 0 69 14t56 48t44 91t33 143q6 38 8.5 70.5t2.5 58.5q0 45 -8 76t-23 50t-37.5 27t-51.5 8zM487 903h93l-1 -6l-113 -109h-57v4zM345 903h93l-1 -6l-112 -109h-58v4z" />
<glyph unicode="&#x151;" horiz-adv-x="441" d="M35 0zM35 162q0 18 2 39t5 44q20 133 75 193.5t141 60.5q74 0 111.5 -40.5t37.5 -130.5q0 -18 -2 -38.5t-6 -44.5q-19 -132 -73 -194.5t-142 -62.5q-72 0 -110.5 41.5t-38.5 132.5zM190 54q52 0 84 43t49 147q4 24 6.5 44.5t2.5 37.5q0 58 -20.5 81.5t-62.5 23.5 q-27 0 -47.5 -10t-36 -32t-27 -57.5t-19.5 -87.5q-4 -26 -6 -47t-2 -38q0 -57 19.5 -81t59.5 -24zM383 689h93l-1 -6l-113 -109h-57v4zM241 689h93l-1 -6l-112 -109h-58v4z" />
<glyph unicode="&#x152;" horiz-adv-x="815" d="M264 0q-104 0 -154 56.5t-50 178.5q0 50 9 113q25 181 97.5 266.5t195.5 85.5h481l-12 -71h-294l-36 -239h256l-12 -75h-257l-37 -243h301l-12 -72h-476zM268 71h104l86 557h-99q-40 0 -73 -14t-59.5 -46t-45.5 -85t-31 -132q-5 -29 -7.5 -59t-2.5 -56q0 -88 33 -126.5 t95 -38.5z" />
<glyph unicode="&#x153;" horiz-adv-x="697" d="M185 -12q-150 0 -150 175q0 37 6 81q19 128 74 191.5t143 63.5q47 0 78.5 -24.5t45.5 -75.5q30 52 69 76t87 24q34 0 58.5 -12.5t40.5 -34.5t23.5 -52.5t7.5 -67.5q0 -27 -4 -55.5t-10 -57.5h-258q-1 -14 -1.5 -26.5t-0.5 -23.5q0 -63 21.5 -89.5t59.5 -26.5 q35 0 60.5 21.5t46.5 63.5l59 -33q-13 -22 -27.5 -43t-35 -37.5t-48 -26.5t-66.5 -10q-48 0 -81 22t-47 75q-28 -48 -66.5 -72.5t-84.5 -24.5zM530 433q-43 0 -74 -34.5t-48 -116.5h184q2 15 3 29t1 27q0 51 -17.5 73t-48.5 22zM324 243q4 24 6 44.5t2 37.5q0 57 -20 82.5 t-62 25.5q-54 0 -86 -45t-47 -145q-4 -23 -5.5 -43t-1.5 -37q0 -57 19 -83t61 -26q54 0 85.5 44.5t48.5 144.5z" />
<glyph unicode="&#x154;" horiz-adv-x="508" d="M38 0zM173 340h115q36 0 63 14.5t45 40t27 59t9 72.5q0 52 -24 77.5t-75 25.5h-114zM161 268l-42 -268h-81l111 700h193q85 0 128 -41.5t43 -118.5q0 -102 -38.5 -165t-108.5 -91l72 -284h-86l-63 268h-128zM387 902h93l-1 -6l-103 -109h-67v4z" />
<glyph unicode="&#x155;" horiz-adv-x="292" d="M26 0zM26 0l77 487h68l-9 -104q29 63 70.5 92t86.5 24l-13 -82q-63 8 -105 -38.5t-59 -142.5l-37 -236h-79zM289 689h93l-1 -6l-103 -109h-67v4z" />
<glyph unicode="&#x156;" horiz-adv-x="508" d="M38 0zM173 340h115q36 0 63 14.5t45 40t27 59t9 72.5q0 52 -24 77.5t-75 25.5h-114zM161 268l-42 -268h-81l111 700h193q85 0 128 -41.5t43 -118.5q0 -102 -38.5 -165t-108.5 -91l72 -284h-86l-63 268h-128zM161 -280l-18 31q23 14 42.5 36t23.5 49q-18 -3 -30.5 7 t-12.5 33t14 41t40 18q21 0 32 -13t11 -35q0 -27 -8 -53t-21.5 -48.5t-32.5 -39.5t-40 -26z" />
<glyph unicode="&#x157;" horiz-adv-x="294" d="M0 0zM29 0l77 487h68l-9 -104q29 63 70.5 92t86.5 24l-13 -82q-63 8 -105 -38.5t-59 -142.5l-37 -236h-79zM-1 -280l-18 31q23 14 42.5 36t23.5 49q-18 -3 -30.5 7t-12.5 33t14 41t40 18q21 0 32 -13t11 -35q0 -27 -8 -53t-21.5 -48.5t-32.5 -39.5t-40 -26z" />
<glyph unicode="&#x158;" horiz-adv-x="508" d="M38 0zM173 340h115q36 0 63 14.5t45 40t27 59t9 72.5q0 52 -24 77.5t-75 25.5h-114zM161 268l-42 -268h-81l111 700h193q85 0 128 -41.5t43 -118.5q0 -102 -38.5 -165t-108.5 -91l72 -284h-86l-63 268h-128zM313 787l-71 113v2h76l34 -67l63 67h77v-2l-109 -113h-70z" />
<glyph unicode="&#x159;" horiz-adv-x="291" d="M26 0zM26 0l77 487h68l-9 -104q29 63 70.5 92t86.5 24l-13 -82q-63 8 -105 -38.5t-59 -142.5l-37 -236h-79zM212 574l-71 113v2h76l34 -67l63 67h77v-2l-109 -113h-70z" />
<glyph unicode="&#x15a;" horiz-adv-x="460" d="M0 0zM455 536l-71 -25q-8 69 -36.5 100.5t-79.5 31.5q-54 0 -83 -33.5t-29 -82.5q0 -39 19 -68t61 -52l38 -21q68 -38 99 -82t31 -108q0 -48 -15 -86.5t-42.5 -65.5t-66 -41.5t-86.5 -14.5q-78 0 -131 44t-67 137l73 29q5 -69 39.5 -106t93.5 -37q57 0 90 34.5t33 92.5 q0 47 -22 76.5t-68 55.5l-34 19q-60 33 -91 78.5t-31 105.5q0 37 12 72.5t37 62.5t62.5 43.5t88.5 16.5q81 0 125 -47.5t51 -128.5zM338 899h93l-1 -6l-103 -109h-67v4z" />
<glyph unicode="&#x15b;" horiz-adv-x="356" d="M0 0zM-3 119l69 29q6 -49 29 -73.5t61 -24.5t60 22t22 56q0 23 -11.5 42t-42.5 34l-31 15q-48 23 -73.5 56.5t-25.5 82.5q0 64 42 103.5t111 39.5q57 0 92 -29t50 -93l-68 -27q-7 35 -25.5 60t-56.5 25q-32 0 -53 -19t-21 -50q0 -23 13.5 -41.5t45.5 -35.5l30 -15 q20 -10 38 -22.5t31.5 -29t21.5 -38t8 -49.5q0 -30 -10.5 -57.5t-30.5 -47.5t-50.5 -32t-69.5 -12q-72 0 -108 36.5t-47 94.5zM269 688h93l-1 -6l-103 -109h-67v4z" />
<glyph unicode="&#x15c;" horiz-adv-x="460" d="M0 0zM455 536l-71 -25q-8 69 -36.5 100.5t-79.5 31.5q-54 0 -83 -33.5t-29 -82.5q0 -39 19 -68t61 -52l38 -21q68 -38 99 -82t31 -108q0 -48 -15 -86.5t-42.5 -65.5t-66 -41.5t-86.5 -14.5q-78 0 -131 44t-67 137l73 29q5 -69 39.5 -106t93.5 -37q57 0 90 34.5t33 92.5 q0 47 -22 76.5t-68 55.5l-34 19q-60 33 -91 78.5t-31 105.5q0 37 12 72.5t37 62.5t62.5 43.5t88.5 16.5q81 0 125 -47.5t51 -128.5zM277 899h70l72 -112v-3h-74l-39 70l-60 -70h-77v3z" />
<glyph unicode="&#x15d;" horiz-adv-x="356" d="M0 0zM-3 119l69 29q6 -49 29 -73.5t61 -24.5t60 22t22 56q0 23 -11.5 42t-42.5 34l-31 15q-48 23 -73.5 56.5t-25.5 82.5q0 64 42 103.5t111 39.5q57 0 92 -29t50 -93l-68 -27q-7 35 -25.5 60t-56.5 25q-32 0 -53 -19t-21 -50q0 -23 13.5 -41.5t45.5 -35.5l30 -15 q20 -10 38 -22.5t31.5 -29t21.5 -38t8 -49.5q0 -30 -10.5 -57.5t-30.5 -47.5t-50.5 -32t-69.5 -12q-72 0 -108 36.5t-47 94.5zM208 688h70l72 -112v-3h-74l-39 70l-60 -70h-77v3z" />
<glyph unicode="&#x15e;" horiz-adv-x="460" d="M140 -239q-32 0 -59.5 14.5t-38.5 49.5l49 27q10 -42 50 -42q22 0 33 14t11 33q0 21 -14 30.5t-31 4.5l-13 13l30 86q-63 9 -106 53t-55 125l73 29q5 -69 39.5 -106t93.5 -37q57 0 90 34.5t33 92.5q0 47 -22 76.5t-68 55.5l-34 19q-60 33 -91 78.5t-31 105.5 q0 37 12 72.5t37 62.5t62.5 43.5t88.5 16.5q81 0 125 -47.5t51 -128.5l-71 -25q-8 69 -36.5 100.5t-79.5 31.5q-54 0 -83 -33.5t-29 -82.5q0 -39 19 -68t61 -52l38 -21q68 -38 99 -82t31 -108q0 -93 -53 -148t-144 -60l-22 -56q23 -1 39.5 -19t16.5 -53q0 -25 -8 -43.5 t-22 -31t-32.5 -18.5t-38.5 -6z" />
<glyph unicode="&#x15f;" horiz-adv-x="356" d="M103 -235q-32 0 -59.5 14.5t-38.5 49.5l49 27q10 -42 50 -42q22 0 33 14t11 33q0 21 -14 30.5t-31 4.5l-13 13l29 81q-56 9 -84 43.5t-38 85.5l69 29q6 -49 29 -73.5t61 -24.5t60 22t22 56q0 23 -11.5 42t-42.5 34l-31 15q-48 23 -73.5 56.5t-25.5 82.5q0 64 42 103.5 t111 39.5q57 0 92 -29t50 -93l-68 -27q-7 35 -25.5 60t-56.5 25q-32 0 -53 -19t-21 -50q0 -23 13.5 -41.5t45.5 -35.5l30 -15q20 -10 38 -22.5t31.5 -29t21.5 -38t8 -49.5q0 -29 -9.5 -55t-27.5 -46t-45 -32.5t-62 -14.5l-21 -53q23 -1 39.5 -19t16.5 -53q0 -25 -8 -43.5 t-22 -31t-32.5 -18.5t-38.5 -6z" />
<glyph unicode="&#x160;" horiz-adv-x="460" d="M0 0zM455 536l-71 -25q-8 69 -36.5 100.5t-79.5 31.5q-54 0 -83 -33.5t-29 -82.5q0 -39 19 -68t61 -52l38 -21q68 -38 99 -82t31 -108q0 -48 -15 -86.5t-42.5 -65.5t-66 -41.5t-86.5 -14.5q-78 0 -131 44t-67 137l73 29q5 -69 39.5 -106t93.5 -37q57 0 90 34.5t33 92.5 q0 47 -22 76.5t-68 55.5l-34 19q-60 33 -91 78.5t-31 105.5q0 37 12 72.5t37 62.5t62.5 43.5t88.5 16.5q81 0 125 -47.5t51 -128.5zM265 784l-71 113v2h76l34 -67l63 67h77v-2l-109 -113h-70z" />
<glyph unicode="&#x161;" horiz-adv-x="356" d="M0 0zM-3 119l69 29q6 -49 29 -73.5t61 -24.5t60 22t22 56q0 23 -11.5 42t-42.5 34l-31 15q-48 23 -73.5 56.5t-25.5 82.5q0 64 42 103.5t111 39.5q57 0 92 -29t50 -93l-68 -27q-7 35 -25.5 60t-56.5 25q-32 0 -53 -19t-21 -50q0 -23 13.5 -41.5t45.5 -35.5l30 -15 q20 -10 38 -22.5t31.5 -29t21.5 -38t8 -49.5q0 -30 -10.5 -57.5t-30.5 -47.5t-50.5 -32t-69.5 -12q-72 0 -108 36.5t-47 94.5zM196 573l-71 113v2h76l34 -67l63 67h77v-2l-109 -113h-70z" />
<glyph unicode="&#x162;" horiz-adv-x="434" d="M65 0zM77 700h412l-11 -72h-166l-99 -628h-81l99 628h-166zM104 -280l-18 31q23 14 42.5 36t23.5 49q-18 -3 -30.5 7t-12.5 33t14 41t40 18q21 0 32 -13t11 -35q0 -27 -8 -53t-21.5 -48.5t-32.5 -39.5t-40 -26z" />
<glyph unicode="&#x163;" horiz-adv-x="288" d="M44 0zM67 -280l-18 31q23 14 42.5 36t23.5 49q-18 -3 -30.5 7t-12.5 33t14 41t40 18q21 0 32 -13t11 -35q0 -27 -8 -53t-21.5 -48.5t-32.5 -39.5t-40 -26zM223 75l6 -69q-13 -9 -30.5 -13t-31.5 -4q-52 0 -82.5 25t-30.5 82q0 13 2 26t4 25l44 275h-60l11 65h59l22 143 h79l-23 -143h101l-10 -65h-101l-43 -272q-7 -40 1.5 -64t37.5 -24q10 0 22.5 3.5t22.5 9.5z" />
<glyph unicode="&#x164;" horiz-adv-x="434" d="M65 0zM77 700h412l-11 -72h-166l-99 -628h-81l99 628h-166zM263 787l-71 113v2h76l34 -67l63 67h77v-2l-109 -113h-70z" />
<glyph unicode="&#x165;" horiz-adv-x="282" d="M299 555h-54l37 194h71zM223 75l6 -69q-13 -9 -30.5 -13t-31.5 -4q-52 0 -82.5 25t-30.5 82q0 13 2 26t4 25l44 275h-60l11 65h59l22 143h79l-23 -143h101l-10 -65h-101l-43 -272q-7 -40 1.5 -64t37.5 -24q10 0 22.5 3.5t22.5 9.5z" />
<glyph unicode="&#x166;" horiz-adv-x="436" d="M63 379h130l39 249h-167l12 72h413l-11 -72h-166l-39 -249h129l-8 -56h-130l-51 -323h-81l51 323h-131z" />
<glyph unicode="&#x167;" horiz-adv-x="281" d="M229 75l6 -69q-14 -10 -33 -13.5t-37 -3.5q-48 0 -77.5 25t-29.5 84q0 9 1 20t3 22l21 131h-61l9 58h61l15 93h-61l10 65h61l23 143h77l-23 -143h105l-10 -65h-104l-16 -93h105l-9 -58h-104l-21 -126q-8 -47 5 -65t36 -18q25 0 48 13z" />
<glyph unicode="&#x168;" horiz-adv-x="561" d="M56 0zM409 230l74 470h80l-74 -469q-19 -121 -82.5 -182t-163.5 -61q-91 0 -139 46t-48 135q0 14 2 29.5t4 32.5l74 469h81l-75 -469q-2 -14 -3.5 -26t-1.5 -24q0 -59 27 -89.5t84 -30.5q64 0 105.5 39.5t55.5 129.5zM444 897h53q-2 -29 -10.5 -48t-20.5 -30.5t-26 -16.5 t-27 -5q-16 0 -28 6.5t-22.5 14t-20 14t-19.5 6.5q-13 0 -19.5 -11t-8.5 -26h-54q3 28 12 47.5t20.5 30.5t24.5 16t26 5q16 0 28.5 -6.5t23 -14t20 -14t19.5 -6.5q14 0 20.5 11t8.5 27z" />
<glyph unicode="&#x169;" horiz-adv-x="467" d="M44 0zM161 -12q-60 0 -88.5 35t-28.5 100q0 13 1 26.5t3 27.5l49 310h79l-48 -300q-2 -14 -2.5 -25.5t-0.5 -22.5q0 -84 66 -84q46 0 81 46t51 134l39 252h78l-78 -487h-66l8 88q-28 -54 -65.5 -77t-77.5 -23zM365 683h53q-2 -29 -10.5 -48t-20.5 -30.5t-26 -16.5t-27 -5 q-16 0 -28 6.5t-22.5 14t-20 14t-19.5 6.5q-13 0 -19.5 -11t-8.5 -26h-54q3 28 12 47.5t20.5 30.5t24.5 16t26 5q16 0 28.5 -6.5t23 -14t20 -14t19.5 -6.5q14 0 20.5 11t8.5 27z" />
<glyph unicode="&#x16a;" horiz-adv-x="561" d="M56 0zM409 230l74 470h80l-74 -469q-19 -121 -82.5 -182t-163.5 -61q-91 0 -139 46t-48 135q0 14 2 29.5t4 32.5l74 469h81l-75 -469q-2 -14 -3.5 -26t-1.5 -24q0 -59 27 -89.5t84 -30.5q64 0 105.5 39.5t55.5 129.5zM471 873l-9 -58h-194l9 58h194z" />
<glyph unicode="&#x16b;" horiz-adv-x="467" d="M44 0zM161 -12q-60 0 -88.5 35t-28.5 100q0 13 1 26.5t3 27.5l49 310h79l-48 -300q-2 -14 -2.5 -25.5t-0.5 -22.5q0 -84 66 -84q46 0 81 46t51 134l39 252h78l-78 -487h-66l8 88q-28 -54 -65.5 -77t-77.5 -23zM394 659l-9 -58h-194l9 58h194z" />
<glyph unicode="&#x16c;" horiz-adv-x="561" d="M56 0zM409 230l74 470h80l-74 -469q-19 -121 -82.5 -182t-163.5 -61q-91 0 -139 46t-48 135q0 14 2 29.5t4 32.5l74 469h81l-75 -469q-2 -14 -3.5 -26t-1.5 -24q0 -59 27 -89.5t84 -30.5q64 0 105.5 39.5t55.5 129.5zM435 903h54q-11 -69 -43.5 -95t-85.5 -26 q-26 0 -45.5 6t-31.5 20t-16 37t1 58h55q-7 -38 4 -52t39 -14q29 0 45.5 14t23.5 52z" />
<glyph unicode="&#x16d;" horiz-adv-x="467" d="M44 0zM161 -12q-60 0 -88.5 35t-28.5 100q0 13 1 26.5t3 27.5l49 310h79l-48 -300q-2 -14 -2.5 -25.5t-0.5 -22.5q0 -84 66 -84q46 0 81 46t51 134l39 252h78l-78 -487h-66l8 88q-28 -54 -65.5 -77t-77.5 -23zM356 689h54q-11 -69 -43.5 -95t-85.5 -26q-26 0 -45.5 6 t-31.5 20t-16 37t1 58h55q-7 -38 4 -52t39 -14q29 0 45.5 14t23.5 52z" />
<glyph unicode="&#x16e;" horiz-adv-x="561" d="M56 0zM409 230l74 470h80l-74 -469q-19 -121 -82.5 -182t-163.5 -61q-91 0 -139 46t-48 135q0 14 2 29.5t4 32.5l74 469h81l-75 -469q-2 -14 -3.5 -26t-1.5 -24q0 -59 27 -89.5t84 -30.5q64 0 105.5 39.5t55.5 129.5zM383 947q31 0 49.5 -20t18.5 -55q0 -47 -27 -77 t-66 -30q-31 0 -50 20.5t-19 56.5q0 21 6.5 40t18.5 33.5t29.5 23t39.5 8.5zM379 909q-25 0 -37.5 -20t-12.5 -43q0 -20 8.5 -31.5t24.5 -11.5q22 0 35.5 20.5t13.5 45.5q0 19 -9 29.5t-23 10.5z" />
<glyph unicode="&#x16f;" horiz-adv-x="467" d="M44 0zM161 -12q-60 0 -88.5 35t-28.5 100q0 13 1 26.5t3 27.5l49 310h79l-48 -300q-2 -14 -2.5 -25.5t-0.5 -22.5q0 -84 66 -84q46 0 81 46t51 134l39 252h78l-78 -487h-66l8 88q-28 -54 -65.5 -77t-77.5 -23zM305 733q31 0 49.5 -20t18.5 -55q0 -47 -27 -77t-66 -30 q-31 0 -50 20.5t-19 56.5q0 21 6.5 40t18.5 33.5t29.5 23t39.5 8.5zM301 695q-25 0 -37.5 -20t-12.5 -43q0 -20 8.5 -31.5t24.5 -11.5q22 0 35.5 20.5t13.5 45.5q0 19 -9 29.5t-23 10.5z" />
<glyph unicode="&#x170;" horiz-adv-x="561" d="M56 0zM409 230l74 470h80l-74 -469q-19 -121 -82.5 -182t-163.5 -61q-91 0 -139 46t-48 135q0 14 2 29.5t4 32.5l74 469h81l-75 -469q-2 -14 -3.5 -26t-1.5 -24q0 -59 27 -89.5t84 -30.5q64 0 105.5 39.5t55.5 129.5zM481 903h93l-1 -6l-113 -109h-57v4zM339 903h93 l-1 -6l-112 -109h-58v4z" />
<glyph unicode="&#x171;" horiz-adv-x="467" d="M44 0zM161 -12q-60 0 -88.5 35t-28.5 100q0 13 1 26.5t3 27.5l49 310h79l-48 -300q-2 -14 -2.5 -25.5t-0.5 -22.5q0 -84 66 -84q46 0 81 46t51 134l39 252h78l-78 -487h-66l8 88q-28 -54 -65.5 -77t-77.5 -23zM402 689h93l-1 -6l-113 -109h-57v4zM260 689h93l-1 -6 l-112 -109h-58v4z" />
<glyph unicode="&#x172;" horiz-adv-x="561" d="M279 -211q-17 0 -32.5 4.5t-27 15.5t-18.5 30t-5 48q1 32 11 57t25 44q-86 3 -131 48.5t-45 132.5q0 14 2 29.5t4 32.5l74 469h81l-75 -469q-2 -14 -3.5 -26t-1.5 -24q0 -59 27 -89.5t84 -30.5q64 0 105.5 39.5t55.5 129.5l74 470h80l-74 -469q-16 -101 -64 -160.5 t-123 -76.5q-24 -14 -37.5 -41t-14.5 -55q-1 -29 11.5 -39.5t28.5 -10.5q27 0 46 17l22 -49q-20 -14 -38 -20.5t-41 -6.5z" />
<glyph unicode="&#x173;" horiz-adv-x="467" d="M383 -184q-20 -14 -38 -20.5t-41 -6.5q-39 0 -61.5 22.5t-22.5 68.5q0 48 22.5 84.5t55.5 54.5l6 69q-28 -54 -65.5 -77t-77.5 -23q-60 0 -88.5 35t-28.5 100q0 13 1 26.5t3 27.5l49 310h79l-48 -300q-2 -14 -2.5 -25.5t-0.5 -22.5q0 -84 66 -84q46 0 81 46t51 134 l39 252h78l-78 -487h-6q-19 -2 -34 -12.5t-25.5 -25.5t-16 -33t-5.5 -35q0 -26 12 -36t27 -10q27 0 46 17z" />
<glyph unicode="&#x174;" horiz-adv-x="685" d="M74 0zM107 0l-33 700h81l18 -567l194 565h86l14 -559l199 561h79l-256 -700h-86l-16 562l-190 -562h-90zM403 902h70l72 -112v-3h-74l-39 70l-60 -70h-77v3z" />
<glyph unicode="&#x175;" horiz-adv-x="559" d="M43 0zM270 483h87l14 -384l136 388h77l-187 -487h-86l-14 377l-132 -377h-86l-36 487h79l14 -388zM304 689h70l72 -112v-3h-74l-39 70l-60 -70h-77v3z" />
<glyph unicode="&#x176;" horiz-adv-x="462" d="M70 0zM188 280l-118 420h89l82 -338l191 338h90l-253 -419l-44 -281h-81zM285 903h70l72 -112v-3h-74l-39 70l-60 -70h-77v3z" />
<glyph unicode="&#x177;" horiz-adv-x="393" d="M0 0zM92 -65l22 53l-69 499h82l45 -392l167 392h80l-263 -579q-17 -38 -36.5 -62t-40 -38t-41 -19t-39.5 -5q-17 0 -34 3.5t-34 11.5l31 66q13 -5 24.5 -6.5t22.5 -1.5q26 0 45 16t38 62zM226 689h70l72 -112v-3h-74l-39 70l-60 -70h-77v3z" />
<glyph unicode="&#x178;" horiz-adv-x="462" d="M70 0zM188 280l-118 420h89l82 -338l191 338h90l-253 -419l-44 -281h-81zM191 839q0 30 14.5 47.5t41.5 17.5q43 0 43 -46q0 -30 -15.5 -46.5t-41.5 -16.5q-22 0 -32 12t-10 32zM332 839q0 30 15 47.5t41 17.5q44 0 44 -46q0 -30 -15.5 -46.5t-41.5 -16.5q-23 0 -33 12 t-10 32z" />
<glyph unicode="&#x179;" horiz-adv-x="434" d="M0 0zM-24 0l10 64l398 565l-292 -2l12 73h380l-10 -64l-398 -566l312 3l-12 -73h-400zM342 902h93l-1 -6l-103 -109h-67v4z" />
<glyph unicode="&#x17a;" horiz-adv-x="364" d="M0 0zM-12 0l10 63l274 357h-213l10 67h296l-9 -63l-273 -358h223l-11 -66h-307zM271 689h93l-1 -6l-103 -109h-67v4z" />
<glyph unicode="&#x17b;" horiz-adv-x="434" d="M0 0zM-24 0l10 64l398 565l-292 -2l12 73h380l-10 -64l-398 -566l312 3l-12 -73h-400zM261 838q0 30 15 47.5t41 17.5q43 0 43 -46q0 -30 -15.5 -46.5t-41.5 -16.5q-22 0 -32 12t-10 32z" />
<glyph unicode="&#x17c;" horiz-adv-x="364" d="M0 0zM-12 0l10 63l274 357h-213l10 67h296l-9 -63l-273 -358h223l-11 -66h-307zM188 625q0 30 15 47.5t41 17.5q43 0 43 -46q0 -30 -15.5 -46.5t-41.5 -16.5q-22 0 -32 12t-10 32z" />
<glyph unicode="&#x17d;" horiz-adv-x="434" d="M0 0zM-24 0l10 64l398 565l-292 -2l12 73h380l-10 -64l-398 -566l312 3l-12 -73h-400zM268 787l-71 113v2h76l34 -67l63 67h77v-2l-109 -113h-70z" />
<glyph unicode="&#x17e;" horiz-adv-x="364" d="M0 0zM-12 0l10 63l274 357h-213l10 67h296l-9 -63l-273 -358h223l-11 -66h-307zM198 574l-71 113v2h76l34 -67l63 67h77v-2l-109 -113h-70z" />
<glyph unicode="&#x192;" horiz-adv-x="295" d="M20 -39l75 349h-65l14 61h63l17 78q17 81 53 125.5t99 44.5q20 0 39 -4.5t33 -11.5l-29 -69q-7 6 -18 10t-23 4q-24 0 -46 -22t-34 -82l-14 -73h102l-14 -61h-102l-74 -356q-19 -89 -58.5 -129t-93.5 -40q-16 0 -32 2.5t-29 9.5l28 69q9 -5 17.5 -7.5t20.5 -2.5 q23 0 40.5 22t30.5 83z" />
<glyph unicode="&#x218;" horiz-adv-x="460" d="M0 0zM455 536l-71 -25q-8 69 -36.5 100.5t-79.5 31.5q-54 0 -83 -33.5t-29 -82.5q0 -39 19 -68t61 -52l38 -21q68 -38 99 -82t31 -108q0 -48 -15 -86.5t-42.5 -65.5t-66 -41.5t-86.5 -14.5q-78 0 -131 44t-67 137l73 29q5 -69 39.5 -106t93.5 -37q57 0 90 34.5t33 92.5 q0 47 -22 76.5t-68 55.5l-34 19q-60 33 -91 78.5t-31 105.5q0 37 12 72.5t37 62.5t62.5 43.5t88.5 16.5q81 0 125 -47.5t51 -128.5zM111 -284l-18 31q23 14 42.5 36t23.5 49q-18 -3 -30.5 7t-12.5 33t14 41t40 18q21 0 32 -13t11 -35q0 -27 -8 -53t-21.5 -48.5t-32.5 -39.5 t-40 -26z" />
<glyph unicode="&#x219;" horiz-adv-x="356" d="M0 0zM-3 119l69 29q6 -49 29 -73.5t61 -24.5t60 22t22 56q0 23 -11.5 42t-42.5 34l-31 15q-48 23 -73.5 56.5t-25.5 82.5q0 64 42 103.5t111 39.5q57 0 92 -29t50 -93l-68 -27q-7 35 -25.5 60t-56.5 25q-32 0 -53 -19t-21 -50q0 -23 13.5 -41.5t45.5 -35.5l30 -15 q20 -10 38 -22.5t31.5 -29t21.5 -38t8 -49.5q0 -30 -10.5 -57.5t-30.5 -47.5t-50.5 -32t-69.5 -12q-72 0 -108 36.5t-47 94.5zM74 -280l-18 31q23 14 42.5 36t23.5 49q-18 -3 -30.5 7t-12.5 33t14 41t40 18q21 0 32 -13t11 -35q0 -27 -8 -53t-21.5 -48.5t-32.5 -39.5 t-40 -26z" />
<glyph unicode="&#x237;" horiz-adv-x="210" d="M20 -44l84 531h79l-86 -541q-13 -84 -52.5 -122.5t-92.5 -38.5q-19 0 -35.5 2.5t-34.5 10.5l32 73q10 -5 18 -8t19 -3q25 0 42.5 20t26.5 76z" />
<glyph unicode="&#x2c6;" horiz-adv-x="454" d="M217 689h70l72 -112v-3h-74l-39 70l-60 -70h-77v3z" />
<glyph unicode="&#x2c7;" horiz-adv-x="454" d="M193 574l-71 113v2h76l34 -67l63 67h77v-2l-109 -113h-70z" />
<glyph unicode="&#x2d8;" horiz-adv-x="454" d="M310 689h54q-11 -69 -43.5 -95t-85.5 -26q-26 0 -45.5 6t-31.5 20t-16 37t1 58h55q-7 -38 4 -52t39 -14q29 0 45.5 14t23.5 52z" />
<glyph unicode="&#x2d9;" horiz-adv-x="454" d="M196 625q0 30 15 47.5t41 17.5q43 0 43 -46q0 -30 -15.5 -46.5t-41.5 -16.5q-22 0 -32 12t-10 32z" />
<glyph unicode="&#x2da;" horiz-adv-x="454" d="M259 733q31 0 49.5 -20t18.5 -55q0 -47 -27 -77t-66 -30q-31 0 -50 20.5t-19 56.5q0 21 6.5 40t18.5 33.5t29.5 23t39.5 8.5zM255 695q-25 0 -37.5 -20t-12.5 -43q0 -20 8.5 -31.5t24.5 -11.5q22 0 35.5 20.5t13.5 45.5q0 19 -9 29.5t-23 10.5z" />
<glyph unicode="&#x2db;" horiz-adv-x="454" d="M289 -184q-20 -14 -38 -20.5t-41 -6.5q-39 0 -61.5 22.5t-22.5 68.5q0 34 12 62.5t31 49t43.5 32t49.5 11.5v-35q-19 -2 -34 -12.5t-25.5 -25.5t-16 -33t-5.5 -35q0 -26 12 -36t27 -10q27 0 46 17z" />
<glyph unicode="&#x2dc;" horiz-adv-x="454" d="M323 683h53q-2 -29 -10.5 -48t-20.5 -30.5t-26 -16.5t-27 -5q-16 0 -28 6.5t-22.5 14t-20 14t-19.5 6.5q-13 0 -19.5 -11t-8.5 -26h-54q3 28 12 47.5t20.5 30.5t24.5 16t26 5q16 0 28.5 -6.5t23 -14t20 -14t19.5 -6.5q14 0 20.5 11t8.5 27z" />
<glyph unicode="&#x2dd;" horiz-adv-x="454" d="M350 689h93l-1 -6l-113 -109h-57v4zM208 689h93l-1 -6l-112 -109h-58v4z" />
<glyph unicode="&#x1e80;" horiz-adv-x="685" d="M74 0zM107 0l-33 700h81l18 -567l194 565h86l14 -559l199 561h79l-256 -700h-86l-16 562l-190 -562h-90zM398 787l-72 109l1 6h93l38 -111v-4h-60z" />
<glyph unicode="&#x1e81;" horiz-adv-x="559" d="M43 0zM270 483h87l14 -384l136 388h77l-187 -487h-86l-14 377l-132 -377h-86l-36 487h79l14 -388zM300 575l-72 109l1 6h93l38 -111v-4h-60z" />
<glyph unicode="&#x1e82;" horiz-adv-x="685" d="M74 0zM107 0l-33 700h81l18 -567l194 565h86l14 -559l199 561h79l-256 -700h-86l-16 562l-190 -562h-90zM464 902h93l-1 -6l-103 -109h-67v4z" />
<glyph unicode="&#x1e83;" horiz-adv-x="559" d="M43 0zM270 483h87l14 -384l136 388h77l-187 -487h-86l-14 377l-132 -377h-86l-36 487h79l14 -388zM367 689h93l-1 -6l-103 -109h-67v4z" />
<glyph unicode="&#x1e84;" horiz-adv-x="685" d="M74 0zM107 0l-33 700h81l18 -567l194 565h86l14 -559l199 561h79l-256 -700h-86l-16 562l-190 -562h-90zM308 838q0 30 14.5 47.5t41.5 17.5q43 0 43 -46q0 -30 -15.5 -46.5t-41.5 -16.5q-22 0 -32 12t-10 32zM449 838q0 30 15 47.5t41 17.5q44 0 44 -46 q0 -30 -15.5 -46.5t-41.5 -16.5q-23 0 -33 12t-10 32z" />
<glyph unicode="&#x1e85;" horiz-adv-x="559" d="M43 0zM270 483h87l14 -384l136 388h77l-187 -487h-86l-14 377l-132 -377h-86l-36 487h79l14 -388zM218 625q0 30 14.5 47.5t41.5 17.5q43 0 43 -46q0 -30 -15.5 -46.5t-41.5 -16.5q-22 0 -32 12t-10 32zM359 625q0 30 15 47.5t41 17.5q44 0 44 -46q0 -30 -15.5 -46.5 t-41.5 -16.5q-23 0 -33 12t-10 32z" />
<glyph unicode="&#x2000;" horiz-adv-x="473" />
<glyph unicode="&#x2001;" horiz-adv-x="947" />
<glyph unicode="&#x2002;" horiz-adv-x="375" />
<glyph unicode="&#x2003;" horiz-adv-x="750" />
<glyph unicode="&#x2004;" horiz-adv-x="250" />
<glyph unicode="&#x2005;" horiz-adv-x="188" />
<glyph unicode="&#x2006;" horiz-adv-x="125" />
<glyph unicode="&#x2007;" horiz-adv-x="469" />
<glyph unicode="&#x2008;" horiz-adv-x="174" />
<glyph unicode="&#x2009;" horiz-adv-x="150" />
<glyph unicode="&#x200a;" horiz-adv-x="75" />
<glyph unicode="&#x200b;" horiz-adv-x="0" />
<glyph unicode="&#x2010;" horiz-adv-x="331" d="M298 289l-11 -69h-254l11 69h254z" />
<glyph unicode="&#x2011;" horiz-adv-x="331" d="M298 289l-11 -69h-254l11 69h254z" />
<glyph unicode="&#x2012;" horiz-adv-x="436" d="M405 289l-11 -69h-361l11 69h361z" />
<glyph unicode="&#x2013;" horiz-adv-x="436" d="M405 289l-11 -69h-361l11 69h361z" />
<glyph unicode="&#x2014;" horiz-adv-x="583" d="M552 289l-11 -69h-508l11 69h508z" />
<glyph unicode="&#x2015;" horiz-adv-x="801" d="M770 289l-11 -69h-726l11 69h726z" />
<glyph unicode="&#x2018;" horiz-adv-x="177" d="M178 736l17 -36q-29 -16 -48.5 -40t-24.5 -50q24 0 34.5 -12t10.5 -33q0 -26 -14.5 -45t-42.5 -19q-46 0 -46 51q0 24 6.5 50.5t20.5 52t35.5 47t51.5 34.5z" />
<glyph unicode="&#x2019;" horiz-adv-x="177" d="M85 486l-17 36q29 16 48.5 40t24.5 50q-24 0 -34.5 12t-10.5 33q0 26 14.5 45t42.5 19q46 0 46 -51q0 -24 -6.5 -50.5t-20.5 -52t-35.5 -47t-51.5 -34.5z" />
<glyph unicode="&#x201a;" horiz-adv-x="177" d="M0 -128l-17 36q29 15 48 38.5t24 49.5q-24 0 -34 12t-10 32q0 26 14 44.5t42 18.5q21 0 33 -12t12 -38q0 -23 -6.5 -49.5t-20 -51.5t-35 -46t-50.5 -34z" />
<glyph unicode="&#x201c;" horiz-adv-x="313" d="M188 737l17 -36q-29 -16 -48.5 -40t-24.5 -50q24 0 34.5 -12t10.5 -33q0 -26 -14.5 -45t-42.5 -19q-46 0 -46 51q0 24 6.5 50.5t20.5 52t35.5 47t51.5 34.5zM325 737l17 -36q-29 -16 -48.5 -40t-24.5 -50q24 0 34.5 -12t10.5 -33q0 -26 -14.5 -45t-42.5 -19q-46 0 -46 51 q0 24 6.5 50.5t20.5 52t35.5 47t51.5 34.5z" />
<glyph unicode="&#x201d;" horiz-adv-x="313" d="M89 484l-17 36q29 16 48.5 40t24.5 50q-24 0 -34.5 12t-10.5 33q0 26 14.5 45t42.5 19q46 0 46 -51q0 -24 -6.5 -50.5t-20.5 -52t-35.5 -47t-51.5 -34.5zM226 484l-17 36q29 16 48.5 40t24.5 50q-24 0 -34.5 12t-10.5 33q0 26 14.5 45t42.5 19q46 0 46 -51 q0 -24 -6.5 -50.5t-20.5 -52t-35.5 -47t-51.5 -34.5z" />
<glyph unicode="&#x201e;" horiz-adv-x="312" d="M0 -129l-17 36q29 15 48 38.5t24 49.5q-24 0 -34 12t-10 32q0 26 14 44.5t42 18.5q21 0 33 -12t12 -38q0 -23 -6.5 -49.5t-20 -51.5t-35 -46t-50.5 -34zM136 -129l-17 36q29 15 48 38.5t24 49.5q-24 0 -34 12t-10 32q0 26 14 44.5t42 18.5q21 0 33 -12t12 -38 q0 -23 -6.5 -49.5t-20 -51.5t-35 -46t-50.5 -34z" />
<glyph unicode="&#x2020;" horiz-adv-x="237" d="M212 532h-49l-38 -233h-65l38 233h-49l10 57h47l18 119h69l-21 -119h49z" />
<glyph unicode="&#x2021;" horiz-adv-x="237" d="M41 476h48l9 63h-48l10 58h48l16 111h69l-21 -111h50l-10 -58h-48l-10 -63h49l-9 -59h-49l-17 -118h-70l21 118h-48z" />
<glyph unicode="&#x2022;" horiz-adv-x="320" d="M295 344q0 -33 -10.5 -60.5t-29 -47.5t-43.5 -31t-55 -11q-53 0 -79.5 32.5t-26.5 84.5q0 33 10 60t28 47t43 31t55 11q52 0 80 -32.5t28 -83.5z" />
<glyph unicode="&#x2026;" horiz-adv-x="526" d="M461 61q0 -32 -15.5 -49t-42.5 -17q-22 0 -33 12.5t-11 32.5q0 29 14 47t43 18q45 0 45 -44zM287 61q0 -32 -15.5 -49t-42.5 -17q-22 0 -33 12.5t-11 32.5q0 29 14 47t43 18q45 0 45 -44zM113 61q0 -32 -15.5 -49t-42.5 -17q-22 0 -33 12.5t-11 32.5q0 29 14 47t43 18 q45 0 45 -44z" />
<glyph unicode="&#x202f;" horiz-adv-x="189" />
<glyph unicode="&#x2030;" horiz-adv-x="1098" d="M67 0zM649 418q54 0 79.5 -31.5t25.5 -100.5q0 -18 -2 -38t-5 -43q-17 -111 -55 -162t-104 -51q-54 0 -80 32t-26 101q0 18 2 37.5t5 42.5q17 112 54.5 162.5t105.5 50.5zM644 364q-33 0 -56 -35t-36 -123q-4 -26 -6 -46t-2 -37q0 -43 13 -60t37 -17q16 0 29.5 8t25 26.5 t20.5 49t16 75.5q4 24 6 44.5t2 37.5q0 42 -12.5 59.5t-36.5 17.5zM234 711q54 0 79.5 -31.5t25.5 -100.5q0 -18 -2 -38t-5 -43q-17 -111 -55 -162t-104 -51q-54 0 -80 32t-26 101q0 18 2 37.5t5 42.5q17 112 54.5 162.5t105.5 50.5zM229 657q-33 0 -56 -35t-36 -123 q-4 -26 -6 -46t-2 -37q0 -43 13 -60t37 -17q16 0 29.5 8t25 26.5t20.5 49t16 75.5q4 24 6 44.5t2 37.5q0 42 -12.5 59.5t-36.5 17.5zM968 418q54 0 79.5 -31.5t25.5 -100.5q0 -18 -2 -38t-5 -43q-17 -111 -55 -162t-104 -51q-54 0 -80 32t-26 101q0 18 2 37.5t5 42.5 q17 112 54.5 162.5t105.5 50.5zM963 364q-33 0 -56 -35t-36 -123q-4 -26 -6 -46t-2 -37q0 -43 13 -60t37 -17q16 0 29.5 8t25 26.5t20.5 49t16 75.5q4 24 6 44.5t2 37.5q0 42 -12.5 59.5t-36.5 17.5zM628 700l-365 -700h-72l364 700h73z" />
<glyph unicode="&#x2039;" horiz-adv-x="318" d="M144 0l-103 240l1 3l179 244h86l-183 -247l105 -240h-85z" />
<glyph unicode="&#x203a;" horiz-adv-x="318" d="M169 486l103 -240l-1 -3l-179 -244h-86l183 247l-105 240h85z" />
<glyph unicode="&#x2044;" horiz-adv-x="387" d="M432 700l-365 -700h-72l364 700h73z" />
<glyph unicode="&#x205f;" horiz-adv-x="236" />
<glyph unicode="&#x2070;" horiz-adv-x="330" d="M66 286zM233 712q54 0 79.5 -31.5t25.5 -100.5q0 -18 -2 -38t-5 -43q-17 -111 -55 -162t-104 -51q-54 0 -80 32t-26 101q0 18 2 37.5t5 42.5q17 112 54.5 162.5t105.5 50.5zM228 658q-33 0 -56 -35t-36 -123q-4 -26 -6 -46t-2 -37q0 -43 13 -60t37 -17q16 0 29.5 8 t25 26.5t20.5 49t16 75.5q4 24 6 44.5t2 37.5q0 42 -12.5 59.5t-36.5 17.5z" />
<glyph unicode="&#x2074;" horiz-adv-x="306" d="M44 294zM44 394l7 46l136 264h60l-131 -253h102l27 164h60l-26 -164h41l-9 -57h-41l-16 -100h-60l16 100h-166z" />
<glyph unicode="&#x2075;" horiz-adv-x="277" d="M34 286zM160 649l-26 -114q27 22 68 22q36 0 60 -23.5t24 -77.5q0 -38 -10 -69t-29 -53.5t-46 -35t-60 -12.5q-45 0 -72.5 22.5t-34.5 66.5l52 22q4 -31 20 -45t39 -14q38 0 58 31.5t20 78.5q0 29 -12.5 43t-35.5 14q-39 0 -66 -32l-40 20l48 211h195l-9 -55h-143z" />
<glyph unicode="&#x2076;" horiz-adv-x="311" d="M66 286zM336 636l-49 -25q-10 48 -51 48q-23 0 -39.5 -11.5t-28.5 -32.5t-20 -51t-14 -68q0 -1 -1 -6t-1 -6q14 31 37.5 49.5t55.5 18.5q37 0 59 -26t22 -76q0 -32 -8 -62t-24.5 -52.5t-41.5 -36t-58 -13.5q-51 0 -79.5 32.5t-28.5 105.5q0 31 6 72q31 216 164 216 q85 0 100 -76zM199 501q-29 0 -49 -29t-20 -70q0 -29 11.5 -46.5t35.5 -17.5q34 0 51 30.5t17 69.5q0 63 -46 63z" />
<glyph unicode="&#x2077;" horiz-adv-x="245" d="M74 294zM74 294q9 56 25.5 108t37.5 98t46 83.5t51 64.5l-156 -2l9 58h221l-9 -54q-57 -50 -96.5 -139.5t-59.5 -216.5h-69z" />
<glyph unicode="&#x2078;" horiz-adv-x="304" d="M57 286zM296 426q0 -61 -36 -100.5t-99 -39.5q-51 0 -77.5 27.5t-26.5 72.5q0 47 22 79t54 46q-15 11 -24 30t-9 45q0 25 8 47.5t23.5 40t39 28t54.5 10.5q44 0 67.5 -24t23.5 -66q0 -38 -16.5 -67.5t-44.5 -45.5q19 -11 30 -32.5t11 -50.5zM260 608q0 23 -10.5 37.5 t-33.5 14.5q-27 0 -43.5 -22t-16.5 -53q0 -20 10.5 -35t32.5 -15q23 0 42 20.5t19 52.5zM237 421q0 25 -13 42t-37 17q-30 0 -49 -24.5t-19 -60.5q0 -26 12 -42t37 -16q28 0 48.5 24t20.5 60z" />
<glyph unicode="&#x2079;" horiz-adv-x="310" d="M47 286zM182 494q32 0 52 29.5t20 71.5q0 29 -12 46.5t-33 17.5q-32 0 -50.5 -28t-18.5 -75q0 -29 10.5 -45.5t31.5 -16.5zM151 286q-42 0 -68.5 17t-35.5 54l47 30q13 -49 55 -49q24 0 41 11.5t28.5 33t19.5 51.5t14 67q0 1 0.5 6t0.5 6q-14 -32 -37 -51t-55 -19 q-38 0 -60 26.5t-22 76.5q0 33 8 63t24.5 53t41.5 36.5t60 13.5q51 0 78.5 -32t27.5 -104q0 -18 -2 -37.5t-5 -41.5q-33 -211 -161 -211z" />
<glyph unicode="&#x207a;" horiz-adv-x="237" d="M59 356zM160 356h-49l15 94h-67l7 49h67l15 95h49l-15 -95h66l-7 -49h-66z" />
<glyph unicode="&#x207b;" horiz-adv-x="237" d="M58 448zM248 501l-8 -53h-182l9 53h181z" />
<glyph unicode="&#x207c;" horiz-adv-x="237" d="M52 404zM255 545l-8 -55h-181l8 55h181zM241 458l-7 -54h-182l8 54h181z" />
<glyph unicode="&#x207d;" horiz-adv-x="164" d="M47 228zM156 279l-24 -51q-42 14 -63.5 52t-21.5 105q0 42 9 96q18 114 55.5 169t96.5 65l7 -54q-20 -4 -36 -15t-29 -32t-23.5 -55t-18.5 -83q-4 -26 -6 -47t-2 -38q0 -51 14.5 -76t41.5 -36z" />
<glyph unicode="&#x207e;" horiz-adv-x="164" d="M22 228zM81 664l24 51q42 -14 63.5 -52t21.5 -105q0 -42 -9 -96q-18 -114 -56 -169t-96 -65l-7 54q20 4 36 15t29 32t23.5 54.5t18.5 83.5q4 26 6 47t2 38q0 51 -14.5 76t-41.5 36z" />
<glyph unicode="&#x2080;" horiz-adv-x="311" d="M180 418q54 0 79.5 -31.5t25.5 -100.5q0 -18 -2 -38t-5 -43q-17 -111 -55 -162t-104 -51q-54 0 -80 32t-26 101q0 18 2 37.5t5 42.5q17 112 54.5 162.5t105.5 50.5zM175 364q-33 0 -56 -35t-36 -123q-4 -26 -6 -46t-2 -37q0 -43 13 -60t37 -17q16 0 29.5 8t25 26.5 t20.5 49t16 75.5q4 24 6 44.5t2 37.5q0 42 -12.5 59.5t-36.5 17.5z" />
<glyph unicode="&#x2081;" horiz-adv-x="173" d="M86 0h-63l52 327l-43 -32l-16 52l93 65h42z" />
<glyph unicode="&#x2082;" horiz-adv-x="260" d="M-19 0l8 49l136 161q30 35 43.5 60.5t13.5 50.5q0 19 -11 30t-31 11q-23 0 -41 -13t-35 -44l-44 23q23 50 57 70t76 20q47 0 70.5 -23.5t23.5 -63.5q0 -35 -18.5 -68t-61.5 -84l-103 -124l151 2l-8 -57h-226z" />
<glyph unicode="&#x2083;" horiz-adv-x="271" d="M-16 83l52 22q8 -61 57 -61q36 0 54.5 25.5t18.5 63.5q0 52 -49 52h-29l8 53h29q29 0 46 23.5t17 55.5q0 47 -46 47q-23 0 -40.5 -12t-29.5 -40l-46 23q37 83 131 83q47 0 70.5 -23.5t23.5 -64.5q0 -32 -16.5 -65t-48.5 -51q19 -10 29.5 -29t10.5 -48q0 -30 -9 -56.5 t-27 -46t-43.5 -31t-58.5 -11.5q-38 0 -67.5 21.5t-36.5 69.5z" />
<glyph unicode="&#x2084;" horiz-adv-x="296" d="M-9 100l7 46l136 264h60l-131 -253h102l27 164h60l-26 -164h41l-9 -57h-41l-16 -100h-60l16 100h-166z" />
<glyph unicode="&#x2085;" horiz-adv-x="277" d="M109 355l-26 -114q27 22 68 22q36 0 60 -23.5t24 -77.5q0 -38 -10 -69t-29 -53.5t-46 -35t-60 -12.5q-45 0 -72.5 22.5t-34.5 66.5l52 22q4 -31 20 -45t39 -14q38 0 58 31.5t20 78.5q0 29 -12.5 43t-35.5 14q-39 0 -66 -32l-40 20l48 211h195l-9 -55h-143z" />
<glyph unicode="&#x2086;" horiz-adv-x="294" d="M284 342l-49 -25q-10 48 -51 48q-23 0 -39.5 -11.5t-28.5 -32.5t-20 -51t-14 -68q0 -1 -1 -6t-1 -6q14 31 37.5 49.5t55.5 18.5q37 0 59 -26t22 -76q0 -32 -8 -62t-24.5 -52.5t-41.5 -36t-58 -13.5q-51 0 -79.5 32.5t-28.5 105.5q0 31 6 72q31 216 164 216q85 0 100 -76z M147 207q-29 0 -49 -29t-20 -70q0 -29 11.5 -46.5t35.5 -17.5q34 0 51 30.5t17 69.5q0 63 -46 63z" />
<glyph unicode="&#x2087;" horiz-adv-x="239" d="M23 0q9 56 25.5 108t37.5 98t46 83.5t51 64.5l-156 -2l9 58h221l-9 -54q-57 -50 -96.5 -139.5t-59.5 -216.5h-69z" />
<glyph unicode="&#x2088;" horiz-adv-x="294" d="M245 132q0 -61 -36 -100.5t-99 -39.5q-51 0 -77.5 27.5t-26.5 72.5q0 47 22 79t54 46q-15 11 -24 30t-9 45q0 25 8 47.5t23.5 40t39 28t54.5 10.5q44 0 67.5 -24t23.5 -66q0 -38 -16.5 -67.5t-44.5 -45.5q19 -11 30 -32.5t11 -50.5zM209 314q0 23 -10.5 37.5t-33.5 14.5 q-27 0 -43.5 -22t-16.5 -53q0 -20 10.5 -35t32.5 -15q23 0 42 20.5t19 52.5zM186 127q0 25 -13 42t-37 17q-30 0 -49 -24.5t-19 -60.5q0 -26 12 -42t37 -16q28 0 48.5 24t20.5 60z" />
<glyph unicode="&#x2089;" horiz-adv-x="293" d="M131 200q32 0 52 29.5t20 71.5q0 29 -12 46.5t-33 17.5q-32 0 -50.5 -28t-18.5 -75q0 -29 10.5 -45.5t31.5 -16.5zM100 -8q-42 0 -68.5 17t-35.5 54l47 30q13 -49 55 -49q24 0 41 11.5t28.5 33t19.5 51.5t14 67q0 1 0.5 6t0.5 6q-14 -32 -37 -51t-55 -19q-38 0 -60 26.5 t-22 76.5q0 33 8 63t24.5 53t41.5 36.5t60 13.5q51 0 78.5 -32t27.5 -104q0 -18 -2 -37.5t-5 -41.5q-33 -211 -161 -211z" />
<glyph unicode="&#x208a;" horiz-adv-x="237" d="M113 62h-49l15 94h-67l7 49h67l15 95h49l-15 -95h66l-7 -49h-66z" />
<glyph unicode="&#x208b;" horiz-adv-x="237" d="M201 207l-8 -53h-182l9 53h181z" />
<glyph unicode="&#x208c;" horiz-adv-x="237" d="M208 251l-8 -55h-181l8 55h181zM194 164l-7 -54h-182l8 54h181z" />
<glyph unicode="&#x208d;" horiz-adv-x="164" d="M109 -15l-24 -51q-42 14 -63.5 52t-21.5 105q0 42 9 96q18 114 55.5 169t96.5 65l7 -54q-20 -4 -36 -15t-29 -32t-23.5 -55t-18.5 -83q-4 -26 -6 -47t-2 -38q0 -51 14.5 -76t41.5 -36z" />
<glyph unicode="&#x208e;" horiz-adv-x="164" d="M34 370l24 51q42 -14 63.5 -52t21.5 -105q0 -42 -9 -96q-18 -114 -56 -169t-96 -65l-7 54q20 4 36 15t29 32t23.5 54.5t18.5 83.5q4 26 6 47t2 38q0 51 -14.5 76t-41.5 36z" />
<glyph unicode="&#x20ac;" horiz-adv-x="517" d="M485 145q-18 -45 -42 -75t-52.5 -48.5t-62 -26t-69.5 -7.5q-98 0 -144.5 60.5t-41.5 194.5h-66l10 66h60q2 14 4 29t4 28h-59l11 65h59q34 146 103.5 213.5t164.5 67.5q77 0 120.5 -40.5t52.5 -136.5l-77 -23q-5 73 -33.5 102t-75.5 29q-28 0 -53 -10.5t-47 -35 t-40.5 -65.5t-32.5 -101h217l-22 -65h-208q-3 -16 -5 -30.5t-3 -26.5h196l-23 -66h-178q-2 -52 4.5 -87.5t21 -58t36.5 -32.5t52 -10q47 0 87.5 28t66.5 99z" />
<glyph unicode="&#x2122;" horiz-adv-x="515" d="M85 700h187l-7 -45h-67l-40 -249h-48l40 249h-73zM254 406l46 294h52l36 -233l107 233h54l-47 -294h-46l33 196l-91 -196h-39l-31 193l-28 -193h-46z" />
<glyph unicode="&#x2153;" horiz-adv-x="630" d="M70 0zM344 83l52 22q8 -61 57 -61q36 0 54.5 25.5t18.5 63.5q0 52 -49 52h-29l8 53h29q29 0 46 23.5t17 55.5q0 47 -46 47q-23 0 -40.5 -12t-29.5 -40l-46 23q37 83 131 83q47 0 70.5 -23.5t23.5 -64.5q0 -32 -16.5 -65t-48.5 -51q19 -10 29.5 -29t10.5 -48 q0 -30 -9 -56.5t-27 -46t-43.5 -31t-58.5 -11.5q-38 0 -67.5 21.5t-36.5 69.5zM142 293h-63l52 327l-43 -32l-16 52l93 65h42zM507 700l-365 -700h-72l364 700h73z" />
<glyph unicode="&#x2154;" horiz-adv-x="726" d="M28 0zM439 83l52 22q8 -61 57 -61q36 0 54.5 25.5t18.5 63.5q0 52 -49 52h-29l8 53h29q29 0 46 23.5t17 55.5q0 47 -46 47q-23 0 -40.5 -12t-29.5 -40l-46 23q37 83 131 83q47 0 70.5 -23.5t23.5 -64.5q0 -32 -16.5 -65t-48.5 -51q19 -10 29.5 -29t10.5 -48 q0 -30 -9 -56.5t-27 -46t-43.5 -31t-58.5 -11.5q-38 0 -67.5 21.5t-36.5 69.5zM28 293l8 49l136 161q30 35 43.5 60.5t13.5 50.5q0 19 -11 30t-31 11q-23 0 -41 -13t-35 -44l-44 23q23 50 57 70t76 20q47 0 70.5 -23.5t23.5 -63.5q0 -35 -18.5 -68t-61.5 -84l-103 -124 l151 2l-8 -57h-226zM601 700l-365 -700h-72l364 700h73z" />
<glyph unicode="&#x2155;" horiz-adv-x="638" d="M70 0zM140 293h-63l52 327l-43 -32l-16 52l93 65h42zM469 355l-26 -114q27 22 68 22q36 0 60 -23.5t24 -77.5q0 -38 -10 -69t-29 -53.5t-46 -35t-60 -12.5q-45 0 -72.5 22.5t-34.5 66.5l52 22q4 -31 20 -45t39 -14q38 0 58 31.5t20 78.5q0 29 -12.5 43t-35.5 14 q-39 0 -66 -32l-40 20l48 211h195l-9 -55h-143zM507 700l-365 -700h-72l364 700h73z" />
<glyph unicode="&#x2156;" horiz-adv-x="729" d="M31 0zM31 293l8 49l136 161q30 35 43.5 60.5t13.5 50.5q0 19 -11 30t-31 11q-23 0 -41 -13t-35 -44l-44 23q23 50 57 70t76 20q47 0 70.5 -23.5t23.5 -63.5q0 -35 -18.5 -68t-61.5 -84l-103 -124l151 2l-8 -57h-226zM560 355l-26 -114q27 22 68 22q36 0 60 -23.5 t24 -77.5q0 -38 -10 -69t-29 -53.5t-46 -35t-60 -12.5q-45 0 -72.5 22.5t-34.5 66.5l52 22q4 -31 20 -45t39 -14q38 0 58 31.5t20 78.5q0 29 -12.5 43t-35.5 14q-39 0 -66 -32l-40 20l48 211h195l-9 -55h-143zM600 700l-365 -700h-72l364 700h73z" />
<glyph unicode="&#x2157;" horiz-adv-x="725" d="M36 0zM36 376l52 22q8 -61 57 -61q36 0 54.5 25.5t18.5 63.5q0 52 -49 52h-29l8 53h29q29 0 46 23.5t17 55.5q0 47 -46 47q-23 0 -40.5 -12t-29.5 -40l-46 23q37 83 131 83q47 0 70.5 -23.5t23.5 -64.5q0 -32 -16.5 -65t-48.5 -51q19 -10 29.5 -29t10.5 -48 q0 -30 -9 -56.5t-27 -46t-43.5 -31t-58.5 -11.5q-38 0 -67.5 21.5t-36.5 69.5zM557 355l-26 -114q27 22 68 22q36 0 60 -23.5t24 -77.5q0 -38 -10 -69t-29 -53.5t-46 -35t-60 -12.5q-45 0 -72.5 22.5t-34.5 66.5l52 22q4 -31 20 -45t39 -14q38 0 58 31.5t20 78.5 q0 29 -12.5 43t-35.5 14q-39 0 -66 -32l-40 20l48 211h195l-9 -55h-143zM596 700l-365 -700h-72l364 700h73z" />
<glyph unicode="&#x2158;" horiz-adv-x="750" d="M44 0zM581 355l-26 -114q27 22 68 22q36 0 60 -23.5t24 -77.5q0 -38 -10 -69t-29 -53.5t-46 -35t-60 -12.5q-45 0 -72.5 22.5t-34.5 66.5l52 22q4 -31 20 -45t39 -14q38 0 58 31.5t20 78.5q0 29 -12.5 43t-35.5 14q-39 0 -66 -32l-40 20l48 211h195l-9 -55h-143zM618 700 l-365 -700h-72l364 700h73zM44 394l7 46l136 264h60l-131 -253h102l27 164h60l-26 -164h41l-9 -57h-41l-16 -100h-60l16 100h-166z" />
<glyph unicode="&#x2159;" horiz-adv-x="654" d="M69 0zM139 293h-63l52 327l-43 -32l-16 52l93 65h42zM643 342l-49 -25q-10 48 -51 48q-23 0 -39.5 -11.5t-28.5 -32.5t-20 -51t-14 -68q0 -1 -1 -6t-1 -6q14 31 37.5 49.5t55.5 18.5q37 0 59 -26t22 -76q0 -32 -8 -62t-24.5 -52.5t-41.5 -36t-58 -13.5q-51 0 -79.5 32.5 t-28.5 105.5q0 31 6 72q31 216 164 216q85 0 100 -76zM506 207q-29 0 -49 -29t-20 -70q0 -29 11.5 -46.5t35.5 -17.5q34 0 51 30.5t17 69.5q0 63 -46 63zM507 700l-365 -700h-72l364 700h73z" />
<glyph unicode="&#x215a;" horiz-adv-x="741" d="M34 0zM160 648l-26 -114q27 22 68 22q36 0 60 -23.5t24 -77.5q0 -38 -10 -69t-29 -53.5t-46 -35t-60 -12.5q-45 0 -72.5 22.5t-34.5 66.5l52 22q4 -31 20 -45t39 -14q38 0 58 31.5t20 78.5q0 29 -12.5 43t-35.5 14q-39 0 -66 -32l-40 20l48 211h195l-9 -55h-143zM730 342 l-49 -25q-10 48 -51 48q-23 0 -39.5 -11.5t-28.5 -32.5t-20 -51t-14 -68q0 -1 -1 -6t-1 -6q14 31 37.5 49.5t55.5 18.5q37 0 59 -26t22 -76q0 -32 -8 -62t-24.5 -52.5t-41.5 -36t-58 -13.5q-51 0 -79.5 32.5t-28.5 105.5q0 31 6 72q31 216 164 216q85 0 100 -76zM593 207 q-29 0 -49 -29t-20 -70q0 -29 11.5 -46.5t35.5 -17.5q34 0 51 30.5t17 69.5q0 63 -46 63zM596 700l-365 -700h-72l364 700h73z" />
<glyph unicode="&#x215b;" horiz-adv-x="653" d="M70 0zM142 293h-63l52 327l-43 -32l-16 52l93 65h42zM603 132q0 -61 -36 -100.5t-99 -39.5q-51 0 -77.5 27.5t-26.5 72.5q0 47 22 79t54 46q-15 11 -24 30t-9 45q0 25 8 47.5t23.5 40t39 28t54.5 10.5q44 0 67.5 -24t23.5 -66q0 -38 -16.5 -67.5t-44.5 -45.5 q19 -11 30 -32.5t11 -50.5zM567 314q0 23 -10.5 37.5t-33.5 14.5q-27 0 -43.5 -22t-16.5 -53q0 -20 10.5 -35t32.5 -15q23 0 42 20.5t19 52.5zM544 127q0 25 -13 42t-37 17q-30 0 -49 -24.5t-19 -60.5q0 -26 12 -42t37 -16q28 0 48.5 24t20.5 60zM507 700l-365 -700h-72 l364 700h73z" />
<glyph unicode="&#x215c;" horiz-adv-x="738" d="M36 0zM36 376l52 22q8 -61 57 -61q36 0 54.5 25.5t18.5 63.5q0 52 -49 52h-29l8 53h29q29 0 46 23.5t17 55.5q0 47 -46 47q-23 0 -40.5 -12t-29.5 -40l-46 23q37 83 131 83q47 0 70.5 -23.5t23.5 -64.5q0 -32 -16.5 -65t-48.5 -51q19 -10 29.5 -29t10.5 -48 q0 -30 -9 -56.5t-27 -46t-43.5 -31t-58.5 -11.5q-38 0 -67.5 21.5t-36.5 69.5zM689 132q0 -61 -36 -100.5t-99 -39.5q-51 0 -77.5 27.5t-26.5 72.5q0 47 22 79t54 46q-15 11 -24 30t-9 45q0 25 8 47.5t23.5 40t39 28t54.5 10.5q44 0 67.5 -24t23.5 -66q0 -38 -16.5 -67.5 t-44.5 -45.5q19 -11 30 -32.5t11 -50.5zM653 314q0 23 -10.5 37.5t-33.5 14.5q-27 0 -43.5 -22t-16.5 -53q0 -20 10.5 -35t32.5 -15q23 0 42 20.5t19 52.5zM630 127q0 25 -13 42t-37 17q-30 0 -49 -24.5t-19 -60.5q0 -26 12 -42t37 -16q28 0 48.5 24t20.5 60zM596 700 l-365 -700h-72l364 700h73z" />
<glyph unicode="&#x215d;" horiz-adv-x="741" d="M34 0zM692 132q0 -61 -36 -100.5t-99 -39.5q-51 0 -77.5 27.5t-26.5 72.5q0 47 22 79t54 46q-15 11 -24 30t-9 45q0 25 8 47.5t23.5 40t39 28t54.5 10.5q44 0 67.5 -24t23.5 -66q0 -38 -16.5 -67.5t-44.5 -45.5q19 -11 30 -32.5t11 -50.5zM656 314q0 23 -10.5 37.5 t-33.5 14.5q-27 0 -43.5 -22t-16.5 -53q0 -20 10.5 -35t32.5 -15q23 0 42 20.5t19 52.5zM633 127q0 25 -13 42t-37 17q-30 0 -49 -24.5t-19 -60.5q0 -26 12 -42t37 -16q28 0 48.5 24t20.5 60zM160 648l-26 -114q27 22 68 22q36 0 60 -23.5t24 -77.5q0 -38 -10 -69t-29 -53.5 t-46 -35t-60 -12.5q-45 0 -72.5 22.5t-34.5 66.5l52 22q4 -31 20 -45t39 -14q38 0 58 31.5t20 78.5q0 29 -12.5 43t-35.5 14q-39 0 -66 -32l-40 20l48 211h195l-9 -55h-143zM597 700l-365 -700h-72l364 700h73z" />
<glyph unicode="&#x215e;" horiz-adv-x="686" d="M74 0zM637 132q0 -61 -36 -100.5t-99 -39.5q-51 0 -77.5 27.5t-26.5 72.5q0 47 22 79t54 46q-15 11 -24 30t-9 45q0 25 8 47.5t23.5 40t39 28t54.5 10.5q44 0 67.5 -24t23.5 -66q0 -38 -16.5 -67.5t-44.5 -45.5q19 -11 30 -32.5t11 -50.5zM601 314q0 23 -10.5 37.5 t-33.5 14.5q-27 0 -43.5 -22t-16.5 -53q0 -20 10.5 -35t32.5 -15q23 0 42 20.5t19 52.5zM578 127q0 25 -13 42t-37 17q-30 0 -49 -24.5t-19 -60.5q0 -26 12 -42t37 -16q28 0 48.5 24t20.5 60zM74 293q9 56 25.5 108t37.5 98t46 83.5t51 64.5l-156 -2l9 58h221l-9 -54 q-57 -50 -96.5 -139.5t-59.5 -216.5h-69zM543 700l-365 -700h-72l364 700h73z" />
<glyph unicode="&#x215f;" horiz-adv-x="638" d="M70 0zM142 293h-63l52 327l-43 -32l-16 52l93 65h42zM507 700l-365 -700h-72l364 700h73z" />
<glyph unicode="&#x2212;" horiz-adv-x="381" d="M347 343l-9 -65h-299l10 65h298z" />
<glyph unicode="&#x2248;" horiz-adv-x="380" d="M276 396q16 0 40 6t44 23l-10 -70q-19 -13 -44.5 -19.5t-45.5 -6.5t-35 5.5t-29 11.5t-28.5 11.5t-32.5 5.5q-16 0 -40.5 -5.5t-47.5 -22.5l12 70q18 14 43 20t45 6t36 -5.5t30 -12t29 -12t34 -5.5zM253 248q15 0 39 6t46 23l-11 -70q-19 -14 -44.5 -20.5t-46.5 -6.5 q-20 0 -35 5.5t-29 12t-28.5 12t-32.5 5.5q-17 0 -40.5 -5.5t-46.5 -22.5l12 70q18 13 42 19t44 6q21 0 37 -5.5t31 -11.5t30 -11.5t33 -5.5z" />
<glyph unicode="&#x2260;" horiz-adv-x="380" d="M325 204h-176l-58 -85h-61l61 85h-65l12 69h100l50 73h-139l11 69h177l59 87h60l-61 -87h63l-10 -69h-101l-51 -73h141z" />
<glyph unicode="&#x2264;" horiz-adv-x="442" d="M362 525l28 -59l-198 -133l154 -133l-44 -58l-202 172l6 40zM38 0l11 68h286l-11 -68h-286z" />
<glyph unicode="&#x2265;" horiz-adv-x="439" d="M111 142l-29 59l197 133l-154 133l47 58l200 -171l-6 -39zM335 68l-11 -68h-286l11 68h286z" />
<glyph unicode="&#x25fc;" horiz-adv-x="485" d="M0 485h485v-485h-485v485z" />
<glyph unicode="&#xf6c3;" horiz-adv-x="454" d="M160 -280l-18 31q23 14 42.5 36t23.5 49q-18 -3 -30.5 7t-12.5 33t14 41t40 18q21 0 32 -13t11 -35q0 -27 -8 -53t-21.5 -48.5t-32.5 -39.5t-40 -26z" />
<glyph horiz-adv-x="351" d="M26 -65l132 831h72l-132 -831h-72zM148 -65l132 831h71l-132 -831h-71z" />
<glyph horiz-adv-x="178" d="M175 488q-45 20 -66.5 64t-21.5 98q0 38 13 55t39 17q23 0 36.5 -13.5t13.5 -40.5q0 -29 -15 -42t-37 -11q1 -27 16.5 -51t44.5 -40z" />
<glyph horiz-adv-x="314" d="M175 487q-45 21 -66.5 64.5t-21.5 97.5q0 38 13 55t39 17q23 0 36.5 -13.5t13.5 -40.5q0 -29 -15 -42t-37 -11q1 -27 16.5 -51t44.5 -40zM312 487q-45 21 -66.5 64.5t-21.5 97.5q0 38 13.5 55t38.5 17q23 0 36.5 -13.5t13.5 -40.5q0 -29 -15 -42t-37 -11q2 -27 17 -51 t44 -40z" />
<glyph horiz-adv-x="459" d="M35 0zM185 54q45 0 80.5 44.5t50.5 143.5q6 43 6 74q0 62 -20.5 89t-56.5 27q-48 0 -79.5 -45t-47.5 -144q-4 -22 -5.5 -42.5t-1.5 -36.5q0 -110 74 -110zM296 79q-27 -45 -61 -68t-81 -23q-58 0 -88.5 43.5t-30.5 127.5q0 18 2 40t5 45q17 126 68 190.5t127 64.5 q42 0 71 -23t40 -68l19 79h64l-76 -487h-64zM381 -184q-20 -14 -38 -20.5t-41 -6.5q-39 0 -61.5 22.5t-22.5 68.5q0 34 12 62.5t31 49t43.5 32t49.5 11.5v-35q-19 -2 -34 -12.5t-25.5 -25.5t-16 -33t-5.5 -35q0 -26 12 -36t27 -10q27 0 46 17z" />
<glyph horiz-adv-x="459" d="M185 54q45 0 80.5 44.5t50.5 143.5q6 43 6 74q0 62 -20.5 89t-56.5 27q-48 0 -79.5 -45t-47.5 -144q-4 -22 -5.5 -42.5t-1.5 -36.5q0 -110 74 -110zM296 79q-27 -45 -61 -68t-81 -23q-58 0 -88.5 43.5t-30.5 127.5q0 18 2 40t5 45q17 126 68 190.5t127 64.5q42 0 71 -23 t40 -68l19 79h64l-76 -487h-64z" />
<glyph horiz-adv-x="459" d="M35 0zM185 54q45 0 80.5 44.5t50.5 143.5q6 43 6 74q0 62 -20.5 89t-56.5 27q-48 0 -79.5 -45t-47.5 -144q-4 -22 -5.5 -42.5t-1.5 -36.5q0 -110 74 -110zM296 79q-27 -45 -61 -68t-81 -23q-58 0 -88.5 43.5t-30.5 127.5q0 18 2 40t5 45q17 126 68 190.5t127 64.5 q42 0 71 -23t40 -68l19 79h64l-76 -487h-64zM241 575l-72 109l1 6h93l38 -111v-4h-60z" />
<glyph horiz-adv-x="459" d="M35 0zM185 54q45 0 80.5 44.5t50.5 143.5q6 43 6 74q0 62 -20.5 89t-56.5 27q-48 0 -79.5 -45t-47.5 -144q-4 -22 -5.5 -42.5t-1.5 -36.5q0 -110 74 -110zM296 79q-27 -45 -61 -68t-81 -23q-58 0 -88.5 43.5t-30.5 127.5q0 18 2 40t5 45q17 126 68 190.5t127 64.5 q42 0 71 -23t40 -68l19 79h64l-76 -487h-64zM305 689h93l-1 -6l-103 -109h-67v4z" />
<glyph horiz-adv-x="459" d="M35 0zM185 54q45 0 80.5 44.5t50.5 143.5q6 43 6 74q0 62 -20.5 89t-56.5 27q-48 0 -79.5 -45t-47.5 -144q-4 -22 -5.5 -42.5t-1.5 -36.5q0 -110 74 -110zM296 79q-27 -45 -61 -68t-81 -23q-58 0 -88.5 43.5t-30.5 127.5q0 18 2 40t5 45q17 126 68 190.5t127 64.5 q42 0 71 -23t40 -68l19 79h64l-76 -487h-64zM244 689h70l72 -112v-3h-74l-39 70l-60 -70h-77v3z" />
<glyph horiz-adv-x="459" d="M35 0zM185 54q45 0 80.5 44.5t50.5 143.5q6 43 6 74q0 62 -20.5 89t-56.5 27q-48 0 -79.5 -45t-47.5 -144q-4 -22 -5.5 -42.5t-1.5 -36.5q0 -110 74 -110zM296 79q-27 -45 -61 -68t-81 -23q-58 0 -88.5 43.5t-30.5 127.5q0 18 2 40t5 45q17 126 68 190.5t127 64.5 q42 0 71 -23t40 -68l19 79h64l-76 -487h-64zM154 625q0 30 14.5 47.5t41.5 17.5q43 0 43 -46q0 -30 -15.5 -46.5t-41.5 -16.5q-22 0 -32 12t-10 32zM295 625q0 30 15 47.5t41 17.5q44 0 44 -46q0 -30 -15.5 -46.5t-41.5 -16.5q-23 0 -33 12t-10 32z" />
<glyph horiz-adv-x="459" d="M35 0zM185 54q45 0 80.5 44.5t50.5 143.5q6 43 6 74q0 62 -20.5 89t-56.5 27q-48 0 -79.5 -45t-47.5 -144q-4 -22 -5.5 -42.5t-1.5 -36.5q0 -110 74 -110zM296 79q-27 -45 -61 -68t-81 -23q-58 0 -88.5 43.5t-30.5 127.5q0 18 2 40t5 45q17 126 68 190.5t127 64.5 q42 0 71 -23t40 -68l19 79h64l-76 -487h-64zM347 683h53q-2 -29 -10.5 -48t-20.5 -30.5t-26 -16.5t-27 -5q-16 0 -28 6.5t-22.5 14t-20 14t-19.5 6.5q-13 0 -19.5 -11t-8.5 -26h-54q3 28 12 47.5t20.5 30.5t24.5 16t26 5q16 0 28.5 -6.5t23 -14t20 -14t19.5 -6.5 q14 0 20.5 11t8.5 27z" />
<glyph horiz-adv-x="459" d="M35 0zM185 54q45 0 80.5 44.5t50.5 143.5q6 43 6 74q0 62 -20.5 89t-56.5 27q-48 0 -79.5 -45t-47.5 -144q-4 -22 -5.5 -42.5t-1.5 -36.5q0 -110 74 -110zM296 79q-27 -45 -61 -68t-81 -23q-58 0 -88.5 43.5t-30.5 127.5q0 18 2 40t5 45q17 126 68 190.5t127 64.5 q42 0 71 -23t40 -68l19 79h64l-76 -487h-64zM288 733q31 0 49.5 -20t18.5 -55q0 -47 -27 -77t-66 -30q-31 0 -50 20.5t-19 56.5q0 21 6.5 40t18.5 33.5t29.5 23t39.5 8.5zM284 695q-25 0 -37.5 -20t-12.5 -43q0 -20 8.5 -31.5t24.5 -11.5q22 0 35.5 20.5t13.5 45.5 q0 19 -9 29.5t-23 10.5z" />
<glyph horiz-adv-x="459" d="M35 0zM185 54q45 0 80.5 44.5t50.5 143.5q6 43 6 74q0 62 -20.5 89t-56.5 27q-48 0 -79.5 -45t-47.5 -144q-4 -22 -5.5 -42.5t-1.5 -36.5q0 -110 74 -110zM296 79q-27 -45 -61 -68t-81 -23q-58 0 -88.5 43.5t-30.5 127.5q0 18 2 40t5 45q17 126 68 190.5t127 64.5 q42 0 71 -23t40 -68l19 79h64l-76 -487h-64zM375 659l-9 -58h-194l9 58h194z" />
<glyph horiz-adv-x="459" d="M35 0zM185 54q45 0 80.5 44.5t50.5 143.5q6 43 6 74q0 62 -20.5 89t-56.5 27q-48 0 -79.5 -45t-47.5 -144q-4 -22 -5.5 -42.5t-1.5 -36.5q0 -110 74 -110zM296 79q-27 -45 -61 -68t-81 -23q-58 0 -88.5 43.5t-30.5 127.5q0 18 2 40t5 45q17 126 68 190.5t127 64.5 q42 0 71 -23t40 -68l19 79h64l-76 -487h-64zM339 689h54q-11 -69 -43.5 -95t-85.5 -26q-26 0 -45.5 6t-31.5 20t-16 37t1 58h55q-7 -38 4 -52t39 -14q29 0 45.5 14t23.5 52z" />
<glyph horiz-adv-x="463" d="M292 80q-29 -48 -65 -68.5t-74 -20.5q-57 0 -83.5 34.5t-26.5 95.5q0 14 1.5 27.5t3.5 27.5l48 311h79l-47 -302q-2 -14 -3 -26t-1 -23q0 -79 60 -79q48 0 83 47t51 136l40 247h78l-77 -488q-17 -108 -74.5 -161t-139.5 -53q-71 0 -107 32.5t-50 92.5l70 32 q11 -91 88 -91q54 0 89 38.5t46 115.5z" />
<glyph horiz-adv-x="463" d="M0 0zM292 80q-29 -48 -65 -68.5t-74 -20.5q-57 0 -83.5 34.5t-26.5 95.5q0 14 1.5 27.5t3.5 27.5l48 311h79l-47 -302q-2 -14 -3 -26t-1 -23q0 -79 60 -79q48 0 83 47t51 136l40 247h78l-77 -488q-17 -108 -74.5 -161t-139.5 -53q-71 0 -107 32.5t-50 92.5l70 32 q11 -91 88 -91q54 0 89 38.5t46 115.5zM318 689h93l-1 -6l-103 -109h-67v4z" />
<glyph horiz-adv-x="463" d="M0 0zM292 80q-29 -48 -65 -68.5t-74 -20.5q-57 0 -83.5 34.5t-26.5 95.5q0 14 1.5 27.5t3.5 27.5l48 311h79l-47 -302q-2 -14 -3 -26t-1 -23q0 -79 60 -79q48 0 83 47t51 136l40 247h78l-77 -488q-17 -108 -74.5 -161t-139.5 -53q-71 0 -107 32.5t-50 92.5l70 32 q11 -91 88 -91q54 0 89 38.5t46 115.5zM257 689h70l72 -112v-3h-74l-39 70l-60 -70h-77v3z" />
<glyph horiz-adv-x="465" d="M0 0zM292 80q-29 -48 -65 -68.5t-74 -20.5q-57 0 -83.5 34.5t-26.5 95.5q0 14 1.5 27.5t3.5 27.5l48 311h79l-47 -302q-2 -14 -3 -26t-1 -23q0 -79 60 -79q48 0 83 47t51 136l40 247h78l-77 -488q-17 -108 -74.5 -161t-139.5 -53q-71 0 -107 32.5t-50 92.5l70 32 q11 -91 88 -91q54 0 89 38.5t46 115.5zM166 625q0 30 14.5 47.5t41.5 17.5q43 0 43 -46q0 -30 -15.5 -46.5t-41.5 -16.5q-22 0 -32 12t-10 32zM307 625q0 30 15 47.5t41 17.5q44 0 44 -46q0 -30 -15.5 -46.5t-41.5 -16.5q-23 0 -33 12t-10 32z" />
<glyph horiz-adv-x="293" d="M244 456l43 -28q-21 -43 -54 -62t-71 -19q-53 0 -79 30.5t-26 95.5q0 12 1.5 25.5t3.5 30.5q15 95 53.5 139t96.5 44q48 0 72.5 -22t30.5 -66l-49 -23q-6 26 -18.5 42.5t-40.5 16.5q-67 0 -86 -131q-3 -18 -4 -31t-1 -26q0 -38 12.5 -55t43.5 -17q22 0 39 11.5t33 44.5z " />
<glyph horiz-adv-x="332" d="M168 400q30 0 53.5 31t33.5 99q2 14 3 26t1 23q0 42 -14 61t-38 19q-32 0 -53.5 -31t-32.5 -99q-2 -15 -3.5 -28.5t-1.5 -24.5q0 -76 52 -76zM62 529q13 91 49.5 137t90.5 46q29 0 48.5 -16.5t26.5 -50.5l13 55h50l-54 -342h-51l4 57q-16 -33 -41 -50.5t-55 -17.5 q-42 0 -64.5 31t-22.5 92q0 14 2 28.5t4 30.5z" />
<glyph horiz-adv-x="454" d="M248 482h-55l39 218h73z" />
<glyph horiz-adv-x="174" d="M-2 0l91 506h61l-68 -506h-84zM91 639q0 32 15 49t43 17q21 0 32 -12.5t11 -32.5q0 -29 -14 -47t-43 -18q-44 0 -44 44z" />
<glyph horiz-adv-x="384" d="M264 512l-22 -153h-32q-31 0 -56.5 -14.5t-44 -39t-29 -57t-10.5 -69.5q0 -57 25 -86t72 -29q42 0 77.5 23.5t54.5 83.5l61 -26q-23 -74 -75 -112.5t-124 -38.5q-85 0 -126 47.5t-41 129.5q0 51 14 93t38.5 73t58 50.5t72.5 26.5l19 98h68zM201 645q0 32 15.5 49t42.5 17 q22 0 33 -12.5t11 -32.5q0 -29 -14 -47t-43 -18q-45 0 -45 44z" />
<glyph horiz-adv-x="283" d="M252 289l-11 -69h-208l11 69h208z" />
<glyph horiz-adv-x="514" d="M482 289l-11 -69h-438l11 69h438z" />
<glyph horiz-adv-x="551" d="M253 -12q-98 0 -146.5 58t-48.5 181q0 28 3 58.5t8 65.5q14 97 38.5 166t60 112t82.5 63t106 20q84 0 127 -40.5t53 -133.5l-75 -26q-4 39 -13.5 64t-23.5 39.5t-33.5 20.5t-43.5 6q-36 0 -66.5 -13.5t-55.5 -46.5t-44 -89.5t-32 -141.5q-6 -39 -8.5 -71.5t-2.5 -59.5 q0 -47 8 -78.5t23.5 -50.5t37.5 -27.5t50 -8.5q29 0 55.5 11.5t49 38.5t39.5 70.5t26 106.5h-130l11 68h206l-9 -61q-22 -145 -83.5 -223t-168.5 -78z" />
<glyph horiz-adv-x="484" d="M354 0l-160 340l2 6l258 354h92l-264 -353l165 -347h-93zM38 0l111 700h80l-110 -700h-81z" />
<glyph horiz-adv-x="401" d="M25 0l111 700h79l-111 -700h-79zM265 1l-114 233l1 8l183 245h89l-187 -240l117 -246h-89z" />
<glyph horiz-adv-x="598" d="M40 7zM472 104q-42 -48 -93 -72.5t-114 -24.5q-104 0 -164.5 70.5t-60.5 204.5q0 97 26.5 173t71 128t101.5 79.5t117 27.5q102 0 159 -66t57 -184q0 -55 -12 -101t-33 -79.5t-50.5 -52t-63.5 -18.5q-55 0 -61 56q-20 -30 -45.5 -47t-57.5 -17q-33 0 -53.5 21t-20.5 58 q0 23 9.5 46t28 41.5t47 30t66.5 11.5h38q3 15 3 31q0 30 -14 45.5t-36 15.5q-43 0 -68 -53l-41 24q14 30 42.5 52.5t73.5 22.5q46 0 71 -25t25 -70q0 -17 -3 -39l-15 -97q-1 -5 -1.5 -14t-0.5 -15q0 -39 30 -39q21 0 39.5 15.5t32.5 44t22 67t8 85.5q0 106 -48.5 160 t-130.5 54q-51 0 -100.5 -24.5t-87.5 -72t-61.5 -116t-23.5 -155.5q0 -62 14 -108t39 -76t60 -44.5t77 -14.5q51 0 97 21t81 63zM227 267q0 -19 10 -29.5t25 -10.5q36 0 62 30t32 81l1 8h-31q-48 0 -73.5 -23.5t-25.5 -55.5z" />
<glyph horiz-adv-x="517" d="M327 712q86 0 127 -51.5t41 -167.5q0 -32 -2.5 -67t-8.5 -76q-14 -96 -36.5 -164.5t-55 -112.5t-74.5 -64.5t-96 -20.5q-87 0 -128.5 53t-41.5 168q0 31 3.5 66t9.5 75q14 96 36 165t54.5 112.5t75 64t96.5 20.5zM321 644q-32 0 -59 -15t-48.5 -49.5t-39 -90.5 t-30.5 -138q-7 -45 -10.5 -82t-3.5 -66q0 -41 6.5 -69.5t19 -46t30.5 -25t41 -7.5q32 0 58.5 14.5t48 48.5t38.5 90.5t31 140.5q7 44 10.5 81t3.5 66q0 81 -24 114.5t-72 33.5z" />
<glyph horiz-adv-x="269" d="M137 0h-80l93 589l-77 -59l-23 64l144 106h53z" />
<glyph horiz-adv-x="428" d="M-9 0l11 66l237 285q55 64 80.5 113t25.5 97q0 38 -22 60.5t-60 22.5q-45 0 -78.5 -25.5t-65.5 -83.5l-58 33q42 81 95.5 112.5t119.5 31.5q76 0 114 -39t38 -102q0 -29 -7 -56.5t-22 -56.5t-38.5 -62.5t-57.5 -73.5l-210 -253l281 2l-12 -71h-371z" />
<glyph horiz-adv-x="446" d="M-2 140l69 28q5 -57 32 -86t72 -29q35 0 61.5 13.5t44.5 37t27.5 56t9.5 70.5q0 99 -90 99h-52l12 73h49q27 0 49.5 12t38 33t24 49t8.5 59q0 42 -22 66t-64 24q-45 0 -78.5 -22.5t-56.5 -75.5l-61 31q29 66 82 100t130 34q72 0 111 -38.5t39 -106.5q0 -28 -7.5 -57 t-21.5 -55.5t-34.5 -49t-46.5 -37.5q32 -15 50.5 -47t18.5 -84t-14.5 -97.5t-43.5 -79.5t-72 -53.5t-99 -19.5q-30 0 -58 9t-50.5 28t-37.5 48t-19 68z" />
<glyph horiz-adv-x="483" d="M7 184l9 58l240 458h77l-234 -443h203l50 318h79l-50 -318h74l-11 -73h-75l-29 -184h-79l29 184h-283z" />
<glyph horiz-adv-x="456" d="M190 629l-49 -226q23 20 55 31t70 11q30 0 55 -9.5t44 -30t29.5 -53t10.5 -78.5q0 -61 -16.5 -113.5t-47 -91t-74.5 -60.5t-99 -22q-72 0 -118 38.5t-53 111.5l66 27q5 -57 36 -84t75 -27q36 0 64 16.5t47.5 45t29.5 67.5t10 85q0 53 -24.5 80.5t-69.5 27.5 q-74 0 -129 -57l-50 23l84 359h310l-12 -71h-244z" />
<glyph horiz-adv-x="488" d="M496 588l-67 -35q-11 48 -36 70t-61 22q-44 0 -75 -21.5t-53 -61.5t-36.5 -96t-26.5 -125q0 -1 -2 -11.5t-2 -11.5q23 56 66.5 88.5t99.5 32.5q63 0 101.5 -44.5t38.5 -130.5q0 -53 -13.5 -103t-40.5 -88.5t-68 -62t-97 -23.5q-79 0 -125 53.5t-46 176.5q0 28 3 60t8 68 q27 190 96.5 278.5t171.5 88.5q69 0 109.5 -30t54.5 -94zM273 371q-29 0 -54 -15t-44 -40.5t-29.5 -61t-10.5 -75.5q0 -56 23.5 -90t70.5 -34q34 0 59.5 16t42 43t25 62t8.5 73q0 63 -21.5 92.5t-69.5 29.5z" />
<glyph horiz-adv-x="386" d="M67 0q15 94 43 186.5t64.5 175t80.5 151.5t91 117l-271 -1l12 71h356l-13 -78q-48 -36 -91.5 -96.5t-79.5 -140.5t-63.5 -177t-45.5 -208h-83z" />
<glyph horiz-adv-x="493" d="M431 222q0 -52 -16 -95t-45.5 -74t-70 -48t-89.5 -17q-40 0 -71 12.5t-52.5 35t-32.5 53.5t-11 67q0 41 10 76t27.5 62.5t41.5 46.5t52 29q-27 20 -43 53.5t-16 78.5q0 40 13.5 78t39 67.5t63 47t86.5 17.5q69 0 109 -40.5t40 -109.5q0 -67 -30 -118t-79 -77 q33 -16 53.5 -53.5t20.5 -91.5zM391 543q0 45 -20 73t-65 28q-25 0 -46.5 -11.5t-37 -31t-24.5 -45.5t-9 -56q0 -40 20.5 -69t62.5 -29q22 0 43.5 10t38.5 29t27 44.5t10 57.5zM354 217q0 48 -25.5 81t-73.5 33q-29 0 -53 -12.5t-42 -34.5t-28 -52t-10 -65q0 -48 24 -80 t72 -32q27 0 51.5 12t43.5 34t30 51.5t11 64.5z" />
<glyph horiz-adv-x="487" d="M238 325q32 0 58.5 15.5t46 42t30 62t10.5 76.5q0 57 -24 90.5t-66 33.5q-61 0 -98.5 -53.5t-37.5 -144.5q0 -58 21 -90t60 -32zM194 -12q-71 0 -112.5 30t-54.5 95l66 35q12 -48 36 -70.5t60 -22.5q44 0 75 22t53 62t36.5 96t25.5 124q0 1 1.5 11t1.5 11 q-23 -57 -65.5 -91t-96.5 -34q-68 0 -105 45.5t-37 130.5q0 54 12.5 104.5t39.5 89.5t69 62.5t100 23.5q79 0 123.5 -52.5t44.5 -172.5q0 -29 -3 -62t-8 -70q-27 -189 -94.5 -278t-167.5 -89z" />
<glyph d="M313 612q76 0 115.5 -46t39.5 -150q0 -26 -2 -54.5t-7 -62.5q-23 -163 -83.5 -237t-153.5 -74q-74 0 -113 46.5t-39 149.5q0 25 3 54t8 62q12 83 32.5 142.5t49.5 97t66.5 55t83.5 17.5zM229 55q28 0 51.5 12t42.5 40.5t34 75.5t26 117q6 35 8 63.5t2 53.5q0 71 -22 99.5 t-65 28.5q-26 0 -48.5 -12t-41 -40t-33 -75.5t-25.5 -117.5q-6 -36 -8.5 -66t-2.5 -54q0 -69 21 -97t61 -28z" />
<glyph d="M412 0h-368l11 71h137l66 418l-73 -59l-22 64l139 106h50l-84 -529h155z" />
<glyph d="M50 0l10 60l205 225q33 36 57 63.5t39 50t22.5 42t7.5 39.5q0 34 -22 49t-55 15q-38 0 -70 -23t-56 -74l-56 29q33 71 83.5 103.5t115.5 32.5q68 0 103 -32t35 -89q0 -27 -9 -53t-27.5 -54.5t-46.5 -61.5t-65 -73l-164 -179h261l-11 -70h-357z" />
<glyph d="M41 40l69 28q5 -57 32 -86t72 -29q35 0 61.5 13.5t44.5 37t27.5 56t9.5 70.5q0 99 -90 99h-52l12 73h49q27 0 49.5 12t38 33t24 49t8.5 59q0 42 -22 66t-64 24q-45 0 -78.5 -22.5t-56.5 -75.5l-61 31q29 66 82 100t130 34q72 0 111 -38.5t39 -106.5q0 -28 -7.5 -57 t-21.5 -55.5t-34.5 -49t-46.5 -37.5q32 -15 50.5 -47t18.5 -84t-14.5 -97.5t-43.5 -79.5t-72 -53.5t-99 -19.5q-30 0 -58 9t-50.5 28t-37.5 48t-19 68z" />
<glyph d="M28 84l9 58l240 458h77l-234 -443h203l50 318h79l-50 -318h74l-11 -73h-75l-29 -184h-79l29 184h-283z" />
<glyph d="M233 529l-49 -226q23 20 55 31t70 11q30 0 55 -9.5t44 -30t29.5 -53t10.5 -78.5q0 -61 -16.5 -113.5t-47 -91t-74.5 -60.5t-99 -22q-72 0 -118 38.5t-53 111.5l66 27q5 -57 36 -84t75 -27q36 0 64 16.5t47.5 45t29.5 67.5t10 85q0 53 -24.5 80.5t-69.5 27.5 q-74 0 -129 -57l-50 23l84 359h310l-12 -71h-244z" />
<glyph d="M516 588l-67 -35q-11 48 -36 70t-61 22q-44 0 -75 -21.5t-53 -61.5t-36.5 -96t-26.5 -125q0 -1 -2 -11.5t-2 -11.5q23 56 66.5 88.5t99.5 32.5q63 0 101.5 -44.5t38.5 -130.5q0 -53 -13.5 -103t-40.5 -88.5t-68 -62t-97 -23.5q-79 0 -125 53.5t-46 176.5q0 28 3 60t8 68 q27 190 96.5 278.5t171.5 88.5q69 0 109.5 -30t54.5 -94zM293 371q-29 0 -54 -15t-44 -40.5t-29.5 -61t-10.5 -75.5q0 -56 23.5 -90t70.5 -34q34 0 59.5 16t42 43t25 62t8.5 73q0 63 -21.5 92.5t-69.5 29.5z" />
<glyph d="M137 -100q15 94 43 186.5t64.5 175t80.5 151.5t91 117l-271 -1l12 71h356l-13 -78q-48 -36 -91.5 -96.5t-79.5 -140.5t-63.5 -177t-45.5 -208h-83z" />
<glyph d="M452 222q0 -52 -16 -95t-45.5 -74t-70 -48t-89.5 -17q-40 0 -71 12.5t-52.5 35t-32.5 53.5t-11 67q0 41 10 76t27.5 62.5t41.5 46.5t52 29q-27 20 -43 53.5t-16 78.5q0 40 13.5 78t39 67.5t63 47t86.5 17.5q69 0 109 -40.5t40 -109.5q0 -67 -30 -118t-79 -77 q33 -16 53.5 -53.5t20.5 -91.5zM412 543q0 45 -20 73t-65 28q-25 0 -46.5 -11.5t-37 -31t-24.5 -45.5t-9 -56q0 -40 20.5 -69t62.5 -29q22 0 43.5 10t38.5 29t27 44.5t10 57.5zM375 217q0 48 -25.5 81t-73.5 33q-29 0 -53 -12.5t-42 -34.5t-28 -52t-10 -65q0 -48 24 -80 t72 -32q27 0 51.5 12t43.5 34t30 51.5t11 64.5z" />
<glyph d="M249 225q32 0 58.5 15.5t46 42t30 62t10.5 76.5q0 57 -24 90.5t-66 33.5q-61 0 -98.5 -53.5t-37.5 -144.5q0 -58 21 -90t60 -32zM205 -112q-71 0 -112.5 30t-54.5 95l66 35q12 -48 36 -70.5t60 -22.5q44 0 75 22t53 62t36.5 96t25.5 124q0 1 1.5 11t1.5 11 q-23 -57 -65.5 -91t-96.5 -34q-68 0 -105 45.5t-37 130.5q0 54 12.5 104.5t39.5 89.5t69 62.5t100 23.5q79 0 123.5 -52.5t44.5 -172.5q0 -29 -3 -62t-8 -70q-27 -189 -94.5 -278t-167.5 -89z" />
<glyph horiz-adv-x="460" d="M280 612q76 0 115.5 -46t39.5 -150q0 -26 -2 -54.5t-7 -62.5q-23 -163 -83.5 -237t-153.5 -74q-74 0 -113 46.5t-39 149.5q0 25 3 54t8 62q12 83 32.5 142.5t49.5 97t66.5 55t83.5 17.5zM196 55q28 0 51.5 12t42.5 40.5t34 75.5t26 117q6 35 8 63.5t2 53.5q0 71 -22 99.5 t-65 28.5q-26 0 -48.5 -12t-41 -40t-33 -75.5t-25.5 -117.5q-6 -36 -8.5 -66t-2.5 -54q0 -69 21 -97t61 -28z" />
<glyph horiz-adv-x="245" d="M133 0h-76l77 489l-73 -59l-22 64l139 106h50z" />
<glyph horiz-adv-x="385" d="M-15 0l10 60l200 225q32 36 55 63t37.5 49.5t21.5 41.5t7 39q0 35 -20.5 50.5t-51.5 15.5q-37 0 -67 -23t-54 -74l-56 29q33 71 82 103.5t112 32.5q66 0 99.5 -32t33.5 -89q0 -27 -9 -52.5t-26.5 -54t-44.5 -61t-63 -72.5l-163 -181h255l-11 -70h-347z" />
<glyph horiz-adv-x="430" d="M-17 40l67 28q5 -57 31.5 -86t70.5 -29q34 0 59.5 13.5t43 37t26.5 56t9 70.5q0 99 -90 99h-51l12 73h48q27 0 49.5 12t38 33t24 49t8.5 59q0 42 -21.5 66t-63.5 24q-44 0 -76.5 -22.5t-55.5 -75.5l-61 31q29 66 81.5 100t128.5 34q72 0 110 -38.5t38 -106.5 q0 -28 -7.5 -57t-21.5 -55.5t-34.5 -49t-46.5 -37.5q32 -15 50 -47t18 -84t-14.5 -97.5t-42.5 -79.5t-69.5 -53.5t-96.5 -19.5q-30 0 -57.5 9t-49.5 28t-36 48t-18 68z" />
<glyph horiz-adv-x="461" d="M2 84l8 55l233 461h75l-228 -446h192l51 321h77l-51 -321h69l-11 -70h-69l-29 -184h-77l30 184h-270z" />
<glyph horiz-adv-x="431" d="M178 529l-50 -226q23 19 51.5 30.5t63.5 11.5q29 0 54 -9.5t43 -29.5t28 -52t10 -78q0 -62 -16 -114.5t-46.5 -91.5t-74.5 -61t-99 -22q-69 0 -112 38.5t-51 111.5l67 27q5 -57 34.5 -84t71.5 -27q35 0 62.5 16.5t46 45t28.5 67.5t10 85q0 55 -23.5 81.5t-66.5 26.5 q-34 0 -63.5 -15t-55.5 -42l-50 23l83 359h302l-11 -71h-236z" />
<glyph horiz-adv-x="453" d="M414 266q0 -57 -13.5 -107.5t-40 -88.5t-66.5 -60t-92 -22q-77 0 -119.5 52.5t-42.5 173.5q0 29 3 61.5t8 69.5q28 193 93 280t167 87q66 0 103.5 -33.5t48.5 -93.5l-64 -32q-13 48 -36 70t-61 22q-41 0 -69 -21.5t-48 -61t-33.5 -95.5t-24.5 -125q0 -1 -2 -9t-2 -9 q21 52 62 83.5t92 31.5q66 0 101.5 -45.5t35.5 -127.5zM336 253q0 56 -18.5 87t-61.5 31q-28 0 -53 -14t-43.5 -39t-29 -60.5t-10.5 -78.5q0 -54 21.5 -89t63.5 -35q58 0 94.5 52.5t36.5 145.5z" />
<glyph horiz-adv-x="363" d="M54 -100q12 78 34.5 162.5t55.5 167.5t76.5 160t97.5 140l-257 -1l11 71h340l-11 -78q-42 -31 -83 -89.5t-76 -139.5t-63 -180.5t-46 -212.5h-79z" />
<glyph horiz-adv-x="449" d="M397 223q0 -51 -16 -94t-44.5 -74.5t-68 -49t-86.5 -17.5q-76 0 -116.5 46t-40.5 121q0 79 34.5 136t91.5 78q-26 20 -40.5 53.5t-14.5 75.5t13 80.5t37.5 68.5t61 47.5t83.5 17.5q66 0 104 -41.5t38 -110.5q0 -36 -9 -66.5t-24 -55t-34 -42.5t-40 -29q32 -15 51.5 -52.5 t19.5 -91.5zM169 497q0 -41 19 -68t57 -27q23 0 44 12t36.5 32.5t24.5 47.5t9 57q0 41 -19 67.5t-57 26.5q-51 0 -82.5 -41t-31.5 -107zM102 162q0 -46 22.5 -76.5t65.5 -30.5q29 0 53 12.5t41.5 34.5t27 52t9.5 65q0 48 -22 80t-67 32q-28 0 -52 -12t-41 -34.5t-27 -53.5 t-10 -69z" />
<glyph horiz-adv-x="453" d="M149 -113q-64 0 -101.5 35t-49.5 93l63 32q13 -48 36 -70t61 -22q28 0 54 13.5t48.5 47.5t40.5 92.5t32 149.5v7q1 3 1 6q-20 -51 -59 -81t-92 -30q-28 0 -53 11.5t-44 33.5t-30 55t-11 75q0 55 14 105t42 88t68.5 60.5t93.5 22.5q77 0 118 -50.5t41 -167.5 q0 -59 -12 -137q-27 -193 -93 -281t-168 -88zM255 545q-56 0 -93.5 -50.5t-37.5 -146.5q0 -55 20 -87t60 -32q30 0 55 15.5t43 41.5t28 61.5t10 76.5q0 54 -21.5 87.5t-63.5 33.5z" />
<glyph horiz-adv-x="326" d="M0 0zM155 218q54 0 79.5 -31.5t25.5 -100.5q0 -18 -2 -38t-5 -43q-17 -111 -55 -162t-104 -51q-54 0 -80 32t-26 101q0 18 2 37.5t5 42.5q17 112 54.5 162.5t105.5 50.5zM150 164q-33 0 -56 -35t-36 -123q-4 -26 -6 -46t-2 -37q0 -43 13 -60t37 -17q16 0 29.5 8t25 26.5 t20.5 49t16 75.5q4 24 6 44.5t2 37.5q0 42 -12.5 59.5t-36.5 17.5z" />
<glyph horiz-adv-x="179" d="M0 0zM61 -200h-63l52 327l-43 -32l-16 52l93 65h42z" />
<glyph horiz-adv-x="280" d="M0 0zM-49 -200l8 49l136 161q30 35 43.5 60.5t13.5 50.5q0 19 -11 30t-31 11q-23 0 -41 -13t-35 -44l-44 23q23 50 57 70t76 20q47 0 70.5 -23.5t23.5 -63.5q0 -35 -18.5 -68t-61.5 -84l-103 -124l151 2l-8 -57h-226z" />
<glyph horiz-adv-x="280" d="M0 0zM-42 -117l52 22q8 -61 57 -61q36 0 54.5 25.5t18.5 63.5q0 52 -49 52h-29l8 53h29q29 0 46 23.5t17 55.5q0 47 -46 47q-23 0 -40.5 -12t-29.5 -40l-46 23q37 83 131 83q47 0 70.5 -23.5t23.5 -64.5q0 -32 -16.5 -65t-48.5 -51q19 -10 29.5 -29t10.5 -48 q0 -30 -9 -56.5t-27 -46t-43.5 -31t-58.5 -11.5q-38 0 -67.5 21.5t-36.5 69.5z" />
<glyph horiz-adv-x="304" d="M0 0zM-34 -100l7 46l136 264h60l-131 -253h102l27 164h60l-26 -164h41l-9 -57h-41l-16 -100h-60l16 100h-166z" />
<glyph horiz-adv-x="275" d="M0 0zM79 155l-26 -114q27 22 68 22q36 0 60 -23.5t24 -77.5q0 -38 -10 -69t-29 -53.5t-46 -35t-60 -12.5q-45 0 -72.5 22.5t-34.5 66.5l52 22q4 -31 20 -45t39 -14q38 0 58 31.5t20 78.5q0 29 -12.5 43t-35.5 14q-39 0 -66 -32l-40 20l48 211h195l-9 -55h-143z" />
<glyph horiz-adv-x="307" d="M0 0zM259 142l-49 -25q-10 48 -51 48q-23 0 -39.5 -11.5t-28.5 -32.5t-20 -51t-14 -68q0 -1 -1 -6t-1 -6q14 31 37.5 49.5t55.5 18.5q37 0 59 -26t22 -76q0 -32 -8 -62t-24.5 -52.5t-41.5 -36t-58 -13.5q-51 0 -79.5 32.5t-28.5 105.5q0 31 6 72q31 216 164 216 q85 0 100 -76zM122 7q-29 0 -49 -29t-20 -70q0 -29 11.5 -46.5t35.5 -17.5q34 0 51 30.5t17 69.5q0 63 -46 63z" />
<glyph horiz-adv-x="242" d="M0 0zM-3 -200q9 56 25.5 108t37.5 98t46 83.5t51 64.5l-156 -2l9 58h221l-9 -54q-57 -50 -96.5 -139.5t-59.5 -216.5h-69z" />
<glyph horiz-adv-x="301" d="M0 0zM217 -68q0 -61 -36 -100.5t-99 -39.5q-51 0 -77.5 27.5t-26.5 72.5q0 47 22 79t54 46q-15 11 -24 30t-9 45q0 25 8 47.5t23.5 40t39 28t54.5 10.5q44 0 67.5 -24t23.5 -66q0 -38 -16.5 -67.5t-44.5 -45.5q19 -11 30 -32.5t11 -50.5zM181 114q0 23 -10.5 37.5 t-33.5 14.5q-27 0 -43.5 -22t-16.5 -53q0 -20 10.5 -35t32.5 -15q23 0 42 20.5t19 52.5zM158 -73q0 25 -13 42t-37 17q-30 0 -49 -24.5t-19 -60.5q0 -26 12 -42t37 -16q28 0 48.5 24t20.5 60z" />
<glyph horiz-adv-x="306" d="M0 0zM104 0q32 0 52 29.5t20 71.5q0 29 -12 46.5t-33 17.5q-32 0 -50.5 -28t-18.5 -75q0 -29 10.5 -45.5t31.5 -16.5zM73 -208q-42 0 -68.5 17t-35.5 54l47 30q13 -49 55 -49q24 0 41 11.5t28.5 33t19.5 51.5t14 67q0 1 0.5 6t0.5 6q-14 -32 -37 -51t-55 -19 q-38 0 -60 26.5t-22 76.5q0 33 8 63t24.5 53t41.5 36.5t60 13.5q51 0 78.5 -32t27.5 -104q0 -18 -2 -37.5t-5 -41.5q-33 -211 -161 -211z" />
<glyph horiz-adv-x="237" d="M0 0zM83 -138h-49l15 94h-67l7 49h67l15 95h49l-15 -95h66l-7 -49h-66z" />
<glyph horiz-adv-x="237" d="M0 0zM171 7l-8 -53h-182l9 53h181z" />
<glyph horiz-adv-x="237" d="M0 0zM178 51l-8 -55h-181l8 55h181zM164 -36l-7 -54h-182l8 54h181z" />
<glyph horiz-adv-x="164" d="M0 0zM79 -215l-24 -51q-42 14 -63.5 52t-21.5 105q0 42 9 96q18 114 55.5 169t96.5 65l7 -54q-20 -4 -36 -15t-29 -32t-23.5 -55t-18.5 -83q-4 -26 -6 -47t-2 -38q0 -51 14.5 -76t41.5 -36z" />
<glyph horiz-adv-x="164" d="M0 0zM4 170l24 51q42 -14 63.5 -52t21.5 -105q0 -42 -9 -96q-18 -114 -56 -169t-96 -65l-7 54q20 4 36 15t29 32t23.5 54.5t18.5 83.5q4 26 6 47t2 38q0 51 -14.5 76t-41.5 36z" />
<glyph horiz-adv-x="210" d="M113 627q0 29 15 47t44 18q45 0 45 -47q0 -31 -16.5 -48t-42.5 -17q-22 0 -33.5 13t-11.5 34zM104 487h79l-76 -487h-80z" />
<glyph horiz-adv-x="401" d="M25 0zM25 0l111 700h79l-111 -700h-79zM265 1l-114 233l1 8l183 245h89l-187 -240l117 -246h-89zM115 -280l-18 31q23 14 42.5 36t23.5 49q-18 -3 -30.5 7t-12.5 33t14 41t40 18q21 0 32 -13t11 -35q0 -27 -8 -53t-21.5 -48.5t-32.5 -39.5t-40 -26z" />
<glyph horiz-adv-x="551" d="M58 0zM253 -12q-98 0 -146.5 58t-48.5 181q0 28 3 58.5t8 65.5q14 97 38.5 166t60 112t82.5 63t106 20q84 0 127 -40.5t53 -133.5l-75 -26q-4 39 -13.5 64t-23.5 39.5t-33.5 20.5t-43.5 6q-36 0 -66.5 -13.5t-55.5 -46.5t-44 -89.5t-32 -141.5q-6 -39 -8.5 -71.5 t-2.5 -59.5q0 -47 8 -78.5t23.5 -50.5t37.5 -27.5t50 -8.5q29 0 55.5 11.5t49 38.5t39.5 70.5t26 106.5h-130l11 68h206l-9 -61q-22 -145 -83.5 -223t-168.5 -78zM440 903h54q-11 -69 -43.5 -95t-85.5 -26q-26 0 -45.5 6t-31.5 20t-16 37t1 58h55q-7 -38 4 -52t39 -14 q29 0 45.5 14t23.5 52z" />
<glyph horiz-adv-x="551" d="M58 0zM253 -12q-98 0 -146.5 58t-48.5 181q0 28 3 58.5t8 65.5q14 97 38.5 166t60 112t82.5 63t106 20q84 0 127 -40.5t53 -133.5l-75 -26q-4 39 -13.5 64t-23.5 39.5t-33.5 20.5t-43.5 6q-36 0 -66.5 -13.5t-55.5 -46.5t-44 -89.5t-32 -141.5q-6 -39 -8.5 -71.5 t-2.5 -59.5q0 -47 8 -78.5t23.5 -50.5t37.5 -27.5t50 -8.5q29 0 55.5 11.5t49 38.5t39.5 70.5t26 106.5h-130l11 68h206l-9 -61q-22 -145 -83.5 -223t-168.5 -78zM346 903h70l72 -112v-3h-74l-39 70l-60 -70h-77v3z" />
<glyph horiz-adv-x="551" d="M58 0zM253 -12q-98 0 -146.5 58t-48.5 181q0 28 3 58.5t8 65.5q14 97 38.5 166t60 112t82.5 63t106 20q84 0 127 -40.5t53 -133.5l-75 -26q-4 39 -13.5 64t-23.5 39.5t-33.5 20.5t-43.5 6q-36 0 -66.5 -13.5t-55.5 -46.5t-44 -89.5t-32 -141.5q-6 -39 -8.5 -71.5 t-2.5 -59.5q0 -47 8 -78.5t23.5 -50.5t37.5 -27.5t50 -8.5q29 0 55.5 11.5t49 38.5t39.5 70.5t26 106.5h-130l11 68h206l-9 -61q-22 -145 -83.5 -223t-168.5 -78zM175 -280l-18 31q23 14 42.5 36t23.5 49q-18 -3 -30.5 7t-12.5 33t14 41t40 18q21 0 32 -13t11 -35 q0 -27 -8 -53t-21.5 -48.5t-32.5 -39.5t-40 -26z" />
<glyph horiz-adv-x="551" d="M58 0zM253 -12q-98 0 -146.5 58t-48.5 181q0 28 3 58.5t8 65.5q14 97 38.5 166t60 112t82.5 63t106 20q84 0 127 -40.5t53 -133.5l-75 -26q-4 39 -13.5 64t-23.5 39.5t-33.5 20.5t-43.5 6q-36 0 -66.5 -13.5t-55.5 -46.5t-44 -89.5t-32 -141.5q-6 -39 -8.5 -71.5 t-2.5 -59.5q0 -47 8 -78.5t23.5 -50.5t37.5 -27.5t50 -8.5q29 0 55.5 11.5t49 38.5t39.5 70.5t26 106.5h-130l11 68h206l-9 -61q-22 -145 -83.5 -223t-168.5 -78zM326 839q0 30 15 47.5t41 17.5q43 0 43 -46q0 -30 -15.5 -46.5t-41.5 -16.5q-22 0 -32 12t-10 32z" />
<glyph horiz-adv-x="492" d="M38 0zM354 0l-160 340l2 6l258 354h92l-264 -353l165 -347h-93zM38 0l111 700h80l-110 -700h-81zM162 -280l-18 31q23 14 42.5 36t23.5 49q-18 -3 -30.5 7t-12.5 33t14 41t40 18q21 0 32 -13t11 -35q0 -27 -8 -53t-21.5 -48.5t-32.5 -39.5t-40 -26z" />
<glyph horiz-adv-x="331" d="M313 384l-11 -69h-254l11 69h254z" />
<glyph horiz-adv-x="436" d="M420 384l-11 -69h-361l11 69h361z" />
<glyph horiz-adv-x="583" d="M567 384l-11 -69h-508l11 69h508z" />
<glyph horiz-adv-x="436" d="M420 384l-11 -69h-361l11 69h361z" />
<glyph horiz-adv-x="208" d="M215 700l-111 -700h-78l111 700h78z" />
<glyph horiz-adv-x="471" d="M287 422h-101l-65 -422h-78l66 422h-64l10 65h65l12 70q13 84 55 123t96 39q19 0 36.5 -4.5t30.5 -14.5l-30 -69q-20 12 -42 12q-23 0 -42.5 -18.5t-27.5 -69.5l-10 -68h99zM484 700l-111 -700h-78l111 700h78z" />
<glyph horiz-adv-x="471" d="M0 0z" />
</font>
</defs>
</svg>
