<?xml version="1.0" standalone="no"?>
<!DOCTYPE svg PUBLIC "-//W3C//DTD SVG 1.1//EN" "http://www.w3.org/Graphics/SVG/1.1/DTD/svg11.dtd" >
<svg xmlns="http://www.w3.org/2000/svg">
<metadata></metadata>
<defs>
<font id="honeywell_cond_webregular" horiz-adv-x="535" >
<font-face units-per-em="1000" ascent="780" descent="-220" />
<missing-glyph horiz-adv-x="172" />
<glyph unicode="fi" horiz-adv-x="464" d="M259 439h-113v-439h-53v439h-68v43h68v85q0 39 9 67t25 45.5t36.5 25.5t44.5 8q17 0 33.5 -4.5t31.5 -14.5l-16 -44q-22 14 -48 14q-29 0 -46 -22t-17 -78v-82h113v-43zM365 580q-17 0 -27.5 11t-10.5 31t10.5 31t27.5 11q18 0 28.5 -11t10.5 -31t-10.5 -31t-28.5 -11z M340 482h52v-482h-52v482z" />
<glyph unicode="fl" horiz-adv-x="471" d="M259 439h-113v-439h-53v439h-68v43h68v85q0 39 9 67t25 45.5t36.5 25.5t44.5 8q17 0 33.5 -4.5t31.5 -14.5l-16 -44q-22 14 -48 14q-29 0 -46 -22t-17 -78v-82h113v-43zM432 0q-42 0 -67.5 23t-25.5 79v598h52v-597q0 -32 12 -44.5t33 -12.5h24v-46h-28z" />
<glyph horiz-adv-x="131" />
<glyph horiz-adv-x="131" />
<glyph unicode="&#xd;" horiz-adv-x="131" />
<glyph unicode=" "  horiz-adv-x="172" />
<glyph unicode="&#x09;" horiz-adv-x="172" />
<glyph unicode="&#xa0;" horiz-adv-x="172" />
<glyph unicode="!" horiz-adv-x="166" d="M112 700l-9 -520h-40l-8 520h57zM83 -6q-17 0 -27.5 11t-10.5 31t10.5 31t27.5 11q38 0 38 -42q0 -20 -10 -31t-28 -11z" />
<glyph unicode="&#x22;" horiz-adv-x="235" d="M145 528l-4 183h48l-5 -183h-39zM90 528h-39l-5 183h48z" />
<glyph unicode="#" horiz-adv-x="546" d="M327 264l44 185h-146l-45 -185h147zM265 0l52 221h-147l-52 -221h-52l52 221h-84l12 43h81l45 185h-91l12 42h89l48 209h52l-48 -209h147l49 209h52l-49 -209h86l-12 -42h-84l-44 -185h93l-12 -43h-90l-53 -221h-52z" />
<glyph unicode="$" horiz-adv-x="433" d="M97 520q0 -49 24.5 -80.5t69.5 -48.5l9 -3v248q-54 -3 -78.5 -34.5t-24.5 -81.5zM344 182q0 51 -22.5 81.5t-79.5 52.5l-5 2v-261q55 4 81 37t26 88zM200 -62v75q-60 4 -106 37t-71 113l43 20q19 -64 53.5 -92.5t80.5 -33.5v274l-9 4q-70 26 -106 70t-36 111 q0 70 38 114.5t113 48.5v87h37v-87q57 -4 96 -36.5t57 -102.5l-43 -18q-16 57 -45 82t-65 30v-259l5 -2q78 -28 114.5 -71.5t36.5 -116.5q0 -80 -40.5 -122.5t-115.5 -47.5v-77h-37z" />
<glyph unicode="%" horiz-adv-x="771" d="M34 0zM484 204q0 113 31 162.5t95 49.5q62 0 92.5 -49.5t30.5 -162.5t-30 -162t-93 -49q-64 0 -95 49.5t-31 161.5zM691 204q0 49 -5.5 82.5t-16 54t-25.5 29.5t-34 9q-20 0 -35.5 -9t-26 -29.5t-16 -53.5t-5.5 -82q0 -50 5.5 -83.5t16 -54t26 -29.5t35.5 -9q19 0 34 9 t25.5 29t16 53.5t5.5 83.5zM34 497q0 113 31 162.5t95 49.5q62 0 92.5 -49.5t30.5 -162.5t-30 -162t-93 -49q-64 0 -95 49.5t-31 161.5zM241 497q0 49 -5.5 82.5t-16 54t-25.5 29.5t-34 9q-20 0 -35.5 -9t-26 -29.5t-16 -53.5t-5.5 -82q0 -50 5.5 -83.5t16 -54t26 -29.5 t35.5 -9q19 0 34 9t25.5 29t16 53.5t5.5 83.5zM532 701l-250 -701h-49l251 701h48z" />
<glyph unicode="&#x26;" horiz-adv-x="531" d="M497 -14q-29 21 -57.5 44t-56.5 48q-68 -89 -175 -89q-37 0 -69 11.5t-56 34.5t-37.5 57t-13.5 79q0 63 27 111t83 92q-26 48 -40 95t-14 90q0 66 33.5 109t99.5 43q60 0 90 -34.5t30 -92.5q0 -33 -7.5 -60t-24.5 -52.5t-44 -51.5t-65 -56q32 -54 76.5 -108.5 t97.5 -105.5q29 57 45 138.5t16 184.5h47q-1 -117 -19.5 -205.5t-53.5 -150.5q27 -24 55.5 -47t57.5 -44zM134 559q0 -35 12 -75t33 -82q57 43 86 83t29 94q0 45 -21 67t-53 22q-42 0 -64 -29t-22 -80zM212 32q82 0 137 77q-55 54 -102.5 111t-82.5 115q-40 -33 -61.5 -70.5 t-21.5 -89.5q0 -69 36.5 -106t94.5 -37z" />
<glyph unicode="'" horiz-adv-x="139" d="M50 528l-4 183h48l-5 -183h-39z" />
<glyph unicode="(" horiz-adv-x="265" d="M224 -35l-16 -41q-80 20 -123 119t-43 279t43 279.5t123 119.5l16 -42q-64 -20 -99 -104.5t-35 -252.5q0 -167 35 -252t99 -105z" />
<glyph unicode=")" horiz-adv-x="265" d="M36 -35q64 20 99 105t35 252q0 168 -35 252.5t-99 104.5l16 42q80 -20 123 -119.5t43 -279.5t-43 -279t-123 -119z" />
<glyph unicode="*" horiz-adv-x="304" d="M81 376l-34 24l74 121l-101 42l14 41l98 -45l-4 152h47l-4 -152l99 45l14 -41l-101 -42l74 -121l-34 -24l-72 118z" />
<glyph unicode="+" horiz-adv-x="375" d="M210 117h-44v169h-126v44h126v172h44v-172h126v-44h-126v-169z" />
<glyph unicode="," horiz-adv-x="168" d="M56 -114l-17 24q24 14 37 38t14 50q-17 -5 -30.5 5t-13.5 33q0 20 10.5 31t27.5 11q20 0 30 -13t10 -44q0 -45 -17 -81.5t-51 -53.5z" />
<glyph unicode="-" horiz-adv-x="320" d="M281 273v-46h-241v46h241z" />
<glyph unicode="." horiz-adv-x="167" d="M84 -6q-18 0 -28 11t-10 31q0 42 38 42q37 0 37 -42q0 -20 -9.5 -31t-27.5 -11z" />
<glyph unicode="/" horiz-adv-x="368" d="M359 701l-296 -701h-54l295 701h55z" />
<glyph unicode="0" d="M63 0zM63 350q0 97 13 165.5t38.5 112t64 63.5t89.5 20t89.5 -20t64 -63.5t38.5 -112t13 -165.5t-13 -165.5t-38.5 -112t-64 -63.5t-89.5 -20t-89.5 20.5t-64 64t-38.5 112t-13 164.5zM420 350q0 89 -10.5 149.5t-30 97t-47.5 52.5t-64 16t-64 -16t-47.5 -53t-29.5 -97.5 t-10 -148.5q0 -89 10 -149.5t29.5 -97.5t47.5 -53t64 -16t64 16t47.5 53t30 97.5t10.5 149.5z" />
<glyph unicode="1" d="M463 0h-392v47h169v576l-71 -70l-25 41l114 106h36v-653h169v-47z" />
<glyph unicode="2" d="M77 0zM90 0v44l203 297q43 63 63.5 112t20.5 91q0 60 -29 90.5t-81 30.5q-51 0 -88 -28t-60 -97l-42 19q28 85 77.5 118.5t115.5 33.5q79 0 120 -43t41 -116q0 -49 -21 -102.5t-72 -129.5l-189 -275l309 2v-47h-368z" />
<glyph unicode="3" d="M80 0zM265 33q68 0 102.5 43.5t34.5 119.5q0 65 -30.5 106t-95.5 41h-61v48h59q47 0 79.5 37.5t32.5 104.5q0 63 -30.5 97.5t-89.5 34.5q-105 0 -136 -116l-44 20q43 142 186 142q85 0 126 -46.5t41 -124.5q0 -60 -23.5 -104t-67.5 -67q51 -14 79 -59t28 -114 q0 -46 -11.5 -84t-35 -65.5t-59 -42.5t-83.5 -15q-69 0 -116.5 32.5t-69.5 104.5l45 21q17 -62 54 -88t86 -26z" />
<glyph unicode="4" d="M53 0zM53 191v39l180 470h52l-178 -462h240v342h52v-342h83v-47h-83v-191h-52v191h-294z" />
<glyph unicode="5" d="M76 0zM265 -11q-67 0 -116.5 31.5t-72.5 106.5l45 20q17 -62 54.5 -88t88.5 -26q37 0 64 14.5t44.5 39.5t26 59.5t8.5 75.5q0 170 -139 170q-41 0 -73 -17.5t-60 -49.5l-35 15l26 360h303v-47h-258l-18 -267q26 28 60 40t69 12q39 0 71.5 -12t56 -38t36.5 -66.5t13 -97.5 q0 -51 -12 -94.5t-36 -74.5t-60.5 -48.5t-85.5 -17.5z" />
<glyph unicode="6" d="M73 0zM282 -11q-47 0 -85.5 19.5t-66 62t-42.5 110t-15 164.5t14.5 166t42 113.5t66.5 65.5t88 21q63 0 104.5 -28.5t64.5 -94.5l-42 -24q-20 56 -49.5 79t-74.5 23q-36 0 -65.5 -16.5t-50.5 -54.5t-33 -100.5t-12 -154.5q0 -13 0.5 -32t2.5 -37q8 75 50 120.5t111 45.5 q76 0 124 -55.5t48 -163.5q0 -52 -11.5 -94.5t-34 -72.5t-56.5 -46t-78 -16zM279 34q59 0 94.5 44.5t35.5 135.5q0 85 -33.5 131.5t-95.5 46.5t-99.5 -50t-37.5 -135q0 -33 8.5 -64.5t25.5 -55.5t42.5 -38.5t59.5 -14.5z" />
<glyph unicode="7" d="M93 0zM186 0q-1 95 13 190.5t39.5 182t61.5 159t81 122.5l-288 -1v47h350v-48q-46 -41 -83.5 -107t-63.5 -150.5t-40.5 -184.5t-14.5 -210h-55z" />
<glyph unicode="8" d="M80 0zM267 -11q-88 0 -137.5 54.5t-49.5 146.5q0 72 32 119.5t80 63.5q-42 18 -67.5 59t-25.5 101q0 84 45 131t123 47t123.5 -47t45.5 -131q0 -60 -26.5 -100.5t-68.5 -59.5q49 -16 81.5 -63.5t32.5 -119.5q0 -92 -50 -146.5t-138 -54.5zM385 531q0 59 -30 96.5 t-87 37.5t-87.5 -37.5t-30.5 -96.5q0 -60 30.5 -98t86.5 -38t87 38t31 98zM267 34q66 0 100.5 43.5t34.5 115.5q0 68 -35.5 111.5t-99.5 43.5q-32 0 -57 -11.5t-42 -32.5t-26.5 -49.5t-9.5 -61.5q0 -72 35 -115.5t100 -43.5z" />
<glyph unicode="9" d="M73 0zM255 666q-59 0 -94.5 -45t-35.5 -136q0 -85 34 -132t95 -47q62 0 99 50t37 136q0 34 -8.5 65.5t-25.5 55.5t-42.5 38.5t-58.5 14.5zM254 711q47 0 85.5 -19.5t65.5 -62t42 -110.5t15 -164t-14.5 -165.5t-42 -114t-66.5 -65.5t-88 -21q-63 0 -104.5 28t-64.5 95 l42 24q20 -56 50 -79t74 -23q36 0 65.5 16.5t50.5 55t33 100.5t12 154q0 13 -0.5 32t-2.5 37q-8 -77 -50 -123t-110 -46q-79 0 -126 56t-47 165q0 52 11.5 94.5t34.5 72.5t57 46.5t78 16.5z" />
<glyph unicode=":" horiz-adv-x="167" d="M46 0zM84 -6q-18 0 -28 11t-10 31q0 42 38 42q37 0 37 -42q0 -20 -9.5 -31t-27.5 -11zM84 382q-18 0 -28 11t-10 31q0 42 38 42q37 0 37 -42q0 -20 -9.5 -31t-27.5 -11z" />
<glyph unicode=";" horiz-adv-x="169" d="M39 0zM56 -114l-17 24q24 14 37 38t14 50q-17 -5 -30.5 5t-13.5 33q0 20 10.5 31t27.5 11q20 0 30 -13t10 -44q0 -45 -17 -81.5t-51 -53.5zM84 382q-18 0 -28 11t-10 31q0 42 38 42q37 0 37 -42q0 -20 -9.5 -31t-27.5 -11z" />
<glyph unicode="&#x3c;" horiz-adv-x="350" d="M260 508l24 -35l-170 -162l171 -161l-25 -38l-196 185v26z" />
<glyph unicode="=" horiz-adv-x="375" d="M336 394v-45h-296v45h296zM336 270v-45h-296v45h296z" />
<glyph unicode="&#x3e;" horiz-adv-x="350" d="M88 112l-23 35l170 162l-170 161l24 38l196 -186v-25z" />
<glyph unicode="?" horiz-adv-x="381" d="M156 180l-2 142h22q66 0 101.5 46t35.5 129q0 81 -36 124t-100 43q-48 0 -84.5 -27t-55.5 -94l-43 18q11 42 30 70.5t43 46.5t52.5 25.5t60.5 7.5q88 0 136 -56.5t48 -155.5q0 -96 -42 -151.5t-118 -62.5l-3 -105h-45zM178 -6q-17 0 -27.5 11t-10.5 31t10.5 31t27.5 11 q38 0 38 -42q0 -20 -10 -31t-28 -11z" />
<glyph unicode="@" horiz-adv-x="615" d="M314 -96q-61 0 -110 23.5t-83 67.5t-52 106.5t-18 140.5t18 140.5t52 106.5t83 67.5t110 23.5q60 0 106.5 -21.5t78.5 -61.5t48.5 -96.5t16.5 -126.5q0 -86 -30 -136.5t-86 -50.5q-29 0 -47 17.5t-22 55.5q-13 -42 -38.5 -62.5t-60.5 -20.5q-38 0 -62 24.5t-24 67.5 q0 51 33.5 81t92.5 30h53q0 31 -5 51.5t-14.5 33t-22.5 17.5t-29 5q-28 0 -45.5 -13.5t-28.5 -40.5l-30 18q11 30 36.5 49t69.5 19q54 0 79.5 -32.5t25.5 -102.5v-94q0 -76 47 -76q37 0 58 42t21 117q0 135 -60 208t-161 73q-53 0 -96 -21t-73.5 -61t-47.5 -98t-17 -132 q0 -75 17.5 -133t48.5 -98t74 -61t95 -21q117 0 179 88l20 -16q-68 -97 -200 -97zM287 109q40 0 62 35t24 95v11h-49q-45 0 -70 -21t-25 -58q0 -29 16 -45.5t42 -16.5z" />
<glyph unicode="A" horiz-adv-x="464" d="M231 638l-113 -431h227zM398 0l-42 159h-248l-42 -159h-55l188 700h67l188 -700h-56z" />
<glyph unicode="B" horiz-adv-x="510" d="M86 0v700h191q91 0 132 -49.5t41 -128.5q0 -60 -25 -101.5t-68 -58.5q28 -6 48.5 -22.5t34 -39t19.5 -49.5t6 -54q0 -98 -47 -147.5t-149 -49.5h-183zM276 653h-137v-270h143q28 0 50 11t36 29t21.5 42.5t7.5 51.5q0 67 -32.5 101.5t-88.5 34.5zM283 333h-144v-286h132 q72 0 106.5 35.5t34.5 114.5q0 62 -32 99t-97 37z" />
<glyph unicode="C" horiz-adv-x="525" d="M291 -11q-56 0 -99.5 19.5t-73 63t-44.5 112t-15 166.5q0 99 15 167.5t44.5 111.5t73 62.5t99.5 19.5q35 0 66 -7.5t56.5 -26.5t44.5 -50t31 -77l-48 -21q-10 39 -24.5 64.5t-34 41t-42.5 22t-49 6.5q-41 0 -74 -15t-56 -51t-35.5 -96t-12.5 -150t12.5 -150.5t35.5 -97 t56 -52t75 -15.5q54 0 95 31t64 108l45 -21q-24 -86 -79 -125.5t-126 -39.5z" />
<glyph unicode="D" horiz-adv-x="561" d="M258 0h-172v700h173q59 0 104.5 -19t76 -60.5t46.5 -107t16 -157.5q0 -186 -63 -271t-181 -85zM256 48q43 0 78.5 15.5t61 51.5t39 94.5t13.5 145.5q0 84 -13 141t-37 92t-59 50t-79 15h-120v-605h116z" />
<glyph unicode="E" horiz-adv-x="495" d="M86 0v700h374v-48h-321v-278h277v-49h-277v-278h320v-47h-373z" />
<glyph unicode="F" horiz-adv-x="460" d="M86 0v700h358v-48h-304v-281h272v-49h-272v-322h-54z" />
<glyph unicode="G" horiz-adv-x="551" d="M282 -11q-53 0 -94.5 20.5t-70 64.5t-43.5 112t-15 164q0 99 15 167.5t44.5 111.5t73 62.5t99.5 19.5q35 0 66 -8t56 -26.5t44.5 -49t31.5 -76.5l-48 -21q-11 39 -26 64.5t-34 41t-41.5 21.5t-48.5 6q-42 0 -75 -15t-56 -51t-35 -96t-12 -151q0 -89 12 -149.5t35 -97 t56 -52.5t74 -16q30 0 57.5 11.5t48 37.5t33.5 69.5t15 106.5v25h-147v44h198v-329h-39l-7 125q-17 -67 -62 -101.5t-105 -34.5z" />
<glyph unicode="H" horiz-adv-x="592" d="M452 0v327h-312v-327h-54v700h54v-324h312v324h54v-700h-54z" />
<glyph unicode="I" horiz-adv-x="226" d="M86 0v700h54v-700h-54z" />
<glyph unicode="J" horiz-adv-x="384" d="M313 249q0 -72 -13.5 -121.5t-37.5 -80.5t-57.5 -44.5t-73.5 -13.5q-33 0 -64 11t-56 34l30 42q18 -20 42 -29t49 -9q57 0 92 47t35 157v458h54v-451z" />
<glyph unicode="K" horiz-adv-x="483" d="M140 209v-209h-54v700h54l-1 -413l264 413h59l-203 -308l218 -392h-61l-189 339z" />
<glyph unicode="L" horiz-adv-x="469" d="M140 48h308v-48h-362v700h54v-652z" />
<glyph unicode="M" horiz-adv-x="709" d="M332 0l-199 598l3 -598h-50v700h63l206 -623l204 623h64v-700h-51l3 598l-198 -598h-45z" />
<glyph unicode="N" horiz-adv-x="585" d="M448 0l-314 600l2 -600h-50v700h53l313 -598l-3 598h50v-700h-51z" />
<glyph unicode="O" horiz-adv-x="581" d="M290 -11q-57 0 -100.5 20t-72.5 63.5t-43.5 112t-14.5 165.5t15 165.5t44 112t72 63.5t100 20q59 0 102.5 -20t72.5 -63.5t43 -112t14 -165.5t-15 -165.5t-44 -112t-72.5 -63.5t-100.5 -20zM290 664q-42 0 -75 -15.5t-55.5 -51.5t-34.5 -96.5t-12 -150.5q0 -89 12 -149.5 t34.5 -97t55.5 -52.5t75 -16t75 15.5t55.5 52.5t34.5 97.5t12 150.5q0 89 -12 149t-34.5 96.5t-55.5 52t-75 15.5z" />
<glyph unicode="P" horiz-adv-x="507" d="M86 0v700h184q101 0 148.5 -55t47.5 -161q0 -103 -48.5 -164t-149.5 -61h-128v-259h-54zM268 653h-128v-346h130q66 0 104 43.5t38 132.5q0 88 -35 129t-109 41z" />
<glyph unicode="Q" horiz-adv-x="581" d="M290 -11q-57 0 -100.5 20t-72.5 63.5t-43.5 112t-14.5 165.5t15 165.5t44 112t72 63.5t100 20q59 0 102.5 -20t72.5 -63.5t43 -112t14 -165.5q0 -131 -26.5 -210t-79.5 -116l70 -116h-57l-58 95q-36 -14 -81 -14zM290 664q-42 0 -75 -15t-55.5 -51.5t-34.5 -97 t-12 -150.5q0 -89 12 -149.5t34.5 -97t55.5 -52.5t75 -17q31 0 56 11l-72 124h57l61 -100q37 30 56 97t19 184q0 89 -12 149.5t-34.5 97t-55.5 52t-75 15.5z" />
<glyph unicode="R" horiz-adv-x="505" d="M268 653h-128v-326h128q70 0 107 41.5t37 124.5t-35 121.5t-109 38.5zM86 0v700h184q101 0 148.5 -52t47.5 -154q0 -75 -28.5 -128t-87.5 -74l121 -292h-58l-114 281q-7 -1 -15 -1.5t-16 -0.5h-128v-279h-54z" />
<glyph unicode="S" horiz-adv-x="459" d="M408 557l-45 -20q-21 73 -59 100.5t-86 27.5q-57 0 -90.5 -31t-33.5 -91q0 -56 29.5 -90t86.5 -58l43 -18q42 -18 72.5 -38t50.5 -43.5t29.5 -53t9.5 -67.5q0 -92 -51 -139t-139 -47q-75 0 -127 37.5t-80 127.5l45 23q23 -78 64 -110.5t98 -32.5q69 0 103 36t34 101 q0 52 -27.5 87.5t-97.5 66.5l-44 18q-69 29 -109.5 76t-40.5 121q0 36 11 67t33.5 54.5t55.5 36.5t78 13q69 0 117.5 -36t69.5 -118z" />
<glyph unicode="T" horiz-adv-x="433" d="M13 700h408v-48h-177v-652h-54v652h-177v48z" />
<glyph unicode="U" horiz-adv-x="561" d="M437 231v469h54v-467q0 -125 -56 -184.5t-155 -59.5q-100 0 -154.5 59.5t-54.5 184.5v467h54v-469q0 -52 11 -88.5t31 -60t49 -34.5t64 -11q36 0 65 11t49.5 34.5t31.5 60t11 88.5z" />
<glyph unicode="V" horiz-adv-x="463" d="M232 63l166 637h55l-189 -700h-66l-188 700h55z" />
<glyph unicode="W" horiz-adv-x="688" d="M314 695h61l119 -608l132 613h51l-154 -700h-59l-120 607l-120 -607h-58l-155 700h54l130 -615z" />
<glyph unicode="X" horiz-adv-x="481" d="M405 0l-166 316l-165 -316h-58l194 362l-179 338h60l152 -293l150 293h57l-178 -338l193 -362h-60z" />
<glyph unicode="Y" horiz-adv-x="462" d="M204 283l-191 417h61l158 -363l158 363h58l-190 -416v-284h-54v283z" />
<glyph unicode="Z" horiz-adv-x="437" d="M22 0v43l331 610l-315 -1v48h374v-43l-332 -610l337 1v-48h-395z" />
<glyph unicode="[" horiz-adv-x="260" d="M70 -69v776h145v-42h-98v-692h103v-42h-150z" />
<glyph unicode="\" horiz-adv-x="373" d="M303 0l-294 700h54l294 -700h-54z" />
<glyph unicode="]" horiz-adv-x="261" d="M36 -69v42h103v692h-98v42h145v-776h-150z" />
<glyph unicode="^" horiz-adv-x="313" d="M133 701h49l110 -306v-1h-49l-86 251l-88 -251h-47v1z" />
<glyph unicode="_" horiz-adv-x="360" d="M362 0v-42h-364v42h364z" />
<glyph unicode="`" horiz-adv-x="452" d="M212 568l-82 106v5h65l60 -108v-3h-43z" />
<glyph unicode="a" horiz-adv-x="423" d="M178 33q57 0 90.5 49t36.5 137v28h-71q-65 0 -102.5 -31.5t-37.5 -89.5q0 -44 22.5 -68.5t61.5 -24.5zM313 0l-5 112q-17 -60 -53 -91.5t-88 -31.5q-55 0 -89 35.5t-34 98.5q0 78 50 122t134 44h77v13q0 42 -8 70t-21.5 45t-32.5 24t-42 7q-36 0 -63.5 -18.5t-41.5 -62.5 l-44 22q17 48 53.5 76t98.5 28q77 0 114.5 -44t37.5 -147v-302h-43z" />
<glyph unicode="b" horiz-adv-x="460" d="M252 -11q-45 0 -80 25t-52 79l-3 -93h-44v700h52v-316q17 56 53 82.5t84 26.5q72 0 111.5 -63t39.5 -188q0 -122 -41.5 -187.5t-119.5 -65.5zM125 238q0 -107 33.5 -156t84.5 -49q118 0 118 208q0 207 -115 207q-53 0 -87 -51t-34 -159z" />
<glyph unicode="c" horiz-adv-x="403" d="M219 -11q-83 0 -127.5 60.5t-44.5 190.5q0 131 45 192t131 61q58 0 93 -29.5t55 -90.5l-45 -22q-16 51 -41 74t-63 23q-62 0 -92.5 -48t-30.5 -160q0 -111 29.5 -159t91.5 -48q43 0 70 25t43 78l44 -19q-18 -57 -55 -92.5t-103 -35.5z" />
<glyph unicode="d" horiz-adv-x="459" d="M334 243q0 106 -33 155.5t-85 49.5q-60 0 -88.5 -52t-28.5 -155q0 -208 116 -208q53 0 86 50.5t33 159.5zM342 0l-4 103q-17 -57 -52.5 -85.5t-84.5 -28.5q-75 0 -114.5 65t-39.5 187t41 187t119 65q45 0 77.5 -26t49.5 -77v310h52v-700h-44z" />
<glyph unicode="e" horiz-adv-x="413" d="M218 -11q-81 0 -126 61t-45 191q0 125 43 188.5t126 63.5q79 0 118 -63.5t39 -171.5q0 -8 -0.5 -16.5t-0.5 -15.5h-275q3 -103 34 -148.5t89 -45.5q83 0 113 103l43 -20q-19 -55 -55.5 -90.5t-102.5 -35.5zM215 449q-54 0 -83.5 -44t-33.5 -137h224q-2 93 -28.5 137 t-78.5 44z" />
<glyph unicode="f" horiz-adv-x="270" d="M259 439h-113v-439h-53v439h-68v43h68v85q0 39 9 67t25 45.5t36.5 25.5t44.5 8q17 0 33.5 -4.5t31.5 -14.5l-16 -44q-25 14 -48 14q-29 0 -46 -22t-17 -78v-82h113v-43z" />
<glyph unicode="g" horiz-adv-x="458" d="M333 249q0 102 -33 150.5t-85 48.5q-116 0 -116 -203q0 -102 29 -153.5t85 -51.5q54 0 87 50.5t33 158.5zM208 -209q-62 0 -102.5 28t-63.5 88l45 22q17 -51 47 -72.5t71 -21.5q60 0 94 39.5t34 129.5v100q-16 -55 -51.5 -81.5t-80.5 -26.5q-73 0 -113.5 62.5 t-40.5 185.5q0 121 41.5 185t119.5 64q43 0 77.5 -26t51.5 -79l4 94h44v-480q0 -56 -13 -95.5t-36 -65.5t-56 -38t-72 -12z" />
<glyph unicode="h" horiz-adv-x="467" d="M348 299q0 82 -26 115t-72 33q-58 0 -90 -53.5t-35 -143.5v-250h-52v700h52v-330q17 62 54.5 92.5t88.5 30.5q132 0 132 -180v-313h-52v299z" />
<glyph unicode="i" horiz-adv-x="198" d="M60 622q0 20 10.5 31t28.5 11t28.5 -11t10.5 -31t-10.5 -31t-28.5 -11t-28.5 11t-10.5 31zM73 482h52v-482h-52v482z" />
<glyph unicode="j" horiz-adv-x="198" d="M99 580q-18 0 -28.5 11t-10.5 31t10.5 31t28.5 11t28.5 -11t10.5 -31t-10.5 -31t-28.5 -11zM73 -51v533h52v-544q0 -78 -28 -112.5t-77 -34.5q-17 0 -32 3t-30 11l15 46q10 -6 19.5 -9t23.5 -3q28 0 42.5 24t14.5 86z" />
<glyph unicode="k" horiz-adv-x="395" d="M125 132v-132h-52v700h52l-2 -502l190 284h60l-150 -210l157 -272h-60l-127 227z" />
<glyph unicode="l" horiz-adv-x="203" d="M164 0q-42 0 -67.5 23t-25.5 79v598h52v-597q0 -32 12 -44.5t33 -12.5h24v-46h-28z" />
<glyph unicode="m" horiz-adv-x="692" d="M321 0v299q0 81 -22.5 114.5t-63.5 33.5q-49 0 -78 -50t-32 -143v-254h-52v482h44l5 -111q16 63 51.5 92.5t79.5 29.5q49 0 76 -34.5t35 -94.5q16 66 53 97.5t85 31.5q122 0 122 -178v-315h-52v301q0 81 -22.5 113.5t-62.5 32.5q-50 0 -79.5 -47.5t-34.5 -133.5v-266h-52 z" />
<glyph unicode="n" horiz-adv-x="467" d="M73 482h45l4 -113q17 63 55 93.5t89 30.5q134 0 134 -180v-313h-52v301q0 80 -26 113t-72 33q-57 0 -90 -53.5t-35 -143.5v-250h-52v482z" />
<glyph unicode="o" horiz-adv-x="441" d="M47 241q0 130 45 191t129 61q86 0 129.5 -60.5t43.5 -191.5q0 -129 -44 -190.5t-129 -61.5q-86 0 -130 60.5t-44 191.5zM342 240q0 110 -29 159t-92 49q-64 0 -93 -49t-29 -159q0 -109 29.5 -158t92.5 -49t92 49t29 158z" />
<glyph unicode="p" horiz-adv-x="460" d="M125 238q0 -107 33.5 -156t83.5 -49q60 0 89.5 53t29.5 156q0 206 -113 206q-54 0 -88.5 -51t-34.5 -159zM117 482l5 -105q16 59 53.5 87.5t86.5 28.5q73 0 112 -64t39 -187q0 -122 -41.5 -187.5t-120.5 -65.5q-42 0 -75.5 23.5t-50.5 73.5v-272h-52v668h44z" />
<glyph unicode="q" horiz-adv-x="459" d="M207 493q44 0 79.5 -25t52.5 -79l3 93h44v-668h-52v283q-17 -56 -52.5 -82t-81.5 -26q-75 0 -114 63.5t-39 188.5q0 122 41 187t119 65zM334 245q0 105 -33 154t-84 49q-118 0 -118 -207q0 -208 116 -208q53 0 86 51.5t33 160.5z" />
<glyph unicode="r" horiz-adv-x="274" d="M73 0v482h44l5 -121q16 66 53.5 99t86.5 30v-54q-63 5 -98.5 -44.5t-38.5 -147.5v-244h-52z" />
<glyph unicode="s" horiz-adv-x="361" d="M182 31q45 0 69.5 22.5t24.5 64.5q0 32 -18.5 56t-64.5 42l-33 13q-58 23 -89 54.5t-31 85.5q0 55 34.5 90t102.5 35q54 0 88.5 -25t55.5 -80l-44 -22q-27 85 -100 85q-41 0 -65 -20t-24 -59q0 -32 19.5 -54t66.5 -41l35 -14q60 -24 88.5 -58t28.5 -85q0 -27 -8.5 -51 t-26.5 -42t-45.5 -28.5t-64.5 -10.5q-67 0 -104 32t-57 86l45 21q16 -51 46 -74t71 -23z" />
<glyph unicode="t" horiz-adv-x="273" d="M258 7q-14 -9 -31 -13.5t-33 -4.5q-24 0 -44.5 7.5t-35.5 24.5t-23.5 43.5t-8.5 65.5v309h-65v43h65v146h53v-146h114v-43h-114v-304q0 -54 16.5 -75.5t45.5 -21.5q26 0 47 14z" />
<glyph unicode="u" horiz-adv-x="465" d="M393 0h-45l-4 101q-17 -57 -54.5 -84.5t-85.5 -27.5q-69 0 -102.5 47.5t-33.5 141.5v304h52v-296q0 -81 26 -116.5t73 -35.5q57 0 87.5 50t34.5 138v260h52v-482z" />
<glyph unicode="v" horiz-adv-x="373" d="M10 482h55l123 -425l123 425h53l-149 -482h-57z" />
<glyph unicode="w" horiz-adv-x="548" d="M247 474h57l89 -409l93 417h51l-116 -482h-59l-88 403l-88 -403h-58l-117 482h54l92 -417z" />
<glyph unicode="x" horiz-adv-x="380" d="M307 0l-119 205l-118 -205h-55l145 248l-136 234h59l108 -192l109 192h55l-136 -234l147 -248h-59z" />
<glyph unicode="y" horiz-adv-x="375" d="M147 -56l14 49l-151 489h55l123 -420l124 420h53l-172 -556q-13 -42 -28 -68.5t-32 -41.5t-35.5 -20.5t-38.5 -5.5q-19 0 -34 3t-33 11l15 45q14 -5 25.5 -8t23.5 -3q14 0 26.5 4t24 16t21.5 32.5t19 53.5z" />
<glyph unicode="z" horiz-adv-x="361" d="M29 0v42l238 396h-232v44h289v-42l-238 -396h243v-44h-300z" />
<glyph unicode="{" horiz-adv-x="268" d="M208 -76q-45 5 -69 34.5t-24 89.5q0 34 4 66t4 61q0 66 -19.5 95.5t-66.5 29.5h-19v42h19q47 0 66.5 29.5t19.5 94.5q0 32 -4 63t-4 66q0 59 24 88t69 36l16 -42q-30 -5 -46.5 -24.5t-16.5 -61.5q0 -29 4 -62t4 -67q0 -59 -16 -93t-53 -48q37 -14 53 -47.5t16 -92.5 q0 -34 -4 -67t-4 -62q0 -42 16.5 -61.5t46.5 -24.5z" />
<glyph unicode="|" horiz-adv-x="218" d="M85 -65v831h47v-831h-47z" />
<glyph unicode="}" horiz-adv-x="268" d="M41 -34q30 5 46.5 24.5t16.5 61.5q0 29 -4 62t-4 67q0 59 16 92.5t53 47.5q-37 14 -53 48t-16 93q0 34 4 67t4 62q0 42 -16.5 61.5t-46.5 24.5l16 42q45 -7 69 -36t24 -88q0 -35 -4 -66t-4 -63q0 -65 19.5 -94.5t66.5 -29.5h19v-42h-19q-47 0 -66.5 -29.5t-19.5 -95.5 q0 -29 4 -61t4 -66q0 -60 -24 -89.5t-69 -34.5z" />
<glyph unicode="~" horiz-adv-x="389" d="M327 406l41 -7q-4 -65 -30.5 -91.5t-61.5 -26.5q-26 0 -47 13t-41 28q-18 14 -34.5 24.5t-36.5 10.5q-19 0 -34.5 -16t-19.5 -59l-41 7q5 66 31 92t62 26q26 0 47 -12.5t41 -27.5q17 -14 34.5 -24.5t35.5 -10.5q19 0 34.5 15.5t19.5 58.5z" />
<glyph unicode="&#xa1;" horiz-adv-x="171" d="M54 -198l9 520h40l8 -520h-57zM83 508q17 0 27.5 -11t10.5 -31t-10.5 -31t-27.5 -11q-38 0 -38 42q0 20 10 31t28 11z" />
<glyph unicode="&#xa2;" horiz-adv-x="402" d="M366 138q-17 -52 -49.5 -85t-89.5 -37v-78h-38v78q-72 6 -110.5 63.5t-38.5 174.5q0 115 38.5 173.5t110.5 65.5v81h38v-80q51 -2 83.5 -30.5t50.5 -84.5l-42 -21q-15 45 -37.5 66.5t-54.5 25.5v-392q71 7 98 99zM89 254q0 -96 24.5 -142t75.5 -53v390 q-51 -7 -75.5 -52.5t-24.5 -142.5z" />
<glyph unicode="&#xa3;" horiz-adv-x="427" d="M418 74q-25 -45 -59 -59.5t-77 -14.5h-248v43h21q27 0 36.5 28.5t7.5 86.5l-4 157h-61v43h61l-4 152q-2 103 38.5 152t116.5 49q61 0 99.5 -30.5t62.5 -101.5l-43 -23q-19 59 -48.5 84.5t-70.5 25.5q-107 0 -103 -155l4 -153h154v-43h-153l4 -157q3 -89 -23 -115h153 q31 0 56 12t46 50z" />
<glyph unicode="&#xa5;" horiz-adv-x="462" d="M408 243h-150v-243h-54v243h-150v45h147l-26 57h-121v44h101l-142 311h60l160 -366l158 366h57l-142 -311h102v-44h-122l-26 -57h148v-45z" />
<glyph unicode="&#xa6;" horiz-adv-x="218" d="M85 382v384h47v-384h-47zM85 -65v385h47v-385h-47z" />
<glyph unicode="&#xa7;" horiz-adv-x="390" d="M104 354q-1 -32 16.5 -56.5t58.5 -38.5l21 -6q19 -6 37 -3t31.5 14t22 29.5t8.5 43.5q1 32 -16 56t-59 38l-21 7q-20 6 -38 3t-31.5 -14.5t-21.5 -30t-8 -42.5zM195 -22q-63 0 -100.5 33t-57.5 87l42 21q17 -53 47.5 -76.5t68.5 -23.5q49 0 69.5 24.5t20.5 63.5 q0 38 -16.5 60t-61.5 36l-33 10q-57 19 -86 53t-29 87q0 41 19.5 70.5t53.5 40.5q-27 18 -43.5 48t-16.5 69q0 57 34.5 93.5t95.5 36.5q51 0 85 -23.5t54 -76.5l-43 -21q-25 79 -98 79q-38 0 -60.5 -22.5t-22.5 -63.5q0 -31 16.5 -56.5t61.5 -40.5l37 -12q35 -12 57 -26.5 t34 -32t16.5 -36.5t4.5 -39q0 -42 -19 -72.5t-55 -41.5q36 -21 49 -50t13 -66q0 -27 -8 -51t-24.5 -42t-42.5 -28.5t-62 -10.5z" />
<glyph unicode="&#xa8;" horiz-adv-x="452" d="M252 622q0 42 37 42q38 0 38 -42q0 -41 -38 -41q-37 0 -37 41zM130 622q0 20 10 31t27 11q38 0 38 -42q0 -41 -38 -41q-17 0 -27 10.5t-10 30.5z" />
<glyph unicode="&#xa9;" horiz-adv-x="621" d="M52 349q0 79 18 142t52 106.5t82 67t107 23.5t107 -23.5t81.5 -67t51.5 -106.5t18 -142t-18 -142t-51.5 -106.5t-81.5 -67t-107 -23.5t-107 23.5t-82 67t-52 106.5t-18 142zM81 349q0 -75 16.5 -133t47 -98t73 -61t93.5 -21q52 0 94 21t72 61t46.5 98t16.5 133t-16.5 133 t-46.5 98t-72 61t-94 21q-51 0 -93.5 -21t-73 -61t-47 -98t-16.5 -133zM432 272q-32 -97 -118 -97q-61 0 -95.5 41t-34.5 136q0 94 34.5 136t97.5 42q83 0 112 -86l-35 -18q-22 71 -78 71q-45 0 -68 -33t-23 -113q0 -77 23.5 -109t67.5 -32q32 0 51 18t31 57z" />
<glyph unicode="&#xaa;" horiz-adv-x="305" d="M134 389q40 0 63 36t23 102v7h-57q-42 0 -66 -21t-24 -57q0 -67 61 -67zM225 363l-4 75q-22 -83 -98 -83q-38 0 -63.5 25.5t-25.5 73.5q0 51 34.5 81t93.5 30h58v5q-1 61 -19.5 82.5t-54.5 21.5q-31 0 -50 -13t-32 -36l-28 23q35 62 115 62q51 0 79.5 -30.5t28.5 -106.5 v-210h-34z" />
<glyph unicode="&#xab;" horiz-adv-x="465" d="M189 0l-143 239v3l142 240h57l-144 -240l146 -242h-58zM342 0l-146 240v3l144 239h57l-145 -239l149 -243h-59z" />
<glyph unicode="&#xad;" horiz-adv-x="304" d="M265 273v-46h-226v46h226z" />
<glyph unicode="&#xae;" horiz-adv-x="358" d="M179 346q-66 0 -104 50.5t-38 131.5q0 83 38 133t104 50t104 -50t38 -133q0 -81 -38 -131.5t-104 -50.5zM179 365q54 0 88 42.5t34 120.5t-34 121.5t-88 43.5t-88 -43.5t-34 -121.5t34 -120.5t88 -42.5zM179 603h-31v-75h33q31 0 31 37q0 17 -8.5 27.5t-24.5 10.5z M127 441v182h52q26 0 40 -15.5t14 -42.5q0 -41 -28 -53l27 -71h-23l-25 66h-36v-66h-21z" />
<glyph unicode="&#xaf;" horiz-adv-x="452" d="M322 641v-39h-183v39h183z" />
<glyph unicode="&#xb0;" horiz-adv-x="348" d="M175 358q-66 0 -101.5 48t-35.5 127q0 80 35.5 128t101.5 48q64 0 100 -48t36 -128q0 -79 -36 -127t-100 -48zM175 672q-46 0 -72 -36.5t-26 -102.5t26 -102t72 -36q45 0 71 36t26 102t-26 102.5t-71 36.5z" />
<glyph unicode="&#xb1;" horiz-adv-x="375" d="M210 132h-44v161h-126v44h126v165h44v-165h126v-44h-126v-161zM336 44v-44h-296v44h296z" />
<glyph unicode="&#xb2;" horiz-adv-x="264" d="M16 295zM22 295v33l120 169q26 38 36 63.5t10 45.5q0 67 -60 67q-29 0 -47.5 -16t-31.5 -50l-33 15q32 89 115 89q49 0 74.5 -26.5t25.5 -72.5q0 -29 -13 -60.5t-45 -76.5l-101 -143l173 1v-38h-223z" />
<glyph unicode="&#xb3;" horiz-adv-x="277" d="M19 288zM131 288q-41 0 -69 18.5t-43 60.5l34 16q11 -32 30.5 -45.5t45.5 -13.5q38 0 56.5 23t18.5 64q0 35 -16 57t-51 22h-38v36h37q26 0 42.5 20t16.5 56q0 35 -17 53.5t-49 18.5q-28 0 -44.5 -15t-27.5 -45l-34 14q28 83 111 83q53 0 78 -28t25 -74q0 -71 -50 -99 q31 -11 44.5 -38.5t13.5 -62.5q0 -54 -28.5 -87.5t-85.5 -33.5z" />
<glyph unicode="&#xb4;" horiz-adv-x="452" d="M317 674l-81 -106h-43v3l60 108h64v-5z" />
<glyph unicode="&#xb6;" horiz-adv-x="488" d="M298 308h56v346h-56v-346zM92 483q0 -88 37 -132t100 -43h21v345h-18q-140 2 -140 -170zM250 0v259h-14q-98 1 -146.5 61.5t-48.5 163.5q0 106 48.5 161t149.5 55h164v-700h-49v259h-56v-259h-48z" />
<glyph unicode="&#xb7;" horiz-adv-x="167" d="M46 294zM84 294q-18 0 -28 11t-10 31q0 42 38 42q37 0 37 -42q0 -20 -9.5 -31t-27.5 -11z" />
<glyph unicode="&#xb8;" horiz-adv-x="452" d="M238 -228q-28 0 -50.5 13t-38.5 43l31 20q20 -41 57 -41q50 0 50 47q0 23 -12.5 34t-29.5 11q-5 0 -9.5 -0.5t-9.5 -1.5l-11 11l15 92h35l-13 -73q2 1 9 1q25 0 45 -17.5t20 -55.5q0 -42 -25 -62.5t-63 -20.5z" />
<glyph unicode="&#xb9;" horiz-adv-x="162" d="M10 295zM110 295h-42v349l-41 -38l-17 35l72 64h28v-410z" />
<glyph unicode="&#xba;" horiz-adv-x="319" d="M35 533q0 92 32 135t92 43q62 0 93 -42.5t31 -135.5q0 -91 -31.5 -134.5t-92.5 -43.5q-60 0 -92 42.5t-32 135.5zM244 533q0 75 -20.5 109t-64.5 34q-43 0 -63.5 -34t-20.5 -109t20.5 -109t63.5 -34t64 34t21 109z" />
<glyph unicode="&#xbb;" horiz-adv-x="465" d="M271 483l143 -239v-3l-142 -240h-57l144 240l-146 242h58zM118 483l146 -240v-3l-144 -239h-57l145 239l-149 243h59z" />
<glyph unicode="&#xbc;" horiz-adv-x="629" d="M10 0zM110 293h-42v349l-41 -38l-17 35l72 64h28v-410zM406 701l-250 -701h-49l251 701h48zM352 106v32l102 271h42l-101 -265h129v184h41v-184h46v-38h-46v-106h-41v106h-172z" />
<glyph unicode="&#xbd;" horiz-adv-x="612" d="M10 0zM358 0v33l120 169q26 38 36 63.5t10 45.5q0 67 -60 67q-29 0 -47.5 -16t-31.5 -50l-33 15q32 89 115 89q49 0 74.5 -26.5t25.5 -72.5q0 -29 -13 -60.5t-45 -76.5l-101 -143l173 1v-38h-223zM110 293h-42v349l-41 -38l-17 35l72 64h28v-410zM406 701l-250 -701h-49 l251 701h48z" />
<glyph unicode="&#xbe;" horiz-adv-x="716" d="M19 0zM131 286q-41 0 -69 18.5t-43 60.5l34 16q11 -32 30.5 -45.5t45.5 -13.5q38 0 56.5 23t18.5 64q0 35 -16 57t-51 22h-38v36h37q26 0 42.5 20t16.5 56q0 35 -17 53.5t-49 18.5q-28 0 -44.5 -15t-27.5 -45l-34 14q28 83 111 83q53 0 78 -28t25 -74q0 -71 -50 -99 q31 -11 44.5 -38.5t13.5 -62.5q0 -54 -28.5 -87.5t-85.5 -33.5zM503 701l-250 -701h-49l251 701h48zM439 106v32l102 271h42l-101 -265h129v184h41v-184h46v-38h-46v-106h-41v106h-172z" />
<glyph unicode="&#xbf;" horiz-adv-x="378" d="M208 322l2 -142h-22q-66 0 -101.5 -46t-35.5 -129q0 -81 36 -124t100 -43q48 0 84.5 27t55.5 94l43 -18q-11 -42 -30 -70.5t-43 -46.5t-53 -25.5t-60 -7.5q-88 0 -136 56.5t-48 155.5q0 96 42 151.5t118 62.5l3 105h45zM186 508q17 0 27.5 -11t10.5 -31t-10.5 -31 t-27.5 -11q-38 0 -38 42q0 20 10 31t28 11z" />
<glyph unicode="&#xc0;" horiz-adv-x="464" d="M11 0zM231 638l-113 -431h227zM398 0l-42 159h-248l-42 -159h-55l188 700h67l188 -700h-56zM216 787l-82 106v5h65l60 -108v-3h-43z" />
<glyph unicode="&#xc1;" horiz-adv-x="464" d="M11 0zM231 638l-113 -431h227zM398 0l-42 159h-248l-42 -159h-55l188 700h67l188 -700h-56zM332 892l-81 -106h-43v3l60 108h64v-5z" />
<glyph unicode="&#xc2;" horiz-adv-x="464" d="M11 0zM231 638l-113 -431h227zM398 0l-42 159h-248l-42 -159h-55l188 700h67l188 -700h-56zM232 865l-60 -79h-52v2l90 109h46l90 -109v-2h-53z" />
<glyph unicode="&#xc3;" horiz-adv-x="464" d="M11 0zM231 638l-113 -431h227zM398 0l-42 159h-248l-42 -159h-55l188 700h67l188 -700h-56zM303 886h36q1 -26 -4 -42.5t-14 -26t-20 -13.5t-21 -4q-16 0 -28 7.5t-23 17t-21.5 17t-22.5 7.5q-25 0 -25 -45h-37q0 25 5 41.5t13 26.5t18.5 13.5t21.5 3.5q16 0 29 -7.5 t24 -16t21.5 -16t22.5 -7.5q24 0 25 44z" />
<glyph unicode="&#xc4;" horiz-adv-x="464" d="M11 0zM231 638l-113 -431h227zM398 0l-42 159h-248l-42 -159h-55l188 700h67l188 -700h-56zM258 840q0 42 37 42q38 0 38 -42q0 -41 -38 -41q-37 0 -37 41zM136 840q0 20 10 31t27 11q38 0 38 -42q0 -41 -38 -41q-17 0 -27 10.5t-10 30.5z" />
<glyph unicode="&#xc5;" horiz-adv-x="464" d="M11 0zM231 638l-113 -431h227zM398 0l-42 159h-248l-42 -159h-55l188 700h67l188 -700h-56zM157 853q0 39 22 62.5t55 23.5q32 0 53.5 -23.5t21.5 -62.5q0 -38 -21.5 -61.5t-54.5 -23.5q-32 0 -54 23.5t-22 61.5zM188 853q0 -25 12.5 -41t32.5 -16t33 16t13 41 q0 26 -13 41.5t-32 15.5q-20 0 -33 -15.5t-13 -41.5z" />
<glyph unicode="&#xc6;" horiz-adv-x="691" d="M233 648l-115 -441h223zM390 0l-39 159h-244l-42 -159h-55l191 700h451v-47h-368l68 -276h260v-50h-249l70 -279h227v-48h-270z" />
<glyph unicode="&#xc7;" horiz-adv-x="525" d="M283 -228q-28 0 -50.5 13t-38.5 43l31 20q20 -41 57 -41q50 0 50 47q0 23 -12.5 34t-29.5 11q-5 0 -9.5 -0.5t-9.5 -1.5l-11 11l14 82q-52 3 -92 24t-67.5 64t-41.5 110t-14 162q0 99 15 167.5t44.5 111.5t73 62.5t99.5 19.5q35 0 66 -7.5t56.5 -26.5t44.5 -50t31 -77 l-48 -21q-10 39 -24.5 64.5t-34 41t-42.5 22t-49 6.5q-41 0 -74 -15t-56 -51t-35.5 -96t-12.5 -150t12.5 -150.5t35.5 -97t56 -52t75 -15.5q54 0 95 31t64 108l45 -21q-23 -81 -72.5 -120t-115.5 -44l-11 -63q2 1 4 1h5q25 0 45 -17.5t20 -55.5q0 -42 -25 -62.5t-63 -20.5z " />
<glyph unicode="&#xc8;" horiz-adv-x="495" d="M86 0zM86 0v700h374v-48h-321v-278h277v-49h-277v-278h320v-47h-373zM259 787l-82 106v5h65l60 -108v-3h-43z" />
<glyph unicode="&#xc9;" horiz-adv-x="495" d="M86 0zM86 0v700h374v-48h-321v-278h277v-49h-277v-278h320v-47h-373zM375 892l-81 -106h-43v3l60 108h64v-5z" />
<glyph unicode="&#xca;" horiz-adv-x="495" d="M86 0zM86 0v700h374v-48h-321v-278h277v-49h-277v-278h320v-47h-373zM275 865l-60 -79h-52v2l90 109h46l90 -109v-2h-53z" />
<glyph unicode="&#xcb;" horiz-adv-x="495" d="M86 0zM86 0v700h374v-48h-321v-278h277v-49h-277v-278h320v-47h-373zM301 840q0 42 37 42q38 0 38 -42q0 -41 -38 -41q-37 0 -37 41zM179 840q0 20 10 31t27 11q38 0 38 -42q0 -41 -38 -41q-17 0 -27 10.5t-10 30.5z" />
<glyph unicode="&#xcc;" horiz-adv-x="226" d="M15 0zM86 0v700h54v-700h-54zM97 787l-82 106v5h65l60 -108v-3h-43z" />
<glyph unicode="&#xcd;" horiz-adv-x="226" d="M86 0zM86 0v700h54v-700h-54zM213 892l-81 -106h-43v3l60 108h64v-5z" />
<glyph unicode="&#xce;" horiz-adv-x="226" d="M1 0zM86 0v700h54v-700h-54zM113 865l-60 -79h-52v2l90 109h46l90 -109v-2h-53z" />
<glyph unicode="&#xcf;" horiz-adv-x="226" d="M17 0zM86 0v700h54v-700h-54zM139 840q0 42 37 42q38 0 38 -42q0 -41 -38 -41q-37 0 -37 41zM17 840q0 20 10 31t27 11q38 0 38 -42q0 -41 -38 -41q-17 0 -27 10.5t-10 30.5z" />
<glyph unicode="&#xd0;" horiz-adv-x="573" d="M270 0h-173v340h-60v46h60v314h174q59 0 104.5 -19t76 -60.5t46.5 -107t16 -157.5q0 -186 -63 -271t-181 -85zM151 48h116q44 0 79.5 15.5t61 51.5t39 94.5t13.5 145.5q0 84 -13 141t-37.5 92t-59.5 50t-79 15h-120v-267h124v-46h-124v-292z" />
<glyph unicode="&#xd1;" horiz-adv-x="585" d="M86 0zM448 0l-314 600l2 -600h-50v700h53l313 -598l-3 598h50v-700h-51zM364 886h36q1 -26 -4 -42.5t-14 -26t-20 -13.5t-21 -4q-16 0 -28 7.5t-23 17t-21.5 17t-22.5 7.5q-25 0 -25 -45h-37q0 25 5 41.5t13 26.5t18.5 13.5t21.5 3.5q16 0 29 -7.5t24 -16t21.5 -16 t22.5 -7.5q24 0 25 44z" />
<glyph unicode="&#xd2;" horiz-adv-x="581" d="M59 0zM290 -11q-57 0 -100.5 20t-72.5 63.5t-43.5 112t-14.5 165.5t15 165.5t44 112t72 63.5t100 20q59 0 102.5 -20t72.5 -63.5t43 -112t14 -165.5t-15 -165.5t-44 -112t-72.5 -63.5t-100.5 -20zM290 664q-42 0 -75 -15.5t-55.5 -51.5t-34.5 -96.5t-12 -150.5 q0 -89 12 -149.5t34.5 -97t55.5 -52.5t75 -16t75 15.5t55.5 52.5t34.5 97.5t12 150.5q0 89 -12 149t-34.5 96.5t-55.5 52t-75 15.5zM273 788l-82 106v5h65l60 -108v-3h-43z" />
<glyph unicode="&#xd3;" horiz-adv-x="581" d="M59 0zM290 -11q-57 0 -100.5 20t-72.5 63.5t-43.5 112t-14.5 165.5t15 165.5t44 112t72 63.5t100 20q59 0 102.5 -20t72.5 -63.5t43 -112t14 -165.5t-15 -165.5t-44 -112t-72.5 -63.5t-100.5 -20zM290 664q-42 0 -75 -15.5t-55.5 -51.5t-34.5 -96.5t-12 -150.5 q0 -89 12 -149.5t34.5 -97t55.5 -52.5t75 -16t75 15.5t55.5 52.5t34.5 97.5t12 150.5q0 89 -12 149t-34.5 96.5t-55.5 52t-75 15.5zM389 892l-81 -106h-43v3l60 108h64v-5z" />
<glyph unicode="&#xd4;" horiz-adv-x="581" d="M59 0zM290 -11q-57 0 -100.5 20t-72.5 63.5t-43.5 112t-14.5 165.5t15 165.5t44 112t72 63.5t100 20q59 0 102.5 -20t72.5 -63.5t43 -112t14 -165.5t-15 -165.5t-44 -112t-72.5 -63.5t-100.5 -20zM290 664q-42 0 -75 -15.5t-55.5 -51.5t-34.5 -96.5t-12 -150.5 q0 -89 12 -149.5t34.5 -97t55.5 -52.5t75 -16t75 15.5t55.5 52.5t34.5 97.5t12 150.5q0 89 -12 149t-34.5 96.5t-55.5 52t-75 15.5zM289 865l-60 -79h-52v2l90 109h46l90 -109v-2h-53z" />
<glyph unicode="&#xd5;" horiz-adv-x="581" d="M59 0zM290 -11q-57 0 -100.5 20t-72.5 63.5t-43.5 112t-14.5 165.5t15 165.5t44 112t72 63.5t100 20q59 0 102.5 -20t72.5 -63.5t43 -112t14 -165.5t-15 -165.5t-44 -112t-72.5 -63.5t-100.5 -20zM290 664q-42 0 -75 -15.5t-55.5 -51.5t-34.5 -96.5t-12 -150.5 q0 -89 12 -149.5t34.5 -97t55.5 -52.5t75 -16t75 15.5t55.5 52.5t34.5 97.5t12 150.5q0 89 -12 149t-34.5 96.5t-55.5 52t-75 15.5zM360 886h36q1 -26 -4 -42.5t-14 -26t-20 -13.5t-21 -4q-16 0 -28 7.5t-23 17t-21.5 17t-22.5 7.5q-25 0 -25 -45h-37q0 25 5 41.5t13 26.5 t18.5 13.5t21.5 3.5q16 0 29 -7.5t24 -16t21.5 -16t22.5 -7.5q24 0 25 44z" />
<glyph unicode="&#xd6;" horiz-adv-x="581" d="M59 0zM290 -11q-57 0 -100.5 20t-72.5 63.5t-43.5 112t-14.5 165.5t15 165.5t44 112t72 63.5t100 20q59 0 102.5 -20t72.5 -63.5t43 -112t14 -165.5t-15 -165.5t-44 -112t-72.5 -63.5t-100.5 -20zM290 664q-42 0 -75 -15.5t-55.5 -51.5t-34.5 -96.5t-12 -150.5 q0 -89 12 -149.5t34.5 -97t55.5 -52.5t75 -16t75 15.5t55.5 52.5t34.5 97.5t12 150.5q0 89 -12 149t-34.5 96.5t-55.5 52t-75 15.5zM315 840q0 42 37 42q38 0 38 -42q0 -41 -38 -41q-37 0 -37 41zM193 840q0 20 10 31t27 11q38 0 38 -42q0 -41 -38 -41q-17 0 -27 10.5 t-10 30.5z" />
<glyph unicode="&#xd7;" horiz-adv-x="357" d="M83 154l-31 27l100 133l-102 134l33 27l96 -127l95 126l32 -27l-100 -133l100 -132l-34 -28l-94 126z" />
<glyph unicode="&#xd8;" horiz-adv-x="581" d="M294 -11q-54 0 -94.5 18t-69.5 56l-41 -63h-50l66 100q-21 44 -32 105.5t-11 144.5q0 97 15 165.5t44 112t72.5 63.5t100.5 20q53 0 94 -17.5t70 -55.5l41 62h49l-65 -100q42 -86 42 -250q0 -97 -15 -165.5t-44 -112t-72 -63.5t-100 -20zM116 350q0 -63 6.5 -110.5 t18.5 -82.5l287 433q-23 40 -56.5 57t-77.5 17q-42 0 -75.5 -15.5t-56 -51.5t-34.5 -96.5t-12 -150.5zM294 35q42 0 74.5 15.5t55 52t34.5 97.5t12 151q0 62 -6.5 109t-18.5 82l-286 -434q23 -40 56.5 -56.5t78.5 -16.5z" />
<glyph unicode="&#xd9;" horiz-adv-x="561" d="M71 0zM437 231v469h54v-467q0 -125 -56 -184.5t-155 -59.5q-100 0 -154.5 59.5t-54.5 184.5v467h54v-469q0 -52 11 -88.5t31 -60t49 -34.5t64 -11q36 0 65 11t49.5 34.5t31.5 60t11 88.5zM265 787l-82 106v5h65l60 -108v-3h-43z" />
<glyph unicode="&#xda;" horiz-adv-x="561" d="M71 0zM437 231v469h54v-467q0 -125 -56 -184.5t-155 -59.5q-100 0 -154.5 59.5t-54.5 184.5v467h54v-469q0 -52 11 -88.5t31 -60t49 -34.5t64 -11q36 0 65 11t49.5 34.5t31.5 60t11 88.5zM381 892l-81 -106h-43v3l60 108h64v-5z" />
<glyph unicode="&#xdb;" horiz-adv-x="561" d="M71 0zM437 231v469h54v-467q0 -125 -56 -184.5t-155 -59.5q-100 0 -154.5 59.5t-54.5 184.5v467h54v-469q0 -52 11 -88.5t31 -60t49 -34.5t64 -11q36 0 65 11t49.5 34.5t31.5 60t11 88.5zM281 865l-60 -79h-52v2l90 109h46l90 -109v-2h-53z" />
<glyph unicode="&#xdc;" horiz-adv-x="561" d="M71 0zM437 231v469h54v-467q0 -125 -56 -184.5t-155 -59.5q-100 0 -154.5 59.5t-54.5 184.5v467h54v-469q0 -52 11 -88.5t31 -60t49 -34.5t64 -11q36 0 65 11t49.5 34.5t31.5 60t11 88.5zM307 840q0 42 37 42q38 0 38 -42q0 -41 -38 -41q-37 0 -37 41zM185 840 q0 20 10 31t27 11q38 0 38 -42q0 -41 -38 -41q-17 0 -27 10.5t-10 30.5z" />
<glyph unicode="&#xdd;" horiz-adv-x="462" d="M13 0zM204 283l-191 417h61l158 -363l158 363h58l-190 -416v-284h-54v283zM330 892l-81 -106h-43v3l60 108h64v-5z" />
<glyph unicode="&#xde;" horiz-adv-x="493" d="M140 0h-54v700h54v-141h146q87 0 127 -49.5t40 -146.5q0 -95 -42.5 -150t-127.5 -55h-143v-158zM282 510h-142v-304h145q54 0 84 38t30 116q0 77 -28.5 113.5t-88.5 36.5z" />
<glyph unicode="&#xdf;" horiz-adv-x="471" d="M246 353h-28v45h27q45 0 70.5 37t25.5 98q0 62 -28 96.5t-78 34.5q-52 0 -81 -38t-29 -117v-508h-52v509q0 54 12.5 92t34.5 61.5t52 34.5t65 11q38 0 67 -13t49 -36t30.5 -54.5t10.5 -69.5q0 -57 -20.5 -96.5t-56.5 -58.5q53 -14 82 -63.5t29 -124.5q0 -92 -41.5 -146 t-121.5 -54q-17 0 -38.5 3.5t-43.5 16.5l15 42q17 -11 33.5 -14t30.5 -3q54 0 84 38t30 117q0 72 -32 116t-98 44z" />
<glyph unicode="&#xe0;" horiz-adv-x="423" d="M44 0zM178 33q57 0 90.5 49t36.5 137v28h-71q-65 0 -102.5 -31.5t-37.5 -89.5q0 -44 22.5 -68.5t61.5 -24.5zM313 0l-5 112q-17 -60 -53 -91.5t-88 -31.5q-55 0 -89 35.5t-34 98.5q0 78 50 122t134 44h77v13q0 42 -8 70t-21.5 45t-32.5 24t-42 7q-36 0 -63.5 -18.5 t-41.5 -62.5l-44 22q17 48 53.5 76t98.5 28q77 0 114.5 -44t37.5 -147v-302h-43zM186 570l-82 106v5h65l60 -108v-3h-43z" />
<glyph unicode="&#xe1;" horiz-adv-x="423" d="M44 0zM178 33q57 0 90.5 49t36.5 137v28h-71q-65 0 -102.5 -31.5t-37.5 -89.5q0 -44 22.5 -68.5t61.5 -24.5zM313 0l-5 112q-17 -60 -53 -91.5t-88 -31.5q-55 0 -89 35.5t-34 98.5q0 78 50 122t134 44h77v13q0 42 -8 70t-21.5 45t-32.5 24t-42 7q-36 0 -63.5 -18.5 t-41.5 -62.5l-44 22q17 48 53.5 76t98.5 28q77 0 114.5 -44t37.5 -147v-302h-43zM302 674l-81 -106h-43v3l60 108h64v-5z" />
<glyph unicode="&#xe2;" horiz-adv-x="423" d="M44 0zM178 33q57 0 90.5 49t36.5 137v28h-71q-65 0 -102.5 -31.5t-37.5 -89.5q0 -44 22.5 -68.5t61.5 -24.5zM313 0l-5 112q-17 -60 -53 -91.5t-88 -31.5q-55 0 -89 35.5t-34 98.5q0 78 50 122t134 44h77v13q0 42 -8 70t-21.5 45t-32.5 24t-42 7q-36 0 -63.5 -18.5 t-41.5 -62.5l-44 22q17 48 53.5 76t98.5 28q77 0 114.5 -44t37.5 -147v-302h-43zM202 647l-60 -79h-52v2l90 109h46l90 -109v-2h-53z" />
<glyph unicode="&#xe3;" horiz-adv-x="423" d="M44 0zM178 33q57 0 90.5 49t36.5 137v28h-71q-65 0 -102.5 -31.5t-37.5 -89.5q0 -44 22.5 -68.5t61.5 -24.5zM313 0l-5 112q-17 -60 -53 -91.5t-88 -31.5q-55 0 -89 35.5t-34 98.5q0 78 50 122t134 44h77v13q0 42 -8 70t-21.5 45t-32.5 24t-42 7q-36 0 -63.5 -18.5 t-41.5 -62.5l-44 22q17 48 53.5 76t98.5 28q77 0 114.5 -44t37.5 -147v-302h-43zM274 668h36q1 -26 -4 -42.5t-14 -26t-20 -13.5t-21 -4q-16 0 -28 7.5t-23 17t-21.5 17t-22.5 7.5q-25 0 -25 -45h-37q0 25 5 41.5t13 26.5t18.5 13.5t21.5 3.5q16 0 29 -7.5t24 -16t21.5 -16 t22.5 -7.5q24 0 25 44z" />
<glyph unicode="&#xe4;" horiz-adv-x="423" d="M44 0zM178 33q57 0 90.5 49t36.5 137v28h-71q-65 0 -102.5 -31.5t-37.5 -89.5q0 -44 22.5 -68.5t61.5 -24.5zM313 0l-5 112q-17 -60 -53 -91.5t-88 -31.5q-55 0 -89 35.5t-34 98.5q0 78 50 122t134 44h77v13q0 42 -8 70t-21.5 45t-32.5 24t-42 7q-36 0 -63.5 -18.5 t-41.5 -62.5l-44 22q17 48 53.5 76t98.5 28q77 0 114.5 -44t37.5 -147v-302h-43zM229 622q0 42 37 42q38 0 38 -42q0 -41 -38 -41q-37 0 -37 41zM107 622q0 20 10 31t27 11q38 0 38 -42q0 -41 -38 -41q-17 0 -27 10.5t-10 30.5z" />
<glyph unicode="&#xe5;" horiz-adv-x="423" d="M44 0zM178 33q57 0 90.5 49t36.5 137v28h-71q-65 0 -102.5 -31.5t-37.5 -89.5q0 -44 22.5 -68.5t61.5 -24.5zM313 0l-5 112q-17 -60 -53 -91.5t-88 -31.5q-55 0 -89 35.5t-34 98.5q0 78 50 122t134 44h77v13q0 42 -8 70t-21.5 45t-32.5 24t-42 7q-36 0 -63.5 -18.5 t-41.5 -62.5l-44 22q17 48 53.5 76t98.5 28q77 0 114.5 -44t37.5 -147v-302h-43zM127 635q0 39 22 62.5t55 23.5q32 0 53.5 -23.5t21.5 -62.5q0 -38 -21.5 -61.5t-54.5 -23.5q-32 0 -54 23.5t-22 61.5zM158 635q0 -25 12.5 -41t32.5 -16t33 16t13 41q0 26 -13 41.5t-32 15.5 q-20 0 -33 -15.5t-13 -41.5z" />
<glyph unicode="&#xe6;" horiz-adv-x="669" d="M473 -11q-58 0 -97.5 34.5t-53.5 107.5q-17 -68 -56 -105t-94 -37q-59 0 -93.5 34.5t-34.5 98.5q0 74 48 115.5t133 41.5h77v17q0 85 -26.5 119t-77.5 34q-36 0 -62 -19t-40 -63l-44 22q17 48 52.5 76t95.5 28q54 0 86.5 -26.5t46.5 -88.5q36 115 139 115 q40 0 69.5 -16.5t48.5 -46.5t28 -71.5t9 -92.5v-15q0 -7 -1 -13h-274v-11q2 -103 33 -149t90 -46q82 0 112 103l44 -20q-19 -55 -56 -90.5t-102 -35.5zM178 33q57 0 90.5 50t33.5 144v11h-71q-67 0 -102 -30t-35 -84q0 -43 22.5 -67t61.5 -24zM471 449q-53 0 -82.5 -40.5 t-34.5 -129.5h223q-3 170 -106 170z" />
<glyph unicode="&#xe7;" horiz-adv-x="403" d="M211 -228q-27 0 -49.5 13t-38.5 43l31 20q20 -41 57 -41q50 0 50 47q0 23 -12.5 34t-29.5 11q-5 0 -9.5 -0.5t-9.5 -1.5l-11 11l14 82q-77 5 -116.5 65.5t-39.5 184.5q0 131 45 192t131 61q58 0 93 -29.5t55 -90.5l-45 -22q-16 51 -41 74t-63 23q-62 0 -92.5 -48 t-30.5 -160q0 -111 29.5 -159t91.5 -48q43 0 70 25t43 78l44 -19q-17 -53 -50 -87.5t-90 -39.5l-11 -63q2 1 9 1q25 0 45 -17.5t20 -55.5q0 -42 -25 -62.5t-64 -20.5z" />
<glyph unicode="&#xe8;" horiz-adv-x="413" d="M47 0zM218 -11q-81 0 -126 61t-45 191q0 125 43 188.5t126 63.5q79 0 118 -63.5t39 -171.5q0 -8 -0.5 -16.5t-0.5 -15.5h-275q3 -103 34 -148.5t89 -45.5q83 0 113 103l43 -20q-19 -55 -55.5 -90.5t-102.5 -35.5zM215 449q-54 0 -83.5 -44t-33.5 -137h224 q-2 93 -28.5 137t-78.5 44zM197 569l-82 106v5h65l60 -108v-3h-43z" />
<glyph unicode="&#xe9;" horiz-adv-x="413" d="M47 0zM218 -11q-81 0 -126 61t-45 191q0 125 43 188.5t126 63.5q79 0 118 -63.5t39 -171.5q0 -8 -0.5 -16.5t-0.5 -15.5h-275q3 -103 34 -148.5t89 -45.5q83 0 113 103l43 -20q-19 -55 -55.5 -90.5t-102.5 -35.5zM215 449q-54 0 -83.5 -44t-33.5 -137h224 q-2 93 -28.5 137t-78.5 44zM314 674l-81 -106h-43v3l60 108h64v-5z" />
<glyph unicode="&#xea;" horiz-adv-x="413" d="M47 0zM218 -11q-81 0 -126 61t-45 191q0 125 43 188.5t126 63.5q79 0 118 -63.5t39 -171.5q0 -8 -0.5 -16.5t-0.5 -15.5h-275q3 -103 34 -148.5t89 -45.5q83 0 113 103l43 -20q-19 -55 -55.5 -90.5t-102.5 -35.5zM215 449q-54 0 -83.5 -44t-33.5 -137h224 q-2 93 -28.5 137t-78.5 44zM214 647l-60 -79h-52v2l90 109h46l90 -109v-2h-53z" />
<glyph unicode="&#xeb;" horiz-adv-x="413" d="M47 0zM218 -11q-81 0 -126 61t-45 191q0 125 43 188.5t126 63.5q79 0 118 -63.5t39 -171.5q0 -8 -0.5 -16.5t-0.5 -15.5h-275q3 -103 34 -148.5t89 -45.5q83 0 113 103l43 -20q-19 -55 -55.5 -90.5t-102.5 -35.5zM215 449q-54 0 -83.5 -44t-33.5 -137h224 q-2 93 -28.5 137t-78.5 44zM240 622q0 42 37 42q38 0 38 -42q0 -41 -38 -41q-37 0 -37 41zM118 622q0 20 10 31t27 11q38 0 38 -42q0 -41 -38 -41q-17 0 -27 10.5t-10 30.5z" />
<glyph unicode="&#xec;" horiz-adv-x="200" d="M1 0zM73 482h52v-482h-52v482zM83 569l-82 106v5h65l60 -108v-3h-43z" />
<glyph unicode="&#xed;" horiz-adv-x="200" d="M73 0zM73 482h52v-482h-52v482zM200 674l-81 -106h-43v3l60 108h64v-5z" />
<glyph unicode="&#xee;" horiz-adv-x="200" d="M0 0zM73 482h52v-482h-52v482zM100 647l-60 -79h-52v2l90 109h46l90 -109v-2h-53z" />
<glyph unicode="&#xef;" horiz-adv-x="200" d="M2 0zM73 482h52v-482h-52v482zM124 622q0 42 37 42q38 0 38 -42q0 -41 -38 -41q-37 0 -37 41zM2 622q0 20 10 31t27 11q38 0 38 -42q0 -41 -38 -41q-17 0 -27 10.5t-10 30.5z" />
<glyph unicode="&#xf0;" horiz-adv-x="440" d="M221 -11q-86 0 -130 60t-44 190t44.5 191t127.5 61t116 -77q-15 108 -58 176l-64 -51l-17 31l60 48q-44 52 -109 79l20 38q73 -26 124 -88l70 58l18 -31l-67 -54q82 -128 82 -372v-9q0 -128 -44 -189t-129 -61zM342 239q0 109 -29 158.5t-92 49.5t-93 -49.5t-30 -158.5 q0 -108 30.5 -156.5t92.5 -48.5q61 0 91 48.5t30 156.5z" />
<glyph unicode="&#xf1;" horiz-adv-x="467" d="M73 0zM73 482h45l4 -113q17 63 55 93.5t89 30.5q134 0 134 -180v-313h-52v301q0 80 -26 113t-72 33q-57 0 -90 -53.5t-35 -143.5v-250h-52v482zM314 668h36q1 -26 -4 -42.5t-14 -26t-20 -13.5t-21 -4q-16 0 -28 7.5t-23 17t-21.5 17t-22.5 7.5q-25 0 -25 -45h-37 q0 25 5 41.5t13 26.5t18.5 13.5t21.5 3.5q16 0 29 -7.5t24 -16t21.5 -16t22.5 -7.5q24 0 25 44z" />
<glyph unicode="&#xf2;" horiz-adv-x="441" d="M47 0zM47 241q0 130 45 191t129 61q86 0 129.5 -60.5t43.5 -191.5q0 -129 -44 -190.5t-129 -61.5q-86 0 -130 60.5t-44 191.5zM342 240q0 110 -29 159t-92 49q-64 0 -93 -49t-29 -159q0 -109 29.5 -158t92.5 -49t92 49t29 158zM204 569l-82 106v5h65l60 -108v-3h-43z" />
<glyph unicode="&#xf3;" horiz-adv-x="441" d="M47 0zM47 241q0 130 45 191t129 61q86 0 129.5 -60.5t43.5 -191.5q0 -129 -44 -190.5t-129 -61.5q-86 0 -130 60.5t-44 191.5zM342 240q0 110 -29 159t-92 49q-64 0 -93 -49t-29 -159q0 -109 29.5 -158t92.5 -49t92 49t29 158zM320 674l-81 -106h-43v3l60 108h64v-5z" />
<glyph unicode="&#xf4;" horiz-adv-x="441" d="M47 0zM47 241q0 130 45 191t129 61q86 0 129.5 -60.5t43.5 -191.5q0 -129 -44 -190.5t-129 -61.5q-86 0 -130 60.5t-44 191.5zM342 240q0 110 -29 159t-92 49q-64 0 -93 -49t-29 -159q0 -109 29.5 -158t92.5 -49t92 49t29 158zM220 647l-60 -79h-52v2l90 109h46l90 -109 v-2h-53z" />
<glyph unicode="&#xf5;" horiz-adv-x="441" d="M47 0zM47 241q0 130 45 191t129 61q86 0 129.5 -60.5t43.5 -191.5q0 -129 -44 -190.5t-129 -61.5q-86 0 -130 60.5t-44 191.5zM342 240q0 110 -29 159t-92 49q-64 0 -93 -49t-29 -159q0 -109 29.5 -158t92.5 -49t92 49t29 158zM292 668h36q1 -26 -4 -42.5t-14 -26 t-20 -13.5t-21 -4q-16 0 -28 7.5t-23 17t-21.5 17t-22.5 7.5q-25 0 -25 -45h-37q0 25 5 41.5t13 26.5t18.5 13.5t21.5 3.5q16 0 29 -7.5t24 -16t21.5 -16t22.5 -7.5q24 0 25 44z" />
<glyph unicode="&#xf6;" horiz-adv-x="441" d="M47 0zM47 241q0 130 45 191t129 61q86 0 129.5 -60.5t43.5 -191.5q0 -129 -44 -190.5t-129 -61.5q-86 0 -130 60.5t-44 191.5zM342 240q0 110 -29 159t-92 49q-64 0 -93 -49t-29 -159q0 -109 29.5 -158t92.5 -49t92 49t29 158zM247 622q0 42 37 42q38 0 38 -42 q0 -41 -38 -41q-37 0 -37 41zM125 622q0 20 10 31t27 11q38 0 38 -42q0 -41 -38 -41q-17 0 -27 10.5t-10 30.5z" />
<glyph unicode="&#xf7;" horiz-adv-x="375" d="M152 460q0 20 9.5 31t26.5 11t26.5 -11t9.5 -31t-9.5 -31t-26.5 -11t-26.5 11t-9.5 31zM336 330v-46h-296v46h296zM152 159q0 20 9.5 31t26.5 11t26.5 -11t9.5 -31t-9.5 -31t-26.5 -11t-26.5 11t-9.5 31z" />
<glyph unicode="&#xf8;" horiz-adv-x="445" d="M224 -11q-80 0 -122 52l-30 -41h-45l52 73q-30 61 -30 168q0 130 45 191t130 61q39 0 70 -13t52 -41l31 43h46l-55 -76q29 -61 29 -165q0 -129 -44 -190.5t-129 -61.5zM224 449q-65 0 -94 -49t-29 -160q0 -74 15 -120l200 279q-29 50 -92 50zM224 33q63 0 92 49t29 158 q0 73 -15 118l-198 -278q28 -47 92 -47z" />
<glyph unicode="&#xf9;" horiz-adv-x="465" d="M68 0zM393 0h-45l-4 101q-17 -57 -54.5 -84.5t-85.5 -27.5q-69 0 -102.5 47.5t-33.5 141.5v304h52v-296q0 -81 26 -116.5t73 -35.5q57 0 87.5 50t34.5 138v260h52v-482zM213 569l-82 106v5h65l60 -108v-3h-43z" />
<glyph unicode="&#xfa;" horiz-adv-x="465" d="M68 0zM393 0h-45l-4 101q-17 -57 -54.5 -84.5t-85.5 -27.5q-69 0 -102.5 47.5t-33.5 141.5v304h52v-296q0 -81 26 -116.5t73 -35.5q57 0 87.5 50t34.5 138v260h52v-482zM329 674l-81 -106h-43v3l60 108h64v-5z" />
<glyph unicode="&#xfb;" horiz-adv-x="465" d="M68 0zM393 0h-45l-4 101q-17 -57 -54.5 -84.5t-85.5 -27.5q-69 0 -102.5 47.5t-33.5 141.5v304h52v-296q0 -81 26 -116.5t73 -35.5q57 0 87.5 50t34.5 138v260h52v-482zM229 647l-60 -79h-52v2l90 109h46l90 -109v-2h-53z" />
<glyph unicode="&#xfc;" horiz-adv-x="465" d="M68 0zM393 0h-45l-4 101q-17 -57 -54.5 -84.5t-85.5 -27.5q-69 0 -102.5 47.5t-33.5 141.5v304h52v-296q0 -81 26 -116.5t73 -35.5q57 0 87.5 50t34.5 138v260h52v-482zM256 622q0 42 37 42q38 0 38 -42q0 -41 -38 -41q-37 0 -37 41zM134 622q0 20 10 31t27 11 q38 0 38 -42q0 -41 -38 -41q-17 0 -27 10.5t-10 30.5z" />
<glyph unicode="&#xfd;" horiz-adv-x="375" d="M0 0zM147 -56l14 49l-151 489h55l123 -420l124 420h53l-172 -556q-13 -42 -28 -68.5t-32 -41.5t-35.5 -20.5t-38.5 -5.5q-19 0 -34 3t-33 11l15 45q14 -5 25.5 -8t23.5 -3q14 0 26.5 4t24 16t21.5 32.5t19 53.5zM287 674l-81 -106h-43v3l60 108h64v-5z" />
<glyph unicode="&#xfe;" horiz-adv-x="459" d="M125 238q0 -107 33 -156t84 -49q60 0 89.5 53t29.5 156q0 206 -114 206q-53 0 -87.5 -51t-34.5 -159zM73 -186v886h52v-319q15 57 52 84.5t85 27.5q73 0 111.5 -64t38.5 -187q0 -122 -41 -187.5t-120 -65.5q-42 0 -75.5 23.5t-50.5 73.5v-272h-52z" />
<glyph unicode="&#xff;" horiz-adv-x="375" d="M0 0zM147 -56l14 49l-151 489h55l123 -420l124 420h53l-172 -556q-13 -42 -28 -68.5t-32 -41.5t-35.5 -20.5t-38.5 -5.5q-19 0 -34 3t-33 11l15 45q14 -5 25.5 -8t23.5 -3q14 0 26.5 4t24 16t21.5 32.5t19 53.5zM213 622q0 42 37 42q38 0 38 -42q0 -41 -38 -41 q-37 0 -37 41zM91 622q0 20 10 31t27 11q38 0 38 -42q0 -41 -38 -41q-17 0 -27 10.5t-10 30.5z" />
<glyph unicode="&#x100;" horiz-adv-x="464" d="M11 0zM231 638l-113 -431h227zM398 0l-42 159h-248l-42 -159h-55l188 700h67l188 -700h-56zM324 859v-39h-183v39h183z" />
<glyph unicode="&#x101;" horiz-adv-x="423" d="M44 0zM178 33q57 0 90.5 49t36.5 137v28h-71q-65 0 -102.5 -31.5t-37.5 -89.5q0 -44 22.5 -68.5t61.5 -24.5zM313 0l-5 112q-17 -60 -53 -91.5t-88 -31.5q-55 0 -89 35.5t-34 98.5q0 78 50 122t134 44h77v13q0 42 -8 70t-21.5 45t-32.5 24t-42 7q-36 0 -63.5 -18.5 t-41.5 -62.5l-44 22q17 48 53.5 76t98.5 28q77 0 114.5 -44t37.5 -147v-302h-43zM294 641v-39h-183v39h183z" />
<glyph unicode="&#x102;" horiz-adv-x="464" d="M11 0zM231 638l-113 -431h227zM398 0l-42 159h-248l-42 -159h-55l188 700h67l188 -700h-56zM296 896h37q0 -64 -26.5 -88t-74.5 -24t-74.5 24t-26.5 88h37q0 -43 16 -59.5t47 -16.5q32 0 48.5 16.5t16.5 59.5z" />
<glyph unicode="&#x103;" horiz-adv-x="423" d="M44 0zM178 33q57 0 90.5 49t36.5 137v28h-71q-65 0 -102.5 -31.5t-37.5 -89.5q0 -44 22.5 -68.5t61.5 -24.5zM313 0l-5 112q-17 -60 -53 -91.5t-88 -31.5q-55 0 -89 35.5t-34 98.5q0 78 50 122t134 44h77v13q0 42 -8 70t-21.5 45t-32.5 24t-42 7q-36 0 -63.5 -18.5 t-41.5 -62.5l-44 22q17 48 53.5 76t98.5 28q77 0 114.5 -44t37.5 -147v-302h-43zM267 678h37q0 -64 -26.5 -88t-74.5 -24t-74.5 24t-26.5 88h37q0 -43 16 -59.5t47 -16.5q32 0 48.5 16.5t16.5 59.5z" />
<glyph unicode="&#x104;" horiz-adv-x="464" d="M465 -180q-31 -24 -68 -24q-16 0 -31.5 4.5t-27.5 15.5t-19.5 29.5t-7.5 46.5q0 51 25.5 84t56.5 44l-37 139h-248l-42 -159h-55l188 700h67l188 -700h-29q-33 -5 -54.5 -34t-21.5 -69q0 -35 15.5 -48t35.5 -13q27 0 47 17zM231 638l-113 -431h227z" />
<glyph unicode="&#x105;" horiz-adv-x="424" d="M390 -180q-30 -24 -68 -24q-16 0 -31.5 4.5t-27.5 15.5t-19 29.5t-7 46.5q0 49 23 80.5t52 43.5l-4 96q-17 -60 -53.5 -91.5t-87.5 -31.5q-55 0 -89 35.5t-34 98.5q0 78 50 122t134 44h77v13q0 42 -8 70t-21.5 45t-32.5 24t-42 7q-36 0 -63.5 -18.5t-41.5 -62.5l-44 22 q17 48 53.5 76t98.5 28q77 0 114.5 -44t37.5 -147v-302h-6q-33 -5 -54.5 -34t-21.5 -69q0 -35 16 -48t36 -13q28 0 46 17zM178 33q57 0 90.5 49t36.5 137v28h-71q-65 0 -102.5 -31.5t-37.5 -89.5q0 -44 22.5 -68.5t61.5 -24.5z" />
<glyph unicode="&#x106;" horiz-adv-x="525" d="M59 0zM291 -11q-56 0 -99.5 19.5t-73 63t-44.5 112t-15 166.5q0 99 15 167.5t44.5 111.5t73 62.5t99.5 19.5q35 0 66 -7.5t56.5 -26.5t44.5 -50t31 -77l-48 -21q-10 39 -24.5 64.5t-34 41t-42.5 22t-49 6.5q-41 0 -74 -15t-56 -51t-35.5 -96t-12.5 -150t12.5 -150.5 t35.5 -97t56 -52t75 -15.5q54 0 95 31t64 108l45 -21q-24 -86 -79 -125.5t-126 -39.5zM388 892l-81 -106h-43v3l60 108h64v-5z" />
<glyph unicode="&#x107;" horiz-adv-x="403" d="M47 0zM219 -11q-83 0 -127.5 60.5t-44.5 190.5q0 131 45 192t131 61q58 0 93 -29.5t55 -90.5l-45 -22q-16 51 -41 74t-63 23q-62 0 -92.5 -48t-30.5 -160q0 -111 29.5 -159t91.5 -48q43 0 70 25t43 78l44 -19q-18 -57 -55 -92.5t-103 -35.5zM318 674l-81 -106h-43v3 l60 108h64v-5z" />
<glyph unicode="&#x108;" horiz-adv-x="525" d="M59 0zM291 -11q-56 0 -99.5 19.5t-73 63t-44.5 112t-15 166.5q0 99 15 167.5t44.5 111.5t73 62.5t99.5 19.5q35 0 66 -7.5t56.5 -26.5t44.5 -50t31 -77l-48 -21q-10 39 -24.5 64.5t-34 41t-42.5 22t-49 6.5q-41 0 -74 -15t-56 -51t-35.5 -96t-12.5 -150t12.5 -150.5 t35.5 -97t56 -52t75 -15.5q54 0 95 31t64 108l45 -21q-24 -86 -79 -125.5t-126 -39.5zM288 865l-60 -79h-52v2l90 109h46l90 -109v-2h-53z" />
<glyph unicode="&#x109;" horiz-adv-x="403" d="M47 0zM219 -11q-83 0 -127.5 60.5t-44.5 190.5q0 131 45 192t131 61q58 0 93 -29.5t55 -90.5l-45 -22q-16 51 -41 74t-63 23q-62 0 -92.5 -48t-30.5 -160q0 -111 29.5 -159t91.5 -48q43 0 70 25t43 78l44 -19q-18 -57 -55 -92.5t-103 -35.5zM219 647l-60 -79h-52v2 l90 109h46l90 -109v-2h-53z" />
<glyph unicode="&#x10a;" horiz-adv-x="525" d="M59 0zM291 -11q-56 0 -99.5 19.5t-73 63t-44.5 112t-15 166.5q0 99 15 167.5t44.5 111.5t73 62.5t99.5 19.5q35 0 66 -7.5t56.5 -26.5t44.5 -50t31 -77l-48 -21q-10 39 -24.5 64.5t-34 41t-42.5 22t-49 6.5q-41 0 -74 -15t-56 -51t-35.5 -96t-12.5 -150t12.5 -150.5 t35.5 -97t56 -52t75 -15.5q54 0 95 31t64 108l45 -21q-24 -86 -79 -125.5t-126 -39.5zM250 840q0 20 10.5 30.5t27.5 10.5q38 0 38 -41q0 -20 -10 -31t-28 -11q-17 0 -27.5 11t-10.5 31z" />
<glyph unicode="&#x10b;" horiz-adv-x="403" d="M47 0zM219 -11q-83 0 -127.5 60.5t-44.5 190.5q0 131 45 192t131 61q58 0 93 -29.5t55 -90.5l-45 -22q-16 51 -41 74t-63 23q-62 0 -92.5 -48t-30.5 -160q0 -111 29.5 -159t91.5 -48q43 0 70 25t43 78l44 -19q-18 -57 -55 -92.5t-103 -35.5zM181 622q0 20 10.5 30.5 t27.5 10.5q38 0 38 -41q0 -20 -10 -31t-28 -11q-17 0 -27.5 11t-10.5 31z" />
<glyph unicode="&#x10c;" horiz-adv-x="525" d="M59 0zM291 -11q-56 0 -99.5 19.5t-73 63t-44.5 112t-15 166.5q0 99 15 167.5t44.5 111.5t73 62.5t99.5 19.5q35 0 66 -7.5t56.5 -26.5t44.5 -50t31 -77l-48 -21q-10 39 -24.5 64.5t-34 41t-42.5 22t-49 6.5q-41 0 -74 -15t-56 -51t-35.5 -96t-12.5 -150t12.5 -150.5 t35.5 -97t56 -52t75 -15.5q54 0 95 31t64 108l45 -21q-24 -86 -79 -125.5t-126 -39.5zM288 820l62 77h51v-2l-91 -109h-45l-90 109v2h54z" />
<glyph unicode="&#x10d;" horiz-adv-x="403" d="M47 0zM219 -11q-83 0 -127.5 60.5t-44.5 190.5q0 131 45 192t131 61q58 0 93 -29.5t55 -90.5l-45 -22q-16 51 -41 74t-63 23q-62 0 -92.5 -48t-30.5 -160q0 -111 29.5 -159t91.5 -48q43 0 70 25t43 78l44 -19q-18 -57 -55 -92.5t-103 -35.5zM220 602l62 77h51v-2 l-91 -109h-45l-90 109v2h54z" />
<glyph unicode="&#x10e;" horiz-adv-x="561" d="M86 0zM258 0h-172v700h173q59 0 104.5 -19t76 -60.5t46.5 -107t16 -157.5q0 -186 -63 -271t-181 -85zM256 48q43 0 78.5 15.5t61 51.5t39 94.5t13.5 145.5q0 84 -13 141t-37 92t-59 50t-79 15h-120v-605h116zM288 820l62 77h51v-2l-91 -109h-45l-90 109v2h54z" />
<glyph unicode="&#x10f;" horiz-adv-x="501" d="M47 0zM494 501h-37l5 199h50zM334 243q0 106 -33 155.5t-85 49.5q-60 0 -88.5 -52t-28.5 -155q0 -208 116 -208q53 0 86 50.5t33 159.5zM342 0l-4 103q-17 -57 -52.5 -85.5t-84.5 -28.5q-75 0 -114.5 65t-39.5 187t41 187t119 65q45 0 77.5 -26t49.5 -77v310h52v-700h-44 z" />
<glyph unicode="&#x110;" horiz-adv-x="573" d="M270 0h-173v340h-60v46h60v314h174q59 0 104.5 -19t76 -60.5t46.5 -107t16 -157.5q0 -186 -63 -271t-181 -85zM151 48h116q44 0 79.5 15.5t61 51.5t39 94.5t13.5 145.5q0 84 -13 141t-37.5 92t-59.5 50t-79 15h-120v-267h124v-46h-124v-292z" />
<glyph unicode="&#x111;" horiz-adv-x="469" d="M334 243q0 106 -32.5 155.5t-85.5 49.5q-60 0 -88.5 -52t-28.5 -155q0 -208 116 -208q53 0 86 50.5t33 159.5zM338 104q-17 -59 -52.5 -87t-84.5 -28q-75 0 -114.5 65t-39.5 187q0 121 41 186.5t119 65.5q45 0 77.5 -26t49.5 -79v176h-121v37h121v99h52v-99h60v-37h-60 v-564h-44z" />
<glyph unicode="&#x112;" horiz-adv-x="495" d="M86 0zM86 0v700h374v-48h-321v-278h277v-49h-277v-278h320v-47h-373zM367 859v-39h-183v39h183z" />
<glyph unicode="&#x113;" horiz-adv-x="413" d="M47 0zM218 -11q-81 0 -126 61t-45 191q0 125 43 188.5t126 63.5q79 0 118 -63.5t39 -171.5q0 -8 -0.5 -16.5t-0.5 -15.5h-275q3 -103 34 -148.5t89 -45.5q83 0 113 103l43 -20q-19 -55 -55.5 -90.5t-102.5 -35.5zM215 449q-54 0 -83.5 -44t-33.5 -137h224 q-2 93 -28.5 137t-78.5 44zM306 641v-39h-183v39h183z" />
<glyph unicode="&#x114;" horiz-adv-x="495" d="M86 0zM86 0v700h374v-48h-321v-278h277v-49h-277v-278h320v-47h-373zM339 896h37q0 -64 -26.5 -88t-74.5 -24t-74.5 24t-26.5 88h37q0 -43 16 -59.5t47 -16.5q32 0 48.5 16.5t16.5 59.5z" />
<glyph unicode="&#x115;" horiz-adv-x="413" d="M47 0zM218 -11q-81 0 -126 61t-45 191q0 125 43 188.5t126 63.5q79 0 118 -63.5t39 -171.5q0 -8 -0.5 -16.5t-0.5 -15.5h-275q3 -103 34 -148.5t89 -45.5q83 0 113 103l43 -20q-19 -55 -55.5 -90.5t-102.5 -35.5zM215 449q-54 0 -83.5 -44t-33.5 -137h224 q-2 93 -28.5 137t-78.5 44zM278 678h37q0 -64 -26.5 -88t-74.5 -24t-74.5 24t-26.5 88h37q0 -43 16 -59.5t47 -16.5q32 0 48.5 16.5t16.5 59.5z" />
<glyph unicode="&#x116;" horiz-adv-x="495" d="M86 0zM86 0v700h374v-48h-321v-278h277v-49h-277v-278h320v-47h-373zM237 840q0 20 10.5 30.5t27.5 10.5q38 0 38 -41q0 -20 -10 -31t-28 -11q-17 0 -27.5 11t-10.5 31z" />
<glyph unicode="&#x117;" horiz-adv-x="413" d="M47 0zM218 -11q-81 0 -126 61t-45 191q0 125 43 188.5t126 63.5q79 0 118 -63.5t39 -171.5q0 -8 -0.5 -16.5t-0.5 -15.5h-275q3 -103 34 -148.5t89 -45.5q83 0 113 103l43 -20q-19 -55 -55.5 -90.5t-102.5 -35.5zM215 449q-54 0 -83.5 -44t-33.5 -137h224 q-2 93 -28.5 137t-78.5 44zM176 622q0 20 10.5 30.5t27.5 10.5q38 0 38 -41q0 -20 -10 -31t-28 -11q-17 0 -27.5 11t-10.5 31z" />
<glyph unicode="&#x118;" horiz-adv-x="495" d="M459 -180q-30 -24 -67 -24q-17 0 -32.5 4.5t-27.5 15.5t-19 29.5t-7 46.5q0 37 14.5 64t34.5 44h-269v700h374v-48h-321v-278h277v-49h-277v-278h320v-47h-40q-33 -5 -54.5 -34t-21.5 -69q0 -35 16 -48t36 -13q27 0 47 17z" />
<glyph unicode="&#x119;" horiz-adv-x="414" d="M256 -204q-16 0 -31.5 4.5t-27.5 15.5t-19 29.5t-7 46.5q0 32 11 56.5t27 41.5q-77 2 -119.5 63t-42.5 188q0 125 43 188.5t126 63.5q79 0 118 -63.5t39 -171.5q0 -8 -0.5 -16.5t-0.5 -15.5h-275q3 -103 34 -148.5t89 -45.5q83 0 113 103l43 -20q-15 -45 -41 -76.5 t-69 -43.5q-26 -11 -42 -37.5t-16 -60.5q0 -35 15.5 -48t36.5 -13q28 0 46 17l18 -33q-30 -24 -68 -24zM215 449q-54 0 -83.5 -44t-33.5 -137h224q-2 93 -28.5 137t-78.5 44z" />
<glyph unicode="&#x11a;" horiz-adv-x="495" d="M86 0zM86 0v700h374v-48h-321v-278h277v-49h-277v-278h320v-47h-373zM276 820l62 77h51v-2l-91 -109h-45l-90 109v2h54z" />
<glyph unicode="&#x11b;" horiz-adv-x="413" d="M47 0zM218 -11q-81 0 -126 61t-45 191q0 125 43 188.5t126 63.5q79 0 118 -63.5t39 -171.5q0 -8 -0.5 -16.5t-0.5 -15.5h-275q3 -103 34 -148.5t89 -45.5q83 0 113 103l43 -20q-19 -55 -55.5 -90.5t-102.5 -35.5zM215 449q-54 0 -83.5 -44t-33.5 -137h224 q-2 93 -28.5 137t-78.5 44zM214 602l62 77h51v-2l-91 -109h-45l-90 109v2h54z" />
<glyph unicode="&#x11c;" horiz-adv-x="551" d="M59 0zM282 -11q-53 0 -94.5 20.5t-70 64.5t-43.5 112t-15 164q0 99 15 167.5t44.5 111.5t73 62.5t99.5 19.5q35 0 66 -8t56 -26.5t44.5 -49t31.5 -76.5l-48 -21q-11 39 -26 64.5t-34 41t-41.5 21.5t-48.5 6q-42 0 -75 -15t-56 -51t-35 -96t-12 -151q0 -89 12 -149.5 t35 -97t56 -52.5t74 -16q30 0 57.5 11.5t48 37.5t33.5 69.5t15 106.5v25h-147v44h198v-329h-39l-7 125q-17 -67 -62 -101.5t-105 -34.5zM288 865l-60 -79h-52v2l90 109h46l90 -109v-2h-53z" />
<glyph unicode="&#x11d;" horiz-adv-x="457" d="M42 0zM333 249q0 102 -33 150.5t-85 48.5q-116 0 -116 -203q0 -102 29 -153.5t85 -51.5q54 0 87 50.5t33 158.5zM208 -209q-62 0 -102.5 28t-63.5 88l45 22q17 -51 47 -72.5t71 -21.5q60 0 94 39.5t34 129.5v100q-16 -55 -51.5 -81.5t-80.5 -26.5q-73 0 -113.5 62.5 t-40.5 185.5q0 121 41.5 185t119.5 64q43 0 77.5 -26t51.5 -79l4 94h44v-480q0 -56 -13 -95.5t-36 -65.5t-56 -38t-72 -12zM211 647l-60 -79h-52v2l90 109h46l90 -109v-2h-53z" />
<glyph unicode="&#x11e;" horiz-adv-x="551" d="M59 0zM282 -11q-53 0 -94.5 20.5t-70 64.5t-43.5 112t-15 164q0 99 15 167.5t44.5 111.5t73 62.5t99.5 19.5q35 0 66 -8t56 -26.5t44.5 -49t31.5 -76.5l-48 -21q-11 39 -26 64.5t-34 41t-41.5 21.5t-48.5 6q-42 0 -75 -15t-56 -51t-35 -96t-12 -151q0 -89 12 -149.5 t35 -97t56 -52.5t74 -16q30 0 57.5 11.5t48 37.5t33.5 69.5t15 106.5v25h-147v44h198v-329h-39l-7 125q-17 -67 -62 -101.5t-105 -34.5zM353 896h37q0 -64 -26.5 -88t-74.5 -24t-74.5 24t-26.5 88h37q0 -43 16 -59.5t47 -16.5q32 0 48.5 16.5t16.5 59.5z" />
<glyph unicode="&#x11f;" horiz-adv-x="457" d="M42 0zM333 249q0 102 -33 150.5t-85 48.5q-116 0 -116 -203q0 -102 29 -153.5t85 -51.5q54 0 87 50.5t33 158.5zM208 -209q-62 0 -102.5 28t-63.5 88l45 22q17 -51 47 -72.5t71 -21.5q60 0 94 39.5t34 129.5v100q-16 -55 -51.5 -81.5t-80.5 -26.5q-73 0 -113.5 62.5 t-40.5 185.5q0 121 41.5 185t119.5 64q43 0 77.5 -26t51.5 -79l4 94h44v-480q0 -56 -13 -95.5t-36 -65.5t-56 -38t-72 -12zM275 678h37q0 -64 -26.5 -88t-74.5 -24t-74.5 24t-26.5 88h37q0 -43 16 -59.5t47 -16.5q32 0 48.5 16.5t16.5 59.5z" />
<glyph unicode="&#x120;" horiz-adv-x="551" d="M59 0zM282 -11q-53 0 -94.5 20.5t-70 64.5t-43.5 112t-15 164q0 99 15 167.5t44.5 111.5t73 62.5t99.5 19.5q35 0 66 -8t56 -26.5t44.5 -49t31.5 -76.5l-48 -21q-11 39 -26 64.5t-34 41t-41.5 21.5t-48.5 6q-42 0 -75 -15t-56 -51t-35 -96t-12 -151q0 -89 12 -149.5 t35 -97t56 -52.5t74 -16q30 0 57.5 11.5t48 37.5t33.5 69.5t15 106.5v25h-147v44h198v-329h-39l-7 125q-17 -67 -62 -101.5t-105 -34.5zM250 840q0 20 10.5 30.5t27.5 10.5q38 0 38 -41q0 -20 -10 -31t-28 -11q-17 0 -27.5 11t-10.5 31z" />
<glyph unicode="&#x121;" horiz-adv-x="457" d="M42 0zM333 249q0 102 -33 150.5t-85 48.5q-116 0 -116 -203q0 -102 29 -153.5t85 -51.5q54 0 87 50.5t33 158.5zM208 -209q-62 0 -102.5 28t-63.5 88l45 22q17 -51 47 -72.5t71 -21.5q60 0 94 39.5t34 129.5v100q-16 -55 -51.5 -81.5t-80.5 -26.5q-73 0 -113.5 62.5 t-40.5 185.5q0 121 41.5 185t119.5 64q43 0 77.5 -26t51.5 -79l4 94h44v-480q0 -56 -13 -95.5t-36 -65.5t-56 -38t-72 -12zM174 622q0 20 10.5 30.5t27.5 10.5q38 0 38 -41q0 -20 -10 -31t-28 -11q-17 0 -27.5 11t-10.5 31z" />
<glyph unicode="&#x122;" horiz-adv-x="551" d="M59 0zM282 -11q-53 0 -94.5 20.5t-70 64.5t-43.5 112t-15 164q0 99 15 167.5t44.5 111.5t73 62.5t99.5 19.5q35 0 66 -8t56 -26.5t44.5 -49t31.5 -76.5l-48 -21q-11 39 -26 64.5t-34 41t-41.5 21.5t-48.5 6q-42 0 -75 -15t-56 -51t-35 -96t-12 -151q0 -89 12 -149.5 t35 -97t56 -52.5t74 -16q30 0 57.5 11.5t48 37.5t33.5 69.5t15 106.5v25h-147v44h198v-329h-39l-7 125q-17 -67 -62 -101.5t-105 -34.5zM322 -122q0 -45 -17 -79.5t-48 -50.5l-17 22q21 13 35 36t15 51q-17 -5 -30 5t-13 31q0 19 10 28.5t27 9.5q38 0 38 -53z" />
<glyph unicode="&#x123;" horiz-adv-x="457" d="M170 624q0 45 17 79.5t48 50.5l17 -22q-21 -13 -35 -36t-15 -51q17 5 30 -5t13 -31q0 -19 -10 -28.5t-27 -9.5q-38 0 -38 53zM333 249q0 102 -33 150.5t-85 48.5q-116 0 -116 -203q0 -102 29 -153.5t85 -51.5q54 0 87 50.5t33 158.5zM208 -209q-62 0 -102.5 28t-63.5 88 l45 22q17 -51 47 -72.5t71 -21.5q60 0 94 39.5t34 129.5v100q-16 -55 -51.5 -81.5t-80.5 -26.5q-73 0 -113.5 62.5t-40.5 185.5q0 121 41.5 185t119.5 64q43 0 77.5 -26t51.5 -79l4 94h44v-480q0 -56 -13 -95.5t-36 -65.5t-56 -38t-72 -12z" />
<glyph unicode="&#x124;" horiz-adv-x="592" d="M86 0zM452 0v327h-312v-327h-54v700h54v-324h312v324h54v-700h-54zM295 865l-60 -79h-52v2l90 109h46l90 -109v-2h-53z" />
<glyph unicode="&#x125;" horiz-adv-x="467" d="M0 0zM348 299q0 82 -26 115t-72 33q-58 0 -90 -53.5t-35 -143.5v-250h-52v700h52v-330q17 62 54.5 92.5t88.5 30.5q132 0 132 -180v-313h-52v299zM97 865l-60 -79h-52v2l90 109h46l90 -109v-2h-53z" />
<glyph unicode="&#x126;" horiz-adv-x="601" d="M145 376h312v125h-312v-125zM457 0v327h-312v-327h-54v501h-57v39h57v160h54v-160h312v160h54v-160h57v-39h-57v-501h-54z" />
<glyph unicode="&#x127;" horiz-adv-x="476" d="M134 250v-250h-52v564h-59v37h59v99h52v-99h121v-37h-121v-195q17 64 55 94t89 30q131 0 131 -188v-305h-53v292q0 85 -26 119.5t-71 34.5q-57 0 -89.5 -52.5t-35.5 -143.5z" />
<glyph unicode="&#x128;" horiz-adv-x="226" d="M4 0zM86 0v700h54v-700h-54zM184 886h36q1 -26 -4 -42.5t-14 -26t-20 -13.5t-21 -4q-16 0 -28 7.5t-23 17t-21.5 17t-22.5 7.5q-25 0 -25 -45h-37q0 25 5 41.5t13 26.5t18.5 13.5t21.5 3.5q16 0 29 -7.5t24 -16t21.5 -16t22.5 -7.5q24 0 25 44z" />
<glyph unicode="&#x129;" horiz-adv-x="200" d="M0 0zM73 482h52v-482h-52v482zM172 668h36q1 -26 -4 -42.5t-14 -26t-20 -13.5t-21 -4q-16 0 -28 7.5t-23 17t-21.5 17t-22.5 7.5q-25 0 -25 -45h-37q0 25 5 41.5t13 26.5t18.5 13.5t21.5 3.5q16 0 29 -7.5t24 -16t21.5 -16t22.5 -7.5q24 0 25 44z" />
<glyph unicode="&#x12a;" horiz-adv-x="226" d="M22 0zM86 0v700h54v-700h-54zM205 859v-39h-183v39h183z" />
<glyph unicode="&#x12b;" horiz-adv-x="200" d="M9 0zM73 482h52v-482h-52v482zM192 641v-39h-183v39h183z" />
<glyph unicode="&#x12c;" horiz-adv-x="226" d="M12 0zM86 0v700h54v-700h-54zM177 896h37q0 -64 -26.5 -88t-74.5 -24t-74.5 24t-26.5 88h37q0 -43 16 -59.5t47 -16.5q32 0 48.5 16.5t16.5 59.5z" />
<glyph unicode="&#x12d;" horiz-adv-x="200" d="M0 0zM73 482h52v-482h-52v482zM164 678h37q0 -64 -26.5 -88t-74.5 -24t-74.5 24t-26.5 88h37q0 -43 16 -59.5t47 -16.5q32 0 48.5 16.5t16.5 59.5z" />
<glyph unicode="&#x12e;" horiz-adv-x="226" d="M159 -180q-30 -24 -68 -24q-16 0 -31.5 4.5t-27.5 15.5t-19 29.5t-7 46.5q0 51 25 83.5t55 43.5v681h54v-700h-21q-33 -5 -54.5 -34t-21.5 -69q0 -35 15.5 -48t36.5 -13q28 0 46 17z" />
<glyph unicode="&#x12f;" horiz-adv-x="200" d="M60 622q0 20 10.5 31t28.5 11t28.5 -11t10.5 -31t-10.5 -31t-28.5 -11t-28.5 11t-10.5 31zM146 -180q-30 -24 -67 -24q-16 0 -31.5 4.5t-27.5 15.5t-19 29.5t-7 46.5q0 51 24.5 83t54.5 43v464h52v-482h-18q-34 -5 -55.5 -34t-21.5 -69q0 -35 16 -48t36 -13q27 0 47 17z " />
<glyph unicode="&#x130;" horiz-adv-x="226" d="M75 0zM86 0v700h54v-700h-54zM75 840q0 20 10.5 30.5t27.5 10.5q38 0 38 -41q0 -20 -10 -31t-28 -11q-17 0 -27.5 11t-10.5 31z" />
<glyph unicode="&#x131;" horiz-adv-x="198" d="M73 482h52v-482h-52v482z" />
<glyph unicode="&#x132;" horiz-adv-x="606" d="M86 0zM86 0v700h54v-700h-54zM535 249q0 -72 -13.5 -121.5t-37.5 -80.5t-57.5 -44.5t-73.5 -13.5q-33 0 -64 11t-56 34l30 42q18 -20 42 -29t49 -9q57 0 92 47t35 157v458h54v-451z" />
<glyph unicode="&#x133;" horiz-adv-x="396" d="M60 0zM60 622q0 20 10.5 31t28.5 11t28.5 -11t10.5 -31t-10.5 -31t-28.5 -11t-28.5 11t-10.5 31zM73 482h52v-482h-52v482zM295 580q-18 0 -28.5 11t-10.5 31t10.5 31t28.5 11t28.5 -11t10.5 -31t-10.5 -31t-28.5 -11zM269 -51v533h52v-544q0 -78 -28 -112.5t-77 -34.5 q-17 0 -32 3t-30 11l15 46q10 -6 19.5 -9t23.5 -3q28 0 42.5 24t14.5 86z" />
<glyph unicode="&#x134;" horiz-adv-x="384" d="M11 0zM313 249q0 -72 -13.5 -121.5t-37.5 -80.5t-57.5 -44.5t-73.5 -13.5q-33 0 -64 11t-56 34l30 42q18 -20 42 -29t49 -9q57 0 92 47t35 157v458h54v-451zM286 865l-60 -79h-52v2l90 109h46l90 -109v-2h-53z" />
<glyph unicode="&#x135;" horiz-adv-x="200" d="M0 0zM73 -51v533h52v-544q0 -78 -28 -112.5t-77 -34.5q-17 0 -32 2.5t-31 10.5l16 47q11 -5 20 -8.5t23 -3.5q28 0 42.5 24t14.5 86zM100 647l-60 -79h-52v2l90 109h46l90 -109v-2h-53z" />
<glyph unicode="&#x136;" horiz-adv-x="483" d="M86 0zM140 209v-209h-54v700h54l-1 -413l264 413h59l-203 -308l218 -392h-61l-189 339zM305 -122q0 -45 -17 -79.5t-48 -50.5l-17 22q21 13 35 36t15 51q-17 -5 -30 5t-13 31q0 19 10 28.5t27 9.5q38 0 38 -53z" />
<glyph unicode="&#x137;" horiz-adv-x="395" d="M73 0zM125 132v-132h-52v700h52l-2 -502l190 284h60l-150 -210l157 -272h-60l-127 227zM246 -122q0 -45 -17 -79.5t-48 -50.5l-17 22q21 13 35 36t15 51q-17 -5 -30 5t-13 31q0 19 10 28.5t27 9.5q38 0 38 -53z" />
<glyph unicode="&#x138;" horiz-adv-x="395" d="M125 132v-132h-52v482h52l-2 -284l190 284h60l-149 -210l156 -272h-60l-127 229z" />
<glyph unicode="&#x139;" horiz-adv-x="469" d="M86 0zM140 48h308v-48h-362v700h54v-652zM212 892l-81 -106h-43v3l60 108h64v-5z" />
<glyph unicode="&#x13a;" horiz-adv-x="203" d="M71 0zM164 0q-42 0 -67.5 23t-25.5 79v598h52v-597q0 -32 12 -44.5t33 -12.5h24v-46h-28zM199 892l-81 -106h-43v3l60 108h64v-5z" />
<glyph unicode="&#x13b;" horiz-adv-x="469" d="M86 0zM140 48h308v-48h-362v700h54v-652zM304 -122q0 -45 -17 -79.5t-48 -50.5l-17 22q21 13 35 36t15 51q-17 -5 -30 5t-13 31q0 19 10 28.5t27 9.5q38 0 38 -53z" />
<glyph unicode="&#x13c;" horiz-adv-x="203" d="M71 0zM164 0q-42 0 -67.5 23t-25.5 79v598h52v-597q0 -32 12 -44.5t33 -12.5h24v-46h-28zM175 -122q0 -45 -17 -79.5t-48 -50.5l-17 22q21 13 35 36t15 51q-17 -5 -30 5t-13 31q0 19 10 28.5t27 9.5q38 0 38 -53z" />
<glyph unicode="&#x13d;" horiz-adv-x="469" d="M86 0zM333 501h-37l5 199h50zM140 48h308v-48h-362v700h54v-652z" />
<glyph unicode="&#x13e;" horiz-adv-x="239" d="M71 0zM233 501h-37l5 199h50zM164 0q-42 0 -67.5 23t-25.5 79v598h52v-597q0 -32 12 -44.5t33 -12.5h24v-46h-28z" />
<glyph unicode="&#x13f;" horiz-adv-x="469" d="M86 0zM140 48h308v-48h-362v700h54v-652zM294 356q0 20 10.5 30.5t27.5 10.5q38 0 38 -41q0 -20 -10 -31t-28 -11q-17 0 -27.5 11t-10.5 31z" />
<glyph unicode="&#x140;" horiz-adv-x="261" d="M71 0zM164 0q-42 0 -67.5 23t-25.5 79v598h52v-597q0 -32 12 -44.5t33 -12.5h24v-46h-28zM185 302q0 20 10.5 30.5t27.5 10.5q38 0 38 -41q0 -20 -10 -31t-28 -11q-17 0 -27.5 11t-10.5 31z" />
<glyph unicode="&#x141;" horiz-adv-x="483" d="M463 0h-362v283l-80 -76v53l80 75v365h54v-328l129 120v-54l-129 -119v-271h308v-48z" />
<glyph unicode="&#x142;" horiz-adv-x="221" d="M206 0h-28q-42 0 -67.5 23t-25.5 79v187l-76 -89v53l76 90v357h52v-307l82 99v-54l-82 -98v-237q0 -32 12 -44.5t33 -12.5h24v-46z" />
<glyph unicode="&#x143;" horiz-adv-x="585" d="M86 0zM448 0l-314 600l2 -600h-50v700h53l313 -598l-3 598h50v-700h-51zM392 892l-81 -106h-43v3l60 108h64v-5z" />
<glyph unicode="&#x144;" horiz-adv-x="467" d="M73 0zM73 482h45l4 -113q17 63 55 93.5t89 30.5q134 0 134 -180v-313h-52v301q0 80 -26 113t-72 33q-57 0 -90 -53.5t-35 -143.5v-250h-52v482zM342 674l-81 -106h-43v3l60 108h64v-5z" />
<glyph unicode="&#x145;" horiz-adv-x="585" d="M86 0zM448 0l-314 600l2 -600h-50v700h53l313 -598l-3 598h50v-700h-51zM330 -122q0 -45 -17 -79.5t-48 -50.5l-17 22q21 13 35 36t15 51q-17 -5 -30 5t-13 31q0 19 10 28.5t27 9.5q38 0 38 -53z" />
<glyph unicode="&#x146;" horiz-adv-x="467" d="M73 0zM73 482h45l4 -113q17 63 55 93.5t89 30.5q134 0 134 -180v-313h-52v301q0 80 -26 113t-72 33q-57 0 -90 -53.5t-35 -143.5v-250h-52v482zM274 -122q0 -45 -17 -79.5t-48 -50.5l-17 22q21 13 35 36t15 51q-17 -5 -30 5t-13 31q0 19 10 28.5t27 9.5q38 0 38 -53z" />
<glyph unicode="&#x147;" horiz-adv-x="585" d="M86 0zM448 0l-314 600l2 -600h-50v700h53l313 -598l-3 598h50v-700h-51zM293 820l62 77h51v-2l-91 -109h-45l-90 109v2h54z" />
<glyph unicode="&#x148;" horiz-adv-x="467" d="M73 0zM73 482h45l4 -113q17 63 55 93.5t89 30.5q134 0 134 -180v-313h-52v301q0 80 -26 113t-72 33q-57 0 -90 -53.5t-35 -143.5v-250h-52v482zM243 602l62 77h51v-2l-91 -109h-45l-90 109v2h54z" />
<glyph unicode="&#x14a;" horiz-adv-x="585" d="M447 -51v52l-313 601l1 -602h-49v700h53l313 -600l-2 600h49v-760q0 -79 -27 -114t-75 -35q-16 0 -31.5 2.5t-32.5 10.5l13 47q11 -5 20.5 -8t23.5 -3q28 0 42.5 23.5t14.5 85.5z" />
<glyph unicode="&#x14b;" horiz-adv-x="467" d="M347 -52v353q0 80 -25.5 113t-71.5 33q-57 0 -89.5 -53.5t-35.5 -143.5v-250h-52v482h45l5 -111q17 63 54.5 92.5t88.5 29.5q134 0 134 -180v-376q0 -77 -27.5 -111.5t-75.5 -34.5q-17 0 -32.5 2t-32.5 10l15 48q11 -5 20.5 -8t23.5 -3q29 0 42.5 23t13.5 85z" />
<glyph unicode="&#x14c;" horiz-adv-x="581" d="M59 0zM290 -11q-57 0 -100.5 20t-72.5 63.5t-43.5 112t-14.5 165.5t15 165.5t44 112t72 63.5t100 20q59 0 102.5 -20t72.5 -63.5t43 -112t14 -165.5t-15 -165.5t-44 -112t-72.5 -63.5t-100.5 -20zM290 664q-42 0 -75 -15.5t-55.5 -51.5t-34.5 -96.5t-12 -150.5 q0 -89 12 -149.5t34.5 -97t55.5 -52.5t75 -16t75 15.5t55.5 52.5t34.5 97.5t12 150.5q0 89 -12 149t-34.5 96.5t-55.5 52t-75 15.5zM381 859v-39h-183v39h183z" />
<glyph unicode="&#x14d;" horiz-adv-x="441" d="M47 0zM47 241q0 130 45 191t129 61q86 0 129.5 -60.5t43.5 -191.5q0 -129 -44 -190.5t-129 -61.5q-86 0 -130 60.5t-44 191.5zM342 240q0 110 -29 159t-92 49q-64 0 -93 -49t-29 -159q0 -109 29.5 -158t92.5 -49t92 49t29 158zM312 641v-39h-183v39h183z" />
<glyph unicode="&#x14e;" horiz-adv-x="581" d="M59 0zM290 -11q-57 0 -100.5 20t-72.5 63.5t-43.5 112t-14.5 165.5t15 165.5t44 112t72 63.5t100 20q59 0 102.5 -20t72.5 -63.5t43 -112t14 -165.5t-15 -165.5t-44 -112t-72.5 -63.5t-100.5 -20zM290 664q-42 0 -75 -15.5t-55.5 -51.5t-34.5 -96.5t-12 -150.5 q0 -89 12 -149.5t34.5 -97t55.5 -52.5t75 -16t75 15.5t55.5 52.5t34.5 97.5t12 150.5q0 89 -12 149t-34.5 96.5t-55.5 52t-75 15.5zM353 896h37q0 -64 -26.5 -88t-74.5 -24t-74.5 24t-26.5 88h37q0 -43 16 -59.5t47 -16.5q32 0 48.5 16.5t16.5 59.5z" />
<glyph unicode="&#x14f;" horiz-adv-x="441" d="M47 0zM47 241q0 130 45 191t129 61q86 0 129.5 -60.5t43.5 -191.5q0 -129 -44 -190.5t-129 -61.5q-86 0 -130 60.5t-44 191.5zM342 240q0 110 -29 159t-92 49q-64 0 -93 -49t-29 -159q0 -109 29.5 -158t92.5 -49t92 49t29 158zM285 678h37q0 -64 -26.5 -88t-74.5 -24 t-74.5 24t-26.5 88h37q0 -43 16 -59.5t47 -16.5q32 0 48.5 16.5t16.5 59.5z" />
<glyph unicode="&#x150;" horiz-adv-x="581" d="M59 0zM290 -11q-57 0 -100.5 20t-72.5 63.5t-43.5 112t-14.5 165.5t15 165.5t44 112t72 63.5t100 20q59 0 102.5 -20t72.5 -63.5t43 -112t14 -165.5t-15 -165.5t-44 -112t-72.5 -63.5t-100.5 -20zM290 664q-42 0 -75 -15.5t-55.5 -51.5t-34.5 -96.5t-12 -150.5 q0 -89 12 -149.5t34.5 -97t55.5 -52.5t75 -16t75 15.5t55.5 52.5t34.5 97.5t12 150.5q0 89 -12 149t-34.5 96.5t-55.5 52t-75 15.5zM444 892l-87 -106h-39v3l61 108h65v-5zM330 897v-5l-87 -106h-40v3l61 108h66z" />
<glyph unicode="&#x151;" horiz-adv-x="441" d="M47 0zM47 241q0 130 45 191t129 61q86 0 129.5 -60.5t43.5 -191.5q0 -129 -44 -190.5t-129 -61.5q-86 0 -130 60.5t-44 191.5zM342 240q0 110 -29 159t-92 49q-64 0 -93 -49t-29 -159q0 -109 29.5 -158t92.5 -49t92 49t29 158zM375 674l-87 -106h-39v3l61 108h65v-5z M261 679v-5l-87 -106h-40v3l61 108h66z" />
<glyph unicode="&#x152;" horiz-adv-x="826" d="M304 0q-120 0 -182.5 85t-62.5 271q0 92 15.5 157.5t46.5 107t77 60.5t107 19h481v-47h-311v-276h272v-50h-272v-279h319v-48h-490zM304 652q-45 0 -80 -15t-60 -50t-38 -91.5t-13 -140.5q0 -86 13.5 -145t38.5 -95t60.5 -52t79.5 -16h117v605h-118z" />
<glyph unicode="&#x153;" horiz-adv-x="709" d="M515 -11q-54 0 -91.5 30t-54.5 98q-36 -128 -148 -128q-86 0 -130 60.5t-44 191.5q0 130 45 191t129 61q114 0 148 -129q17 66 53.5 97.5t90.5 31.5q79 0 117.5 -63.5t38.5 -171.5q0 -8 -0.5 -16.5t-0.5 -15.5h-274q2 -102 34.5 -148t87.5 -46q83 0 113 103l43 -20 q-18 -55 -55 -90.5t-102 -35.5zM511 449q-54 0 -84 -43.5t-33 -137.5h225q-2 93 -29 137t-79 44zM341 240q0 111 -28.5 159.5t-91.5 48.5q-64 0 -93.5 -48.5t-29.5 -159.5q0 -109 30 -158t93 -49q62 0 91 49t29 158z" />
<glyph unicode="&#x154;" horiz-adv-x="505" d="M86 0zM268 653h-128v-326h128q70 0 107 41.5t37 124.5t-35 121.5t-109 38.5zM86 0v700h184q101 0 148.5 -52t47.5 -154q0 -75 -28.5 -128t-87.5 -74l121 -292h-58l-114 281q-7 -1 -15 -1.5t-16 -0.5h-128v-279h-54zM378 892l-81 -106h-43v3l60 108h64v-5z" />
<glyph unicode="&#x155;" horiz-adv-x="274" d="M73 0zM73 0v482h44l5 -121q16 66 53.5 99t86.5 30v-54q-63 5 -98.5 -44.5t-38.5 -147.5v-244h-52zM282 674l-81 -106h-43v3l60 108h64v-5z" />
<glyph unicode="&#x156;" horiz-adv-x="505" d="M86 0zM268 653h-128v-326h128q70 0 107 41.5t37 124.5t-35 121.5t-109 38.5zM86 0v700h184q101 0 148.5 -52t47.5 -154q0 -75 -28.5 -128t-87.5 -74l121 -292h-58l-114 281q-7 -1 -15 -1.5t-16 -0.5h-128v-279h-54zM301 -122q0 -45 -17 -79.5t-48 -50.5l-17 22 q21 13 35 36t15 51q-17 -5 -30 5t-13 31q0 19 10 28.5t27 9.5q38 0 38 -53z" />
<glyph unicode="&#x157;" horiz-adv-x="274" d="M53 0zM73 0v482h44l5 -121q16 66 53.5 99t86.5 30v-54q-63 5 -98.5 -44.5t-38.5 -147.5v-244h-52zM135 -122q0 -45 -17 -79.5t-48 -50.5l-17 22q21 13 35 36t15 51q-17 -5 -30 5t-13 31q0 19 10 28.5t27 9.5q38 0 38 -53z" />
<glyph unicode="&#x158;" horiz-adv-x="505" d="M86 0zM268 653h-128v-326h128q70 0 107 41.5t37 124.5t-35 121.5t-109 38.5zM86 0v700h184q101 0 148.5 -52t47.5 -154q0 -75 -28.5 -128t-87.5 -74l121 -292h-58l-114 281q-7 -1 -15 -1.5t-16 -0.5h-128v-279h-54zM279 820l62 77h51v-2l-91 -109h-45l-90 109v2h54z" />
<glyph unicode="&#x159;" horiz-adv-x="274" d="M70 0zM73 0v482h44l5 -121q16 66 53.5 99t86.5 30v-54q-63 5 -98.5 -44.5t-38.5 -147.5v-244h-52zM183 602l62 77h51v-2l-91 -109h-45l-90 109v2h54z" />
<glyph unicode="&#x15a;" horiz-adv-x="462" d="M18 0zM408 557l-45 -20q-21 73 -59 100.5t-86 27.5q-57 0 -90.5 -31t-33.5 -91q0 -56 29.5 -90t86.5 -58l43 -18q42 -18 72.5 -38t50.5 -43.5t29.5 -53t9.5 -67.5q0 -92 -51 -139t-139 -47q-75 0 -127 37.5t-80 127.5l45 23q23 -78 64 -110.5t98 -32.5q69 0 103 36 t34 101q0 52 -27.5 87.5t-97.5 66.5l-44 18q-69 29 -109.5 76t-40.5 121q0 36 11 67t33.5 54.5t55.5 36.5t78 13q69 0 117.5 -36t69.5 -118zM319 890l-81 -106h-43v3l60 108h64v-5z" />
<glyph unicode="&#x15b;" horiz-adv-x="361" d="M20 0zM182 31q45 0 69.5 22.5t24.5 64.5q0 32 -18.5 56t-64.5 42l-33 13q-58 23 -89 54.5t-31 85.5q0 55 34.5 90t102.5 35q54 0 88.5 -25t55.5 -80l-44 -22q-27 85 -100 85q-41 0 -65 -20t-24 -59q0 -32 19.5 -54t66.5 -41l35 -14q60 -24 88.5 -58t28.5 -85 q0 -27 -8.5 -51t-26.5 -42t-45.5 -28.5t-64.5 -10.5q-67 0 -104 32t-57 86l45 21q16 -51 46 -74t71 -23zM278 674l-81 -106h-43v3l60 108h64v-5z" />
<glyph unicode="&#x15c;" horiz-adv-x="462" d="M18 0zM408 557l-45 -20q-21 73 -59 100.5t-86 27.5q-57 0 -90.5 -31t-33.5 -91q0 -56 29.5 -90t86.5 -58l43 -18q42 -18 72.5 -38t50.5 -43.5t29.5 -53t9.5 -67.5q0 -92 -51 -139t-139 -47q-75 0 -127 37.5t-80 127.5l45 23q23 -78 64 -110.5t98 -32.5q69 0 103 36 t34 101q0 52 -27.5 87.5t-97.5 66.5l-44 18q-69 29 -109.5 76t-40.5 121q0 36 11 67t33.5 54.5t55.5 36.5t78 13q69 0 117.5 -36t69.5 -118zM219 863l-60 -79h-52v2l90 109h46l90 -109v-2h-53z" />
<glyph unicode="&#x15d;" horiz-adv-x="361" d="M20 0zM182 31q45 0 69.5 22.5t24.5 64.5q0 32 -18.5 56t-64.5 42l-33 13q-58 23 -89 54.5t-31 85.5q0 55 34.5 90t102.5 35q54 0 88.5 -25t55.5 -80l-44 -22q-27 85 -100 85q-41 0 -65 -20t-24 -59q0 -32 19.5 -54t66.5 -41l35 -14q60 -24 88.5 -58t28.5 -85 q0 -27 -8.5 -51t-26.5 -42t-45.5 -28.5t-64.5 -10.5q-67 0 -104 32t-57 86l45 21q16 -51 46 -74t71 -23zM178 647l-60 -79h-52v2l90 109h46l90 -109v-2h-53z" />
<glyph unicode="&#x15e;" horiz-adv-x="462" d="M214 -230q-27 0 -49.5 12.5t-38.5 42.5l31 21q11 -23 25 -32.5t32 -9.5q24 0 37 12.5t13 34.5q0 23 -12.5 34.5t-29.5 11.5q-5 0 -9.5 -1t-9.5 -2l-11 11l14 85q-67 4 -114.5 42t-73.5 122l45 23q23 -78 64 -110.5t98 -32.5q69 0 103 36t34 101q0 52 -27 88.5t-98 66.5 l-44 18q-69 29 -109.5 75.5t-40.5 120.5q0 36 11 67t33.5 54.5t55.5 36.5t78 13q69 0 117.5 -36t69.5 -118l-45 -20q-21 73 -59 100.5t-86 27.5q-57 0 -90.5 -31t-33.5 -91q0 -56 30 -89.5t86 -58.5l43 -18q42 -18 72.5 -38t50.5 -43.5t29.5 -53t9.5 -67.5 q0 -88 -46.5 -134.5t-127.5 -50.5l-12 -66q4 2 9 2q25 0 45 -18t20 -55q0 -42 -25 -62.5t-64 -20.5z" />
<glyph unicode="&#x15f;" horiz-adv-x="361" d="M173 -228q-27 0 -49.5 13t-38.5 43l31 20q10 -22 24.5 -31.5t32.5 -9.5q50 0 50 47q0 23 -12.5 34t-29.5 11q-5 0 -9.5 -0.5t-9.5 -1.5l-11 11l13 82q-59 4 -92.5 35t-51.5 82l45 21q16 -51 46 -74t71 -23q45 0 69.5 22.5t24.5 64.5q0 32 -18.5 55.5t-64.5 42.5l-33 13 q-58 23 -88.5 54.5t-30.5 85.5q0 55 34.5 90t101.5 35q54 0 88.5 -25t55.5 -80l-44 -22q-27 85 -100 85q-41 0 -65 -20t-24 -59q0 -32 19.5 -54.5t66.5 -40.5l35 -14q60 -24 88 -58t28 -85t-30.5 -88t-95.5 -42l-11 -64q2 1 9 1q25 0 45 -17.5t20 -55.5q0 -42 -25 -62.5 t-64 -20.5z" />
<glyph unicode="&#x160;" horiz-adv-x="462" d="M18 0zM408 557l-45 -20q-21 73 -59 100.5t-86 27.5q-57 0 -90.5 -31t-33.5 -91q0 -56 29.5 -90t86.5 -58l43 -18q42 -18 72.5 -38t50.5 -43.5t29.5 -53t9.5 -67.5q0 -92 -51 -139t-139 -47q-75 0 -127 37.5t-80 127.5l45 23q23 -78 64 -110.5t98 -32.5q69 0 103 36 t34 101q0 52 -27.5 87.5t-97.5 66.5l-44 18q-69 29 -109.5 76t-40.5 121q0 36 11 67t33.5 54.5t55.5 36.5t78 13q69 0 117.5 -36t69.5 -118zM219 818l62 77h51v-2l-91 -109h-45l-90 109v2h54z" />
<glyph unicode="&#x161;" horiz-adv-x="361" d="M20 0zM182 31q45 0 69.5 22.5t24.5 64.5q0 32 -18.5 56t-64.5 42l-33 13q-58 23 -89 54.5t-31 85.5q0 55 34.5 90t102.5 35q54 0 88.5 -25t55.5 -80l-44 -22q-27 85 -100 85q-41 0 -65 -20t-24 -59q0 -32 19.5 -54t66.5 -41l35 -14q60 -24 88.5 -58t28.5 -85 q0 -27 -8.5 -51t-26.5 -42t-45.5 -28.5t-64.5 -10.5q-67 0 -104 32t-57 86l45 21q16 -51 46 -74t71 -23zM179 602l62 77h51v-2l-91 -109h-45l-90 109v2h54z" />
<glyph unicode="&#x162;" horiz-adv-x="433" d="M13 0zM13 700h408v-48h-177v-652h-54v652h-177v48zM254 -122q0 -45 -17 -79.5t-48 -50.5l-17 22q21 13 35 36t15 51q-17 -5 -30 5t-13 31q0 19 10 28.5t27 9.5q38 0 38 -53z" />
<glyph unicode="&#x163;" horiz-adv-x="273" d="M17 0zM213 -122q0 -45 -17 -79.5t-48 -50.5l-17 22q21 13 35 36t15 51q-17 -5 -30 5t-13 31q0 19 10 28.5t27 9.5q38 0 38 -53zM258 7q-14 -9 -31 -13.5t-33 -4.5q-24 0 -44.5 7.5t-35.5 24.5t-23.5 43.5t-8.5 65.5v309h-65v43h65v146h53v-146h114v-43h-114v-304 q0 -54 16.5 -75.5t45.5 -21.5q26 0 47 14z" />
<glyph unicode="&#x164;" horiz-adv-x="433" d="M13 0zM13 700h408v-48h-177v-652h-54v652h-177v48zM217 820l62 77h51v-2l-91 -109h-45l-90 109v2h54z" />
<glyph unicode="&#x165;" horiz-adv-x="273" d="M225 554h-36l6 179h49zM258 7q-14 -9 -31 -13.5t-33 -4.5q-24 0 -44.5 7.5t-35.5 24.5t-23.5 43.5t-8.5 65.5v309h-65v43h65v146h53v-146h114v-43h-114v-304q0 -54 16.5 -75.5t45.5 -21.5q26 0 47 14z" />
<glyph unicode="&#x166;" horiz-adv-x="434" d="M13 700h408v-48h-177v-282h142v-38h-142v-332h-54v332h-142v38h142v282h-177v48z" />
<glyph unicode="&#x167;" horiz-adv-x="270" d="M261 7q-14 -10 -31 -14t-34 -4q-48 0 -80.5 32t-32.5 109v157h-66v38h66v114h-66v43h66v146h51v-146h115v-43h-115v-114h115v-38h-115v-152q0 -54 17.5 -75.5t46.5 -21.5q27 0 48 14z" />
<glyph unicode="&#x168;" horiz-adv-x="561" d="M71 0zM437 231v469h54v-467q0 -125 -56 -184.5t-155 -59.5q-100 0 -154.5 59.5t-54.5 184.5v467h54v-469q0 -52 11 -88.5t31 -60t49 -34.5t64 -11q36 0 65 11t49.5 34.5t31.5 60t11 88.5zM352 886h36q1 -26 -4 -42.5t-14 -26t-20 -13.5t-21 -4q-16 0 -28 7.5t-23 17 t-21.5 17t-22.5 7.5q-25 0 -25 -45h-37q0 25 5 41.5t13 26.5t18.5 13.5t21.5 3.5q16 0 29 -7.5t24 -16t21.5 -16t22.5 -7.5q24 0 25 44z" />
<glyph unicode="&#x169;" horiz-adv-x="465" d="M68 0zM393 0h-45l-4 101q-17 -57 -54.5 -84.5t-85.5 -27.5q-69 0 -102.5 47.5t-33.5 141.5v304h52v-296q0 -81 26 -116.5t73 -35.5q57 0 87.5 50t34.5 138v260h52v-482zM301 668h36q1 -26 -4 -42.5t-14 -26t-20 -13.5t-21 -4q-16 0 -28 7.5t-23 17t-21.5 17t-22.5 7.5 q-25 0 -25 -45h-37q0 25 5 41.5t13 26.5t18.5 13.5t21.5 3.5q16 0 29 -7.5t24 -16t21.5 -16t22.5 -7.5q24 0 25 44z" />
<glyph unicode="&#x16a;" horiz-adv-x="561" d="M71 0zM437 231v469h54v-467q0 -125 -56 -184.5t-155 -59.5q-100 0 -154.5 59.5t-54.5 184.5v467h54v-469q0 -52 11 -88.5t31 -60t49 -34.5t64 -11q36 0 65 11t49.5 34.5t31.5 60t11 88.5zM373 859v-39h-183v39h183z" />
<glyph unicode="&#x16b;" horiz-adv-x="465" d="M68 0zM393 0h-45l-4 101q-17 -57 -54.5 -84.5t-85.5 -27.5q-69 0 -102.5 47.5t-33.5 141.5v304h52v-296q0 -81 26 -116.5t73 -35.5q57 0 87.5 50t34.5 138v260h52v-482zM322 641v-39h-183v39h183z" />
<glyph unicode="&#x16c;" horiz-adv-x="561" d="M71 0zM437 231v469h54v-467q0 -125 -56 -184.5t-155 -59.5q-100 0 -154.5 59.5t-54.5 184.5v467h54v-469q0 -52 11 -88.5t31 -60t49 -34.5t64 -11q36 0 65 11t49.5 34.5t31.5 60t11 88.5zM345 896h37q0 -64 -26.5 -88t-74.5 -24t-74.5 24t-26.5 88h37q0 -43 16 -59.5 t47 -16.5q32 0 48.5 16.5t16.5 59.5z" />
<glyph unicode="&#x16d;" horiz-adv-x="465" d="M68 0zM393 0h-45l-4 101q-17 -57 -54.5 -84.5t-85.5 -27.5q-69 0 -102.5 47.5t-33.5 141.5v304h52v-296q0 -81 26 -116.5t73 -35.5q57 0 87.5 50t34.5 138v260h52v-482zM294 678h37q0 -64 -26.5 -88t-74.5 -24t-74.5 24t-26.5 88h37q0 -43 16 -59.5t47 -16.5 q32 0 48.5 16.5t16.5 59.5z" />
<glyph unicode="&#x16e;" horiz-adv-x="561" d="M71 0zM437 231v469h54v-467q0 -125 -56 -184.5t-155 -59.5q-100 0 -154.5 59.5t-54.5 184.5v467h54v-469q0 -52 11 -88.5t31 -60t49 -34.5t64 -11q36 0 65 11t49.5 34.5t31.5 60t11 88.5zM206 853q0 39 22 62.5t55 23.5q32 0 53.5 -23.5t21.5 -62.5q0 -38 -21.5 -61.5 t-54.5 -23.5q-32 0 -54 23.5t-22 61.5zM237 853q0 -25 12.5 -41t32.5 -16t33 16t13 41q0 26 -13 41.5t-32 15.5q-20 0 -33 -15.5t-13 -41.5z" />
<glyph unicode="&#x16f;" horiz-adv-x="465" d="M68 0zM393 0h-45l-4 101q-17 -57 -54.5 -84.5t-85.5 -27.5q-69 0 -102.5 47.5t-33.5 141.5v304h52v-296q0 -81 26 -116.5t73 -35.5q57 0 87.5 50t34.5 138v260h52v-482zM154 635q0 39 22 62.5t55 23.5q32 0 53.5 -23.5t21.5 -62.5q0 -38 -21.5 -61.5t-54.5 -23.5 q-32 0 -54 23.5t-22 61.5zM185 635q0 -25 12.5 -41t32.5 -16t33 16t13 41q0 26 -13 41.5t-32 15.5q-20 0 -33 -15.5t-13 -41.5z" />
<glyph unicode="&#x170;" horiz-adv-x="561" d="M71 0zM437 231v469h54v-467q0 -125 -56 -184.5t-155 -59.5q-100 0 -154.5 59.5t-54.5 184.5v467h54v-469q0 -52 11 -88.5t31 -60t49 -34.5t64 -11q36 0 65 11t49.5 34.5t31.5 60t11 88.5zM436 892l-87 -106h-39v3l61 108h65v-5zM322 897v-5l-87 -106h-40v3l61 108h66z " />
<glyph unicode="&#x171;" horiz-adv-x="465" d="M68 0zM393 0h-45l-4 101q-17 -57 -54.5 -84.5t-85.5 -27.5q-69 0 -102.5 47.5t-33.5 141.5v304h52v-296q0 -81 26 -116.5t73 -35.5q57 0 87.5 50t34.5 138v260h52v-482zM384 674l-87 -106h-39v3l61 108h65v-5zM270 679v-5l-87 -106h-40v3l61 108h66z" />
<glyph unicode="&#x172;" horiz-adv-x="561" d="M333 -204q-16 0 -31.5 4.5t-27.5 15.5t-19 29.5t-7 46.5q0 32 10.5 56.5t27.5 41.5q-101 -2 -158 57t-57 186v467h54v-469q0 -52 11 -88.5t31 -60t49 -34.5t64 -11q36 0 65 11t49.5 34.5t31.5 60t11 88.5v469h54v-467q0 -105 -39.5 -163.5t-111.5 -73.5q-25 -13 -40 -39 t-15 -60q0 -35 16 -48t36 -13q28 0 46 17l18 -33q-30 -24 -68 -24z" />
<glyph unicode="&#x173;" horiz-adv-x="466" d="M426 -180q-30 -24 -68 -24q-16 0 -31.5 4.5t-27.5 15.5t-19 29.5t-7 46.5q0 48 22.5 79.5t51.5 44.5l-3 91q-17 -60 -54.5 -89t-85.5 -29q-69 0 -102.5 47.5t-33.5 141.5v304h52v-296q0 -81 26 -116.5t73 -35.5q57 0 87.5 50t34.5 138v260h52v-482h-6q-34 -5 -55.5 -34 t-21.5 -69q0 -35 16 -48t36 -13q28 0 46 17z" />
<glyph unicode="&#x174;" horiz-adv-x="688" d="M11 0zM314 695h61l119 -608l132 613h51l-154 -700h-59l-120 607l-120 -607h-58l-155 700h54l130 -615zM344 865l-60 -79h-52v2l90 109h46l90 -109v-2h-53z" />
<glyph unicode="&#x175;" horiz-adv-x="548" d="M11 0zM247 474h57l89 -409l93 417h51l-116 -482h-59l-88 403l-88 -403h-58l-117 482h54l92 -417zM273 647l-60 -79h-52v2l90 109h46l90 -109v-2h-53z" />
<glyph unicode="&#x176;" horiz-adv-x="462" d="M13 0zM204 283l-191 417h61l158 -363l158 363h58l-190 -416v-284h-54v283zM230 865l-60 -79h-52v2l90 109h46l90 -109v-2h-53z" />
<glyph unicode="&#x177;" horiz-adv-x="375" d="M0 0zM147 -56l14 49l-151 489h55l123 -420l124 420h53l-172 -556q-13 -42 -28 -68.5t-32 -41.5t-35.5 -20.5t-38.5 -5.5q-19 0 -34 3t-33 11l15 45q14 -5 25.5 -8t23.5 -3q14 0 26.5 4t24 16t21.5 32.5t19 53.5zM187 647l-60 -79h-52v2l90 109h46l90 -109v-2h-53z" />
<glyph unicode="&#x178;" horiz-adv-x="462" d="M13 0zM204 283l-191 417h61l158 -363l158 363h58l-190 -416v-284h-54v283zM257 840q0 42 37 42q38 0 38 -42q0 -41 -38 -41q-37 0 -37 41zM135 840q0 20 10 31t27 11q38 0 38 -42q0 -41 -38 -41q-17 0 -27 10.5t-10 30.5z" />
<glyph unicode="&#x179;" horiz-adv-x="437" d="M22 0zM22 0v43l331 610l-315 -1v48h374v-43l-332 -610l337 1v-48h-395zM319 892l-81 -106h-43v3l60 108h64v-5z" />
<glyph unicode="&#x17a;" horiz-adv-x="361" d="M29 0zM29 0v42l238 396h-232v44h289v-42l-238 -396h243v-44h-300zM279 674l-81 -106h-43v3l60 108h64v-5z" />
<glyph unicode="&#x17b;" horiz-adv-x="437" d="M22 0zM22 0v43l331 610l-315 -1v48h374v-43l-332 -610l337 1v-48h-395zM182 840q0 20 10.5 30.5t27.5 10.5q38 0 38 -41q0 -20 -10 -31t-28 -11q-17 0 -27.5 11t-10.5 31z" />
<glyph unicode="&#x17c;" horiz-adv-x="361" d="M29 0zM29 0v42l238 396h-232v44h289v-42l-238 -396h243v-44h-300zM141 622q0 20 10.5 30.5t27.5 10.5q38 0 38 -41q0 -20 -10 -31t-28 -11q-17 0 -27.5 11t-10.5 31z" />
<glyph unicode="&#x17d;" horiz-adv-x="437" d="M22 0zM22 0v43l331 610l-315 -1v48h374v-43l-332 -610l337 1v-48h-395zM220 820l62 77h51v-2l-91 -109h-45l-90 109v2h54z" />
<glyph unicode="&#x17e;" horiz-adv-x="361" d="M29 0zM29 0v42l238 396h-232v44h289v-42l-238 -396h243v-44h-300zM179 602l62 77h51v-2l-91 -109h-45l-90 109v2h54z" />
<glyph unicode="&#x192;" horiz-adv-x="292" d="M-14 -209q-15 0 -30 2.5t-28 9.5l14 46q10 -5 19.5 -8t23.5 -3q13 0 24 5.5t19 18.5t14 35t10 54l42 369h-66l6 42h66l12 100q8 78 38 116.5t84 38.5q18 0 36 -4.5t32 -12.5l-15 -46q-11 7 -22 11t-26 4q-28 0 -49 -24t-28 -88l-11 -95h113l-7 -42h-112l-42 -375 q-9 -81 -39.5 -117.5t-77.5 -36.5z" />
<glyph unicode="&#x218;" horiz-adv-x="462" d="M18 0zM408 557l-45 -20q-21 73 -59 100.5t-86 27.5q-57 0 -90.5 -31t-33.5 -91q0 -56 29.5 -90t86.5 -58l43 -18q42 -18 72.5 -38t50.5 -43.5t29.5 -53t9.5 -67.5q0 -92 -51 -139t-139 -47q-75 0 -127 37.5t-80 127.5l45 23q23 -78 64 -110.5t98 -32.5q69 0 103 36 t34 101q0 52 -27.5 87.5t-97.5 66.5l-44 18q-69 29 -109.5 76t-40.5 121q0 36 11 67t33.5 54.5t55.5 36.5t78 13q69 0 117.5 -36t69.5 -118zM259 -125q0 -45 -17 -79.5t-48 -50.5l-17 22q21 13 35 36t15 51q-17 -5 -30 5t-13 31q0 19 10 28.5t27 9.5q38 0 38 -53z" />
<glyph unicode="&#x219;" horiz-adv-x="361" d="M20 0zM182 31q45 0 69.5 22.5t24.5 64.5q0 32 -18.5 56t-64.5 42l-33 13q-58 23 -89 54.5t-31 85.5q0 55 34.5 90t102.5 35q54 0 88.5 -25t55.5 -80l-44 -22q-27 85 -100 85q-41 0 -65 -20t-24 -59q0 -32 19.5 -54t66.5 -41l35 -14q60 -24 88.5 -58t28.5 -85 q0 -27 -8.5 -51t-26.5 -42t-45.5 -28.5t-64.5 -10.5q-67 0 -104 32t-57 86l45 21q16 -51 46 -74t71 -23zM219 -122q0 -45 -17 -79.5t-48 -50.5l-17 22q21 13 35 36t15 51q-17 -5 -30 5t-13 31q0 19 10 28.5t27 9.5q38 0 38 -53z" />
<glyph unicode="&#x237;" horiz-adv-x="198" d="M73 -51v533h52v-544q0 -78 -28 -112.5t-77 -34.5q-17 0 -32 2.5t-31 10.5l16 47q11 -5 20 -8.5t23 -3.5q28 0 42.5 24t14.5 86z" />
<glyph unicode="&#x2c6;" horiz-adv-x="452" d="M223 647l-60 -79h-52v2l90 109h46l90 -109v-2h-53z" />
<glyph unicode="&#x2c7;" horiz-adv-x="452" d="M224 602l62 77h51v-2l-91 -109h-45l-90 109v2h54z" />
<glyph unicode="&#x2d8;" horiz-adv-x="452" d="M290 678h37q0 -64 -26.5 -88t-74.5 -24t-74.5 24t-26.5 88h37q0 -43 16 -59.5t47 -16.5q32 0 48.5 16.5t16.5 59.5z" />
<glyph unicode="&#x2d9;" horiz-adv-x="452" d="M189 622q0 20 10.5 30.5t27.5 10.5q38 0 38 -41q0 -20 -10 -31t-28 -11q-17 0 -27.5 11t-10.5 31z" />
<glyph unicode="&#x2da;" horiz-adv-x="452" d="M152 635q0 39 22 62.5t55 23.5q32 0 53.5 -23.5t21.5 -62.5q0 -38 -21.5 -61.5t-54.5 -23.5q-32 0 -54 23.5t-22 61.5zM183 635q0 -25 12.5 -41t32.5 -16t33 16t13 41q0 26 -13 41.5t-32 15.5q-20 0 -33 -15.5t-13 -41.5z" />
<glyph unicode="&#x2db;" horiz-adv-x="452" d="M235 -204q-17 0 -32.5 4.5t-27.5 15.5t-19 29.5t-7 46.5q0 31 10.5 56t26.5 42t35.5 26t38.5 9l2 -25q-33 -5 -54.5 -34t-21.5 -69q0 -35 16 -48t36 -13q27 0 47 17l17 -33q-30 -24 -67 -24z" />
<glyph unicode="&#x2dc;" horiz-adv-x="452" d="M303 668h36q1 -26 -4 -42.5t-14 -26t-20 -13.5t-21 -4q-16 0 -28 7.5t-23 17t-21.5 17t-22.5 7.5q-25 0 -25 -45h-37q0 25 5 41.5t13 26.5t18.5 13.5t21.5 3.5q16 0 29 -7.5t24 -16t21.5 -16t22.5 -7.5q24 0 25 44z" />
<glyph unicode="&#x2dd;" horiz-adv-x="452" d="M390 674l-87 -106h-39v3l61 108h65v-5zM276 679v-5l-87 -106h-40v3l61 108h66z" />
<glyph unicode="&#x1e80;" horiz-adv-x="688" d="M11 0zM314 695h61l119 -608l132 613h51l-154 -700h-59l-120 607l-120 -607h-58l-155 700h54l130 -615zM328 787l-82 106v5h65l60 -108v-3h-43z" />
<glyph unicode="&#x1e81;" horiz-adv-x="548" d="M11 0zM247 474h57l89 -409l93 417h51l-116 -482h-59l-88 403l-88 -403h-58l-117 482h54l92 -417zM257 569l-82 106v5h65l60 -108v-3h-43z" />
<glyph unicode="&#x1e82;" horiz-adv-x="688" d="M11 0zM314 695h61l119 -608l132 613h51l-154 -700h-59l-120 607l-120 -607h-58l-155 700h54l130 -615zM444 892l-81 -106h-43v3l60 108h64v-5z" />
<glyph unicode="&#x1e83;" horiz-adv-x="548" d="M11 0zM247 474h57l89 -409l93 417h51l-116 -482h-59l-88 403l-88 -403h-58l-117 482h54l92 -417zM373 674l-81 -106h-43v3l60 108h64v-5z" />
<glyph unicode="&#x1e84;" horiz-adv-x="688" d="M11 0zM314 695h61l119 -608l132 613h51l-154 -700h-59l-120 607l-120 -607h-58l-155 700h54l130 -615zM371 840q0 42 37 42q38 0 38 -42q0 -41 -38 -41q-37 0 -37 41zM249 840q0 20 10 31t27 11q38 0 38 -42q0 -41 -38 -41q-17 0 -27 10.5t-10 30.5z" />
<glyph unicode="&#x1e85;" horiz-adv-x="548" d="M11 0zM247 474h57l89 -409l93 417h51l-116 -482h-59l-88 403l-88 -403h-58l-117 482h54l92 -417zM299 622q0 42 37 42q38 0 38 -42q0 -41 -38 -41q-37 0 -37 41zM177 622q0 20 10 31t27 11q38 0 38 -42q0 -41 -38 -41q-17 0 -27 10.5t-10 30.5z" />
<glyph unicode="&#x2000;" horiz-adv-x="469" />
<glyph unicode="&#x2001;" horiz-adv-x="939" />
<glyph unicode="&#x2002;" horiz-adv-x="373" />
<glyph unicode="&#x2003;" horiz-adv-x="746" />
<glyph unicode="&#x2004;" horiz-adv-x="248" />
<glyph unicode="&#x2005;" horiz-adv-x="187" />
<glyph unicode="&#x2006;" horiz-adv-x="124" />
<glyph unicode="&#x2007;" horiz-adv-x="467" />
<glyph unicode="&#x2008;" horiz-adv-x="163" />
<glyph unicode="&#x2009;" horiz-adv-x="149" />
<glyph unicode="&#x200a;" horiz-adv-x="74" />
<glyph unicode="&#x200b;" horiz-adv-x="0" />
<glyph unicode="&#x2010;" horiz-adv-x="320" d="M281 273v-46h-241v46h241z" />
<glyph unicode="&#x2011;" horiz-adv-x="320" d="M281 273v-46h-241v46h241z" />
<glyph unicode="&#x2012;" horiz-adv-x="443" d="M404 273v-46h-365v46h365z" />
<glyph unicode="&#x2013;" horiz-adv-x="443" d="M404 273v-46h-365v46h365z" />
<glyph unicode="&#x2014;" horiz-adv-x="592" d="M553 273v-46h-514v46h514z" />
<glyph unicode="&#x2015;" horiz-adv-x="815" d="M776 273v-46h-737v46h737z" />
<glyph unicode="&#x2018;" horiz-adv-x="165" d="M104 726l17 -24q-23 -14 -36 -38t-14 -50q17 5 30 -5t13 -33q0 -20 -10.5 -31t-26.5 -11q-20 0 -30 13t-10 44q0 45 17 81.5t50 53.5z" />
<glyph unicode="&#x2019;" horiz-adv-x="165" d="M56 527l-17 24q23 14 36 38t14 50q-17 -5 -30 5t-13 33q0 20 10.5 31t26.5 11q20 0 30 -13t10 -44q0 -45 -17 -81.5t-50 -53.5z" />
<glyph unicode="&#x201a;" horiz-adv-x="164" d="M56 -113l-17 24q24 14 36.5 37.5t13.5 49.5q-17 -5 -30 5t-13 33q0 20 10.5 30.5t26.5 10.5q20 0 30 -13t10 -43q0 -45 -17 -81t-50 -53z" />
<glyph unicode="&#x201c;" horiz-adv-x="276" d="M104 726l17 -24q-23 -14 -36 -38t-14 -50q17 5 30 -5t13 -33q0 -20 -10.5 -31t-26.5 -11q-20 0 -30 13t-10 44q0 45 17 81.5t50 53.5zM215 726l17 -24q-23 -14 -36 -38t-14 -50q17 5 30 -5t13 -33q0 -20 -10.5 -31t-26.5 -11q-20 0 -30 13t-10 44q0 45 17 81.5t50 53.5z " />
<glyph unicode="&#x201d;" horiz-adv-x="276" d="M56 527l-17 24q23 14 36 38t14 50q-17 -5 -30 5t-13 33q0 20 10.5 31t26.5 11q20 0 30 -13t10 -44q0 -45 -17 -81.5t-50 -53.5zM167 527l-17 24q23 14 36 38t14 50q-17 -5 -30 5t-13 33q0 20 10.5 31t26.5 11q20 0 30 -13t10 -44q0 -45 -17 -81.5t-50 -53.5z" />
<glyph unicode="&#x201e;" horiz-adv-x="274" d="M55 -113l-17 24q24 14 36.5 37.5t13.5 49.5q-17 -5 -30 5t-13 33q0 20 10.5 30.5t26.5 10.5q20 0 30 -13t10 -43q0 -45 -17 -81t-50 -53zM166 -113l-17 24q24 14 36.5 37.5t13.5 49.5q-17 -5 -30 5t-13 33q0 20 10.5 30.5t26.5 10.5q20 0 30 -13t10 -43q0 -45 -17 -81 t-50 -53z" />
<glyph unicode="&#x2020;" horiz-adv-x="233" d="M191 553h-52l-2 -235h-43v235h-53v38h52v118h48l-2 -118h52v-38z" />
<glyph unicode="&#x2021;" horiz-adv-x="233" d="M41 470h53v87h-53v39h53l-1 113h48l-3 -113h53v-39h-53v-87h53v-40h-53l3 -116h-48v116h-52v40z" />
<glyph unicode="&#x2022;" horiz-adv-x="326" d="M50 327q0 54 30 87.5t83 33.5t83 -33.5t30 -87.5t-30 -87.5t-83 -33.5t-83 33.5t-30 87.5z" />
<glyph unicode="&#x2026;" horiz-adv-x="493" d="M410 -6q-18 0 -28 11t-10 31q0 42 38 42t38 -42q0 -20 -10 -31t-28 -11zM247 -6q-17 0 -27.5 11t-10.5 31t10.5 31t27.5 11q38 0 38 -42q0 -20 -10 -31t-28 -11zM84 -6q-18 0 -28 11t-10 31q0 42 38 42q37 0 37 -42q0 -20 -9.5 -31t-27.5 -11z" />
<glyph unicode="&#x202f;" horiz-adv-x="187" />
<glyph unicode="&#x2030;" horiz-adv-x="1086" d="M34 0zM484 204q0 113 31 162.5t95 49.5q62 0 92.5 -49.5t30.5 -162.5t-30 -162t-93 -49q-64 0 -95 49.5t-31 161.5zM691 204q0 49 -5.5 82.5t-16 54t-25.5 29.5t-34 9q-20 0 -35.5 -9t-26 -29.5t-16 -53.5t-5.5 -82q0 -50 5.5 -83.5t16 -54t26 -29.5t35.5 -9q19 0 34 9 t25.5 29t16 53.5t5.5 83.5zM34 497q0 113 31 162.5t95 49.5q62 0 92.5 -49.5t30.5 -162.5t-30 -162t-93 -49q-64 0 -95 49.5t-31 161.5zM241 497q0 49 -5.5 82.5t-16 54t-25.5 29.5t-34 9q-20 0 -35.5 -9t-26 -29.5t-16 -53.5t-5.5 -82q0 -50 5.5 -83.5t16 -54t26 -29.5 t35.5 -9q19 0 34 9t25.5 29t16 53.5t5.5 83.5zM798 204q0 113 31 162.5t95 49.5q62 0 92.5 -49.5t30.5 -162.5t-30 -162t-93 -49q-64 0 -95 49.5t-31 161.5zM1005 204q0 49 -5.5 82.5t-16 54t-25.5 29.5t-34 9q-20 0 -35.5 -9t-26 -29.5t-16 -53.5t-5.5 -82q0 -50 5.5 -83.5 t16 -54t26 -29.5t35.5 -9q19 0 34 9t25.5 29t16 53.5t5.5 83.5zM532 701l-250 -701h-49l251 701h48z" />
<glyph unicode="&#x2039;" horiz-adv-x="311" d="M188 0l-142 239v3l142 240h57l-144 -240l146 -242h-59z" />
<glyph unicode="&#x203a;" horiz-adv-x="311" d="M118 482l142 -239v-3l-142 -240h-57l144 240l-146 242h59z" />
<glyph unicode="&#x2044;" horiz-adv-x="379" d="M339 701l-250 -701h-49l251 701h48z" />
<glyph unicode="&#x205f;" horiz-adv-x="234" />
<glyph unicode="&#x2070;" horiz-adv-x="319" d="M34 288zM34 499q0 113 31 162.5t95 49.5q62 0 92.5 -49.5t30.5 -162.5t-30 -162t-93 -49q-64 0 -95 49.5t-31 161.5zM241 499q0 49 -5.5 82.5t-16 54t-25.5 29.5t-34 9q-20 0 -35.5 -9t-26 -29.5t-16 -53.5t-5.5 -82q0 -50 5.5 -83.5t16 -54t26 -29.5t35.5 -9q19 0 34 9 t25.5 29t16 53.5t5.5 83.5z" />
<glyph unicode="&#x2074;" horiz-adv-x="295" d="M21 295zM21 401v32l102 271h42l-101 -265h129v184h41v-184h46v-38h-46v-106h-41v106h-172z" />
<glyph unicode="&#x2075;" horiz-adv-x="276" d="M19 288zM84 667l-11 -143q16 15 35 21.5t39 6.5q45 0 74.5 -29.5t29.5 -96.5q0 -61 -29.5 -99.5t-88.5 -38.5q-38 0 -68.5 18t-45.5 60l34 17q22 -59 79 -59q40 0 58.5 28.5t18.5 73.5q0 92 -75 92q-41 0 -72 -37l-28 12l15 211h186v-37h-151z" />
<glyph unicode="&#x2076;" horiz-adv-x="299" d="M34 288zM161 288q-58 0 -92.5 48.5t-34.5 160.5q0 111 33.5 162.5t95.5 51.5q37 0 62 -16.5t39 -52.5l-31 -17q-11 27 -28 38.5t-40 11.5q-20 0 -36.5 -9t-28 -30t-18 -55.5t-6.5 -85.5q0 -6 0.5 -15.5t1.5 -17.5q5 42 29.5 65.5t62.5 23.5q45 0 72.5 -32.5t27.5 -95.5 q0 -62 -27 -98.5t-82 -36.5zM87 417q0 -36 18 -65t54 -29q32 0 51 24.5t19 73.5q0 45 -18 70t-51 25t-53 -26.5t-20 -72.5z" />
<glyph unicode="&#x2077;" horiz-adv-x="236" d="M18 295zM116 295h-45q0 55 8.5 109t23.5 103t36 90t46 69l-167 -1v39h211v-35q-52 -52 -82 -150t-31 -224z" />
<glyph unicode="&#x2078;" horiz-adv-x="296" d="M34 288zM148 288q-55 0 -84.5 31.5t-29.5 86.5q0 42 17.5 69t46.5 37q-23 11 -37.5 35t-14.5 58q0 51 26.5 78.5t75.5 27.5t75.5 -27.5t26.5 -78.5q0 -34 -14.5 -58t-38.5 -35q29 -10 46.5 -37t17.5 -69q0 -55 -29 -86.5t-84 -31.5zM211 603q0 32 -16 52t-47 20 q-32 0 -47.5 -20t-15.5 -52t15.5 -53t47.5 -21q31 0 47 21t16 53zM220 408q0 37 -18.5 60.5t-53.5 23.5t-54 -23.5t-19 -60.5q0 -38 18.5 -62t54.5 -24t54 24t18 62z" />
<glyph unicode="&#x2079;" horiz-adv-x="297" d="M27 288zM209 581q0 36 -18.5 65t-53.5 29q-32 0 -51 -24.5t-19 -73.5q0 -45 18 -70.5t52 -25.5q32 0 52 26.5t20 73.5zM135 711q59 0 93 -49t34 -160q0 -112 -33 -163t-96 -51q-35 0 -61 15t-40 50l30 21q11 -27 28.5 -39t40.5 -12q20 0 36.5 9.5t28 30.5t18 55.5 t6.5 84.5q0 6 -0.5 15.5t-1.5 17.5q-5 -42 -29 -66t-62 -24q-45 0 -72.5 33t-27.5 96q0 62 27 99t81 37z" />
<glyph unicode="&#x207a;" horiz-adv-x="236" d="M30 360zM136 360h-34v99h-72v32h72v103h34v-103h71v-32h-71v-99z" />
<glyph unicode="&#x207b;" horiz-adv-x="236" d="M30 457zM207 492v-35h-177v35h177z" />
<glyph unicode="&#x207c;" horiz-adv-x="236" d="M30 420zM207 532v-36h-177v36h177zM207 456v-36h-177v36h177z" />
<glyph unicode="&#x207d;" horiz-adv-x="163" d="M26 243zM139 278l-11 -35q-102 21 -102 236q0 217 102 238l11 -35q-37 -11 -57 -58t-20 -145q0 -97 20 -143.5t57 -57.5z" />
<glyph unicode="&#x207e;" horiz-adv-x="163" d="M24 243zM34 243l-10 35q37 11 57 57.5t20 143.5q0 98 -20 145t-57 58l10 35q104 -21 104 -238q0 -215 -104 -236z" />
<glyph unicode="&#x2080;" horiz-adv-x="319" d="M34 204q0 113 31 162.5t95 49.5q62 0 92.5 -49.5t30.5 -162.5t-30 -162t-93 -49q-64 0 -95 49.5t-31 161.5zM241 204q0 49 -5.5 82.5t-16 54t-25.5 29.5t-34 9q-20 0 -35.5 -9t-26 -29.5t-16 -53.5t-5.5 -82q0 -50 5.5 -83.5t16 -54t26 -29.5t35.5 -9q19 0 34 9t25.5 29 t16 53.5t5.5 83.5z" />
<glyph unicode="&#x2081;" horiz-adv-x="162" d="M110 0h-42v349l-41 -38l-17 35l72 64h28v-410z" />
<glyph unicode="&#x2082;" horiz-adv-x="264" d="M22 0v33l120 169q26 38 36 63.5t10 45.5q0 67 -60 67q-29 0 -47.5 -16t-31.5 -50l-33 15q32 89 115 89q49 0 74.5 -26.5t25.5 -72.5q0 -29 -13 -60.5t-45 -76.5l-101 -143l173 1v-38h-223z" />
<glyph unicode="&#x2083;" horiz-adv-x="276" d="M131 -7q-41 0 -69 18.5t-43 60.5l34 16q11 -32 30.5 -45.5t45.5 -13.5q38 0 56.5 23t18.5 64q0 35 -16 57t-51 22h-38v36h37q26 0 42.5 20t16.5 56q0 35 -17 53.5t-49 18.5q-28 0 -44.5 -15t-27.5 -45l-34 14q28 83 111 83q53 0 78 -28t25 -74q0 -71 -50 -99 q31 -11 44.5 -38.5t13.5 -62.5q0 -54 -28.5 -87.5t-85.5 -33.5z" />
<glyph unicode="&#x2084;" horiz-adv-x="294" d="M21 106v32l102 271h42l-101 -265h129v184h41v-184h46v-38h-46v-106h-41v106h-172z" />
<glyph unicode="&#x2085;" horiz-adv-x="277" d="M84 372l-11 -143q16 15 35 21.5t39 6.5q45 0 74.5 -29.5t29.5 -96.5q0 -61 -29.5 -99.5t-88.5 -38.5q-38 0 -68.5 18t-45.5 60l34 17q22 -59 79 -59q40 0 58.5 28.5t18.5 73.5q0 92 -75 92q-41 0 -72 -37l-28 12l15 211h186v-37h-151z" />
<glyph unicode="&#x2086;" horiz-adv-x="298" d="M161 -7q-58 0 -92.5 48.5t-34.5 160.5q0 111 33.5 162.5t95.5 51.5q37 0 62 -16.5t39 -52.5l-31 -17q-11 27 -28 38.5t-40 11.5q-20 0 -36.5 -9t-28 -30t-18 -55.5t-6.5 -85.5q0 -6 0.5 -15.5t1.5 -17.5q5 42 29.5 65.5t62.5 23.5q45 0 72.5 -32.5t27.5 -95.5 q0 -62 -27 -98.5t-82 -36.5zM87 122q0 -36 18 -65t54 -29q32 0 51 24.5t19 73.5q0 45 -18 70t-51 25t-53 -26.5t-20 -72.5z" />
<glyph unicode="&#x2087;" horiz-adv-x="236" d="M116 0h-45q0 55 8.5 109t23.5 103t36 90t46 69l-167 -1v39h211v-35q-52 -52 -82 -150t-31 -224z" />
<glyph unicode="&#x2088;" horiz-adv-x="296" d="M148 -7q-55 0 -84.5 31.5t-29.5 86.5q0 42 17.5 69t46.5 37q-23 11 -37.5 35t-14.5 58q0 51 26.5 78.5t75.5 27.5t75.5 -27.5t26.5 -78.5q0 -34 -14.5 -58t-38.5 -35q29 -10 46.5 -37t17.5 -69q0 -55 -29 -86.5t-84 -31.5zM211 308q0 32 -16 52t-47 20q-32 0 -47.5 -20 t-15.5 -52t15.5 -53t47.5 -21q31 0 47 21t16 53zM220 113q0 37 -18.5 60.5t-53.5 23.5t-54 -23.5t-19 -60.5q0 -38 18.5 -62t54.5 -24t54 24t18 62z" />
<glyph unicode="&#x2089;" horiz-adv-x="297" d="M209 286q0 36 -18.5 65t-53.5 29q-32 0 -51 -24.5t-19 -73.5q0 -45 18 -70.5t52 -25.5q32 0 52 26.5t20 73.5zM135 416q59 0 93 -49t34 -160q0 -112 -33 -163t-96 -51q-35 0 -61 15t-40 50l30 21q11 -27 28.5 -39t40.5 -12q20 0 36.5 9.5t28 30.5t18 55.5t6.5 84.5 q0 6 -0.5 15.5t-1.5 17.5q-5 -42 -29 -66t-62 -24q-45 0 -72.5 33t-27.5 96q0 62 27 99t81 37z" />
<glyph unicode="&#x208a;" horiz-adv-x="236" d="M136 64h-34v99h-72v32h72v103h34v-103h71v-32h-71v-99z" />
<glyph unicode="&#x208b;" horiz-adv-x="236" d="M207 196v-35h-177v35h177z" />
<glyph unicode="&#x208c;" horiz-adv-x="236" d="M207 236v-36h-177v36h177zM207 160v-36h-177v36h177z" />
<glyph unicode="&#x208d;" horiz-adv-x="163" d="M139 -18l-11 -35q-102 21 -102 236q0 217 102 238l11 -35q-37 -11 -57 -58t-20 -145q0 -97 20 -143.5t57 -57.5z" />
<glyph unicode="&#x208e;" horiz-adv-x="163" d="M34 -53l-10 35q37 11 57 57.5t20 143.5q0 98 -20 145t-57 58l10 35q104 -21 104 -238q0 -215 -104 -236z" />
<glyph unicode="&#x20ac;" horiz-adv-x="517" d="M493 149q-26 -86 -77.5 -123t-125.5 -37q-94 0 -149 66t-66 216h-66v44h64q-2 40 0 59h-64v44h65q10 156 67 224.5t154 68.5q70 0 119 -35.5t73 -127.5l-48 -19q-20 76 -57.5 105.5t-89.5 29.5q-35 0 -63.5 -12.5t-49.5 -41.5t-34 -76t-17 -116h240l-9 -44h-233v-24 q0 -15 1 -35h219l-10 -44h-207q5 -65 18 -110t34 -73t49 -40.5t62 -12.5q53 0 93 31t60 105z" />
<glyph unicode="&#x2122;" horiz-adv-x="523" d="M22 700h186v-30h-76v-264h-32v264h-78v30zM236 406v294h37l81 -253l82 253h37v-294h-31l1 230l-76 -230h-27l-74 228l1 -228h-31z" />
<glyph unicode="&#x2153;" horiz-adv-x="615" d="M10 0zM465 -7q-41 0 -69 18.5t-43 60.5l34 16q11 -32 30.5 -45.5t45.5 -13.5q38 0 56.5 23t18.5 64q0 35 -16 57t-51 22h-38v36h37q26 0 42.5 20t16.5 56q0 35 -17 53.5t-49 18.5q-28 0 -44.5 -15t-27.5 -45l-34 14q28 83 111 83q53 0 78 -28t25 -74q0 -71 -50 -99 q31 -11 44.5 -38.5t13.5 -62.5q0 -54 -28.5 -87.5t-85.5 -33.5zM110 293h-42v349l-41 -38l-17 35l72 64h28v-410zM406 701l-250 -701h-49l251 701h48z" />
<glyph unicode="&#x2154;" horiz-adv-x="712" d="M16 0zM563 -7q-41 0 -69 18.5t-43 60.5l34 16q11 -32 30.5 -45.5t45.5 -13.5q38 0 56.5 23t18.5 64q0 35 -16 57t-51 22h-38v36h37q26 0 42.5 20t16.5 56q0 35 -17 53.5t-49 18.5q-28 0 -44.5 -15t-27.5 -45l-34 14q28 83 111 83q53 0 78 -28t25 -74q0 -71 -50 -99 q31 -11 44.5 -38.5t13.5 -62.5q0 -54 -28.5 -87.5t-85.5 -33.5zM22 293v33l120 169q26 38 36 63.5t10 45.5q0 67 -60 67q-29 0 -47.5 -16t-31.5 -50l-33 15q32 89 115 89q49 0 74.5 -26.5t25.5 -72.5q0 -29 -13 -60.5t-45 -76.5l-101 -143l173 1v-38h-223zM503 701 l-250 -701h-49l251 701h48z" />
<glyph unicode="&#x2155;" horiz-adv-x="618" d="M10 0zM110 293h-42v349l-41 -38l-17 35l72 64h28v-410zM427 372l-11 -143q16 15 35 21.5t39 6.5q45 0 74.5 -29.5t29.5 -96.5q0 -61 -29.5 -99.5t-88.5 -38.5q-38 0 -68.5 18t-45.5 60l34 17q22 -59 79 -59q40 0 58.5 28.5t18.5 73.5q0 92 -75 92q-41 0 -72 -37l-28 12 l15 211h186v-37h-151zM406 701l-250 -701h-49l251 701h48z" />
<glyph unicode="&#x2156;" horiz-adv-x="717" d="M16 0zM22 293v33l120 169q26 38 36 63.5t10 45.5q0 67 -60 67q-29 0 -47.5 -16t-31.5 -50l-33 15q32 89 115 89q49 0 74.5 -26.5t25.5 -72.5q0 -29 -13 -60.5t-45 -76.5l-101 -143l173 1v-38h-223zM527 372l-11 -143q16 15 35 21.5t39 6.5q45 0 74.5 -29.5t29.5 -96.5 q0 -61 -29.5 -99.5t-88.5 -38.5q-38 0 -68.5 18t-45.5 60l34 17q22 -59 79 -59q40 0 58.5 28.5t18.5 73.5q0 92 -75 92q-41 0 -72 -37l-28 12l15 211h186v-37h-151zM506 701l-250 -701h-49l251 701h48z" />
<glyph unicode="&#x2157;" horiz-adv-x="714" d="M19 0zM131 286q-41 0 -69 18.5t-43 60.5l34 16q11 -32 30.5 -45.5t45.5 -13.5q38 0 56.5 23t18.5 64q0 35 -16 57t-51 22h-38v36h37q26 0 42.5 20t16.5 56q0 35 -17 53.5t-49 18.5q-28 0 -44.5 -15t-27.5 -45l-34 14q28 83 111 83q53 0 78 -28t25 -74q0 -71 -50 -99 q31 -11 44.5 -38.5t13.5 -62.5q0 -54 -28.5 -87.5t-85.5 -33.5zM524 372l-11 -143q16 15 35 21.5t39 6.5q45 0 74.5 -29.5t29.5 -96.5q0 -61 -29.5 -99.5t-88.5 -38.5q-38 0 -68.5 18t-45.5 60l34 17q22 -59 79 -59q40 0 58.5 28.5t18.5 73.5q0 92 -75 92q-41 0 -72 -37 l-28 12l15 211h186v-37h-151zM503 701l-250 -701h-49l251 701h48z" />
<glyph unicode="&#x2158;" horiz-adv-x="736" d="M21 0zM546 372l-11 -143q16 15 35 21.5t39 6.5q45 0 74.5 -29.5t29.5 -96.5q0 -61 -29.5 -99.5t-88.5 -38.5q-38 0 -68.5 18t-45.5 60l34 17q22 -59 79 -59q40 0 58.5 28.5t18.5 73.5q0 92 -75 92q-41 0 -72 -37l-28 12l15 211h186v-37h-151zM524 701l-250 -701h-49 l251 701h48zM21 399v32l102 271h42l-101 -265h129v184h41v-184h46v-38h-46v-106h-41v106h-172z" />
<glyph unicode="&#x2159;" horiz-adv-x="641" d="M10 0zM110 293h-42v349l-41 -38l-17 35l72 64h28v-410zM501 -7q-58 0 -92.5 48.5t-34.5 160.5q0 111 33.5 162.5t95.5 51.5q37 0 62 -16.5t39 -52.5l-31 -17q-11 27 -28 38.5t-40 11.5q-20 0 -36.5 -9t-28 -30t-18 -55.5t-6.5 -85.5q0 -6 0.5 -15.5t1.5 -17.5 q5 42 29.5 65.5t62.5 23.5q45 0 72.5 -32.5t27.5 -95.5q0 -62 -27 -98.5t-82 -36.5zM427 122q0 -36 18 -65t54 -29q32 0 51 24.5t19 73.5q0 45 -18 70t-51 25t-53 -26.5t-20 -72.5zM406 701l-250 -701h-49l251 701h48z" />
<glyph unicode="&#x215a;" horiz-adv-x="731" d="M19 0zM84 665l-11 -143q16 15 35 21.5t39 6.5q45 0 74.5 -29.5t29.5 -96.5q0 -61 -29.5 -99.5t-88.5 -38.5q-38 0 -68.5 18t-45.5 60l34 17q22 -59 79 -59q40 0 58.5 28.5t18.5 73.5q0 92 -75 92q-41 0 -72 -37l-28 12l15 211h186v-37h-151zM591 -7q-58 0 -92.5 48.5 t-34.5 160.5q0 111 33.5 162.5t95.5 51.5q37 0 62 -16.5t39 -52.5l-31 -17q-11 27 -28 38.5t-40 11.5q-20 0 -36.5 -9t-28 -30t-18 -55.5t-6.5 -85.5q0 -6 0.5 -15.5t1.5 -17.5q5 42 29.5 65.5t62.5 23.5q45 0 72.5 -32.5t27.5 -95.5q0 -62 -27 -98.5t-82 -36.5zM517 122 q0 -36 18 -65t54 -29q32 0 51 24.5t19 73.5q0 45 -18 70t-51 25t-53 -26.5t-20 -72.5zM503 701l-250 -701h-49l251 701h48z" />
<glyph unicode="&#x215b;" horiz-adv-x="637" d="M10 0zM110 293h-42v349l-41 -38l-17 35l72 64h28v-410zM489 -7q-55 0 -84.5 31.5t-29.5 86.5q0 42 17.5 69t46.5 37q-23 11 -37.5 35t-14.5 58q0 51 26.5 78.5t75.5 27.5t75.5 -27.5t26.5 -78.5q0 -34 -14.5 -58t-38.5 -35q29 -10 46.5 -37t17.5 -69q0 -55 -29 -86.5 t-84 -31.5zM552 308q0 32 -16 52t-47 20q-32 0 -47.5 -20t-15.5 -52t15.5 -53t47.5 -21q31 0 47 21t16 53zM561 113q0 37 -18.5 60.5t-53.5 23.5t-54 -23.5t-19 -60.5q0 -38 18.5 -62t54.5 -24t54 24t18 62zM406 701l-250 -701h-49l251 701h48z" />
<glyph unicode="&#x215c;" horiz-adv-x="734" d="M19 0zM131 286q-41 0 -69 18.5t-43 60.5l34 16q11 -32 30.5 -45.5t45.5 -13.5q38 0 56.5 23t18.5 64q0 35 -16 57t-51 22h-38v36h37q26 0 42.5 20t16.5 56q0 35 -17 53.5t-49 18.5q-28 0 -44.5 -15t-27.5 -45l-34 14q28 83 111 83q53 0 78 -28t25 -74q0 -71 -50 -99 q31 -11 44.5 -38.5t13.5 -62.5q0 -54 -28.5 -87.5t-85.5 -33.5zM586 -7q-55 0 -84.5 31.5t-29.5 86.5q0 42 17.5 69t46.5 37q-23 11 -37.5 35t-14.5 58q0 51 26.5 78.5t75.5 27.5t75.5 -27.5t26.5 -78.5q0 -34 -14.5 -58t-38.5 -35q29 -10 46.5 -37t17.5 -69 q0 -55 -29 -86.5t-84 -31.5zM649 308q0 32 -16 52t-47 20q-32 0 -47.5 -20t-15.5 -52t15.5 -53t47.5 -21q31 0 47 21t16 53zM658 113q0 37 -18.5 60.5t-53.5 23.5t-54 -23.5t-19 -60.5q0 -38 18.5 -62t54.5 -24t54 24t18 62zM503 701l-250 -701h-49l251 701h48z" />
<glyph unicode="&#x215d;" horiz-adv-x="734" d="M19 0zM586 -7q-55 0 -84.5 31.5t-29.5 86.5q0 42 17.5 69t46.5 37q-23 11 -37.5 35t-14.5 58q0 51 26.5 78.5t75.5 27.5t75.5 -27.5t26.5 -78.5q0 -34 -14.5 -58t-38.5 -35q29 -10 46.5 -37t17.5 -69q0 -55 -29 -86.5t-84 -31.5zM649 308q0 32 -16 52t-47 20 q-32 0 -47.5 -20t-15.5 -52t15.5 -53t47.5 -21q31 0 47 21t16 53zM658 113q0 37 -18.5 60.5t-53.5 23.5t-54 -23.5t-19 -60.5q0 -38 18.5 -62t54.5 -24t54 24t18 62zM84 665l-11 -143q16 15 35 21.5t39 6.5q45 0 74.5 -29.5t29.5 -96.5q0 -61 -29.5 -99.5t-88.5 -38.5 q-38 0 -68.5 18t-45.5 60l34 17q22 -59 79 -59q40 0 58.5 28.5t18.5 73.5q0 92 -75 92q-41 0 -72 -37l-28 12l15 211h186v-37h-151zM503 701l-250 -701h-49l251 701h48z" />
<glyph unicode="&#x215e;" horiz-adv-x="681" d="M18 0zM533 -7q-55 0 -84.5 31.5t-29.5 86.5q0 42 17.5 69t46.5 37q-23 11 -37.5 35t-14.5 58q0 51 26.5 78.5t75.5 27.5t75.5 -27.5t26.5 -78.5q0 -34 -14.5 -58t-38.5 -35q29 -10 46.5 -37t17.5 -69q0 -55 -29 -86.5t-84 -31.5zM596 308q0 32 -16 52t-47 20 q-32 0 -47.5 -20t-15.5 -52t15.5 -53t47.5 -21q31 0 47 21t16 53zM605 113q0 37 -18.5 60.5t-53.5 23.5t-54 -23.5t-19 -60.5q0 -38 18.5 -62t54.5 -24t54 24t18 62zM116 293h-45q0 55 8.5 109t23.5 103t36 90t46 69l-167 -1v39h211v-35q-52 -52 -82 -150t-31 -224zM450 701 l-250 -701h-49l251 701h48z" />
<glyph unicode="&#x215f;" horiz-adv-x="625" d="M10 0zM110 293h-42v349l-41 -38l-17 35l72 64h28v-410zM406 701l-250 -701h-49l251 701h48z" />
<glyph unicode="&#x2212;" horiz-adv-x="375" d="M336 330v-44h-296v44h296z" />
<glyph unicode="&#x2248;" horiz-adv-x="376" d="M255 373q18 0 41 7t41 24v-47q-16 -14 -40.5 -21.5t-44.5 -7.5t-35.5 6t-30.5 13.5t-30 13.5t-34 6t-41.5 -6.5t-40.5 -23.5v47q16 14 39 21t43 7q21 0 37.5 -6t31.5 -13.5t30.5 -13.5t33.5 -6zM255 245q18 0 41 6.5t41 23.5v-47q-16 -14 -40.5 -21t-44.5 -7t-35.5 6 t-30.5 13.5t-30 13.5t-34 6t-41.5 -7t-40.5 -24v47q16 14 39 21t43 7q21 0 37.5 -6t31.5 -13t30.5 -13t33.5 -6z" />
<glyph unicode="&#x2260;" horiz-adv-x="375" d="M40 349v45h176l64 108h40l-64 -108h80v-45h-105l-46 -79h151v-45h-176l-62 -105h-42l63 105h-79v45h104l46 79h-150z" />
<glyph unicode="&#x2264;" horiz-adv-x="417" d="M308 507l25 -37l-186 -145l186 -146l-25 -40l-222 171v27zM78 0v45h261v-45h-261z" />
<glyph unicode="&#x2265;" horiz-adv-x="417" d="M111 140l-25 37l186 147l-186 145l26 39l221 -170v-26zM339 45v-45h-261v45h261z" />
<glyph unicode="&#x25fc;" horiz-adv-x="480" d="M0 480h480v-480h-480v480z" />
<glyph unicode="&#xf6c3;" horiz-adv-x="452" d="M261 -122q0 -45 -17 -79.5t-48 -50.5l-17 22q21 13 35 36t15 51q-17 -5 -30 5t-13 31q0 19 10 28.5t27 9.5q38 0 38 -53z" />
<glyph horiz-adv-x="319" d="M187 -65v831h47v-831h-47zM85 -65v831h47v-831h-47z" />
<glyph horiz-adv-x="165" d="M104 527q-33 17 -50 53.5t-17 81.5q0 31 10 44t30 13q16 0 26.5 -11t10.5 -31q0 -23 -13 -33t-30 -5q1 -26 14 -50t36 -38z" />
<glyph horiz-adv-x="276" d="M104 527q-33 17 -50 53.5t-17 81.5q0 31 10 44t30 13q16 0 26.5 -11t10.5 -31q0 -23 -13 -33t-30 -5q1 -26 14 -50t36 -38zM216 527q-33 17 -50 53.5t-17 81.5q0 31 10 44t30 13q16 0 26.5 -11t10.5 -31q0 -23 -13 -33t-30 -5q1 -26 14 -50t36 -38z" />
<glyph horiz-adv-x="459" d="M47 0zM334 243q0 106 -33.5 155.5t-85.5 49.5q-59 0 -87.5 -52t-28.5 -155q0 -208 115 -208q53 0 86.5 50.5t33.5 159.5zM200 -11q-75 0 -114 65t-39 187t41 187t118 65q46 0 80.5 -27t51.5 -82l4 98h44v-482h-44l-5 103q-17 -58 -52.5 -86t-84.5 -28zM356 -204 q-17 0 -32.5 4.5t-27.5 15.5t-19 29.5t-7 46.5q0 31 10.5 56t26.5 42t35.5 26t38.5 9l2 -25q-33 -5 -54.5 -34t-21.5 -69q0 -35 16 -48t36 -13q27 0 47 17l17 -33q-30 -24 -67 -24z" />
<glyph horiz-adv-x="458" d="M334 243q0 106 -33.5 155.5t-85.5 49.5q-59 0 -87.5 -52t-28.5 -155q0 -208 115 -208q53 0 86.5 50.5t33.5 159.5zM200 -11q-75 0 -114 65t-39 187t41 187t118 65q46 0 80.5 -27t51.5 -82l4 98h44v-482h-44l-5 103q-17 -58 -52.5 -86t-84.5 -28z" />
<glyph horiz-adv-x="458" d="M47 0zM334 243q0 106 -33.5 155.5t-85.5 49.5q-59 0 -87.5 -52t-28.5 -155q0 -208 115 -208q53 0 86.5 50.5t33.5 159.5zM200 -11q-75 0 -114 65t-39 187t41 187t118 65q46 0 80.5 -27t51.5 -82l4 98h44v-482h-44l-5 103q-17 -58 -52.5 -86t-84.5 -28zM197 569l-82 106v5 h65l60 -108v-3h-43z" />
<glyph horiz-adv-x="458" d="M47 0zM334 243q0 106 -33.5 155.5t-85.5 49.5q-59 0 -87.5 -52t-28.5 -155q0 -208 115 -208q53 0 86.5 50.5t33.5 159.5zM200 -11q-75 0 -114 65t-39 187t41 187t118 65q46 0 80.5 -27t51.5 -82l4 98h44v-482h-44l-5 103q-17 -58 -52.5 -86t-84.5 -28zM308 674l-81 -106 h-43v3l60 108h64v-5z" />
<glyph horiz-adv-x="458" d="M47 0zM212 647l-60 -79h-52v2l90 109h46l90 -109v-2h-53zM334 243q0 106 -33.5 155.5t-85.5 49.5q-59 0 -87.5 -52t-28.5 -155q0 -208 115 -208q53 0 86.5 50.5t33.5 159.5zM200 -11q-75 0 -114 65t-39 187t41 187t118 65q46 0 80.5 -27t51.5 -82l4 98h44v-482h-44 l-5 103q-17 -58 -52.5 -86t-84.5 -28z" />
<glyph horiz-adv-x="458" d="M47 0zM234 622q0 42 37 42q38 0 38 -42q0 -41 -38 -41q-37 0 -37 41zM112 622q0 20 10 31t27 11q38 0 38 -42q0 -41 -38 -41q-17 0 -27 10.5t-10 30.5zM334 243q0 106 -33.5 155.5t-85.5 49.5q-59 0 -87.5 -52t-28.5 -155q0 -208 115 -208q53 0 86.5 50.5t33.5 159.5z M200 -11q-75 0 -114 65t-39 187t41 187t118 65q46 0 80.5 -27t51.5 -82l4 98h44v-482h-44l-5 103q-17 -58 -52.5 -86t-84.5 -28z" />
<glyph horiz-adv-x="458" d="M47 0zM334 243q0 106 -33.5 155.5t-85.5 49.5q-59 0 -87.5 -52t-28.5 -155q0 -208 115 -208q53 0 86.5 50.5t33.5 159.5zM200 -11q-75 0 -114 65t-39 187t41 187t118 65q46 0 80.5 -27t51.5 -82l4 98h44v-482h-44l-5 103q-17 -58 -52.5 -86t-84.5 -28zM284 668h36 q1 -26 -4 -42.5t-14 -26t-20 -13.5t-21 -4q-16 0 -28 7.5t-23 17t-21.5 17t-22.5 7.5q-25 0 -25 -45h-37q0 25 5 41.5t13 26.5t18.5 13.5t21.5 3.5q16 0 29 -7.5t24 -16t21.5 -16t22.5 -7.5q24 0 25 44z" />
<glyph horiz-adv-x="458" d="M47 0zM334 243q0 106 -33.5 155.5t-85.5 49.5q-59 0 -87.5 -52t-28.5 -155q0 -208 115 -208q53 0 86.5 50.5t33.5 159.5zM200 -11q-75 0 -114 65t-39 187t41 187t118 65q46 0 80.5 -27t51.5 -82l4 98h44v-482h-44l-5 103q-17 -58 -52.5 -86t-84.5 -28zM136 635 q0 39 22 62.5t55 23.5q32 0 53.5 -23.5t21.5 -62.5q0 -38 -21.5 -61.5t-54.5 -23.5q-32 0 -54 23.5t-22 61.5zM167 635q0 -25 12.5 -41t32.5 -16t33 16t13 41q0 26 -13 41.5t-32 15.5q-20 0 -33 -15.5t-13 -41.5z" />
<glyph horiz-adv-x="458" d="M47 0zM334 243q0 106 -33.5 155.5t-85.5 49.5q-59 0 -87.5 -52t-28.5 -155q0 -208 115 -208q53 0 86.5 50.5t33.5 159.5zM200 -11q-75 0 -114 65t-39 187t41 187t118 65q46 0 80.5 -27t51.5 -82l4 98h44v-482h-44l-5 103q-17 -58 -52.5 -86t-84.5 -28zM305 641v-39h-183 v39h183z" />
<glyph horiz-adv-x="458" d="M47 0zM334 243q0 106 -33.5 155.5t-85.5 49.5q-59 0 -87.5 -52t-28.5 -155q0 -208 115 -208q53 0 86.5 50.5t33.5 159.5zM200 -11q-75 0 -114 65t-39 187t41 187t118 65q46 0 80.5 -27t51.5 -82l4 98h44v-482h-44l-5 103q-17 -58 -52.5 -86t-84.5 -28zM276 678h37 q0 -64 -26.5 -88t-74.5 -24t-74.5 24t-26.5 88h37q0 -43 16 -59.5t47 -16.5q32 0 48.5 16.5t16.5 59.5z" />
<glyph horiz-adv-x="457" d="M208 -209q-62 0 -102 28t-63 88l45 22q17 -51 46.5 -72.5t70.5 -21.5q60 0 93.5 40t33.5 129v98q-18 -54 -53.5 -79t-80.5 -25q-66 0 -98 47t-32 139v298h52v-291q0 -80 24 -114.5t68 -34.5q56 0 86 49.5t34 137.5v253h52v-480q0 -55 -12.5 -94.5t-36 -65.5t-56 -38.5 t-71.5 -12.5z" />
<glyph horiz-adv-x="458" d="M43 0zM208 -209q-62 0 -102 28t-63 88l45 22q17 -51 46.5 -72.5t70.5 -21.5q60 0 93.5 40t33.5 129v98q-18 -54 -53.5 -79t-80.5 -25q-66 0 -98 47t-32 139v298h52v-291q0 -80 24 -114.5t68 -34.5q56 0 86 49.5t34 137.5v253h52v-480q0 -55 -12.5 -94.5t-36 -65.5 t-56 -38.5t-71.5 -12.5zM309 674l-81 -106h-43v3l60 108h64v-5z" />
<glyph horiz-adv-x="458" d="M43 0zM230 647l-60 -79h-52v2l90 109h46l90 -109v-2h-53zM208 -209q-62 0 -102 28t-63 88l45 22q17 -51 46.5 -72.5t70.5 -21.5q60 0 93.5 40t33.5 129v98q-18 -54 -53.5 -79t-80.5 -25q-66 0 -98 47t-32 139v298h52v-291q0 -80 24 -114.5t68 -34.5q56 0 86 49.5 t34 137.5v253h52v-480q0 -55 -12.5 -94.5t-36 -65.5t-56 -38.5t-71.5 -12.5z" />
<glyph horiz-adv-x="458" d="M43 0zM254 622q0 42 37 42q38 0 38 -42q0 -41 -38 -41q-37 0 -37 41zM132 622q0 20 10 31t27 11q38 0 38 -42q0 -41 -38 -41q-17 0 -27 10.5t-10 30.5zM208 -209q-62 0 -102 28t-63 88l45 22q17 -51 46.5 -72.5t70.5 -21.5q60 0 93.5 40t33.5 129v98q-18 -54 -53.5 -79 t-80.5 -25q-66 0 -98 47t-32 139v298h52v-291q0 -80 24 -114.5t68 -34.5q56 0 86 49.5t34 137.5v253h52v-480q0 -55 -12.5 -94.5t-36 -65.5t-56 -38.5t-71.5 -12.5z" />
<glyph horiz-adv-x="297" d="M156 355q-58 0 -89.5 42t-31.5 136q0 92 32 135t92 43q79 0 106 -74l-32 -20q-22 59 -74 59q-43 0 -63.5 -33t-20.5 -111q0 -76 20.5 -109t62.5 -33q29 0 47.5 14.5t29.5 49.5l32 -16q-28 -83 -111 -83z" />
<glyph horiz-adv-x="330" d="M237 535q0 73 -23 107t-58 34q-41 0 -61 -36.5t-20 -107.5q0 -142 81 -142q35 0 58 35t23 110zM241 363l-3 72q-11 -41 -36 -60.5t-58 -19.5q-52 0 -80.5 45t-28.5 132q0 88 30 133.5t84 45.5q32 0 55.5 -19t34.5 -58l4 68h33v-339h-35z" />
<glyph horiz-adv-x="452" d="M232 501h-37l5 199h50z" />
<glyph horiz-adv-x="171" d="M54 0l9 520h40l8 -520h-57zM83 706q17 0 27.5 -11t10.5 -31t-10.5 -31t-27.5 -11q-38 0 -38 42q0 20 10 31t28 11z" />
<glyph horiz-adv-x="376" d="M204 523l2 -142h-22q-66 0 -101.5 -46t-35.5 -129q0 -81 36 -124t100 -43q48 0 84.5 27t55.5 94l43 -18q-11 -42 -30 -70.5t-43 -46.5t-53 -25.5t-60 -7.5q-88 0 -136 56.5t-48 155.5q0 96 42 151.5t118 62.5l3 105h45zM182 709q17 0 27.5 -11t10.5 -31t-10.5 -31 t-27.5 -11q-38 0 -38 42q0 20 10 31t28 11z" />
<glyph horiz-adv-x="284" d="M246 273v-46h-206v46h206z" />
<glyph horiz-adv-x="522" d="M484 273v-46h-444v46h444z" />
<glyph horiz-adv-x="549" d="M297 285v44h200v-40q0 -83 -15 -140t-42.5 -92.5t-65.5 -51.5t-84 -16q-56 0 -99 20.5t-72.5 64.5t-44.5 112t-15 164q0 99 15 167.5t44.5 111.5t73 62.5t99.5 19.5q35 0 65.5 -8t55.5 -26.5t44.5 -49t31.5 -76.5l-47 -21q-11 39 -26.5 64.5t-34.5 41t-41.5 21.5t-48.5 6 q-41 0 -74 -15t-56 -51t-35 -96t-12 -151q0 -89 12 -149.5t35 -97.5t56 -53t74 -16q35 0 64 13t49.5 43t31 78t9.5 117h-147z" />
<glyph horiz-adv-x="481" d="M86 0v700h55v-700h-55zM407 0l-250 342v4l240 354h60l-242 -350l258 -350h-66z" />
<glyph horiz-adv-x="393" d="M73 0v700h52v-700h-52zM316 0l-180 234v5l174 243h58l-175 -240l186 -242h-63z" />
<glyph horiz-adv-x="615" d="M51 11zM314 11q-61 0 -110 23.5t-83 67.5t-52 106.5t-18 140.5t18 140.5t52 106.5t83 67.5t110 23.5q60 0 106.5 -21.5t78.5 -61.5t48.5 -96.5t16.5 -126.5q0 -86 -30 -136.5t-86 -50.5q-29 0 -47 17.5t-22 55.5q-13 -42 -38.5 -62.5t-60.5 -20.5q-38 0 -62 24.5 t-24 67.5q0 51 33.5 81t92.5 30h53q0 31 -5 51.5t-14.5 33t-22.5 17.5t-29 5q-28 0 -45.5 -13.5t-28.5 -40.5l-30 18q11 30 36.5 49t69.5 19q54 0 79.5 -32.5t25.5 -102.5v-94q0 -76 47 -76q37 0 58 42t21 117q0 135 -60 208t-161 73q-53 0 -96 -21t-73.5 -61t-47.5 -98 t-17 -132q0 -75 17.5 -133t48.5 -98t74 -61t95 -21q117 0 179 88l20 -16q-68 -97 -200 -97zM287 216q40 0 62 35t24 95v11h-49q-45 0 -70 -21t-25 -58q0 -29 16 -45.5t42 -16.5z" />
<glyph horiz-adv-x="527" d="M58 350q0 97 13 165.5t38.5 112t64 63.5t89.5 20t89.5 -20t64 -63.5t38.5 -112t13 -165.5t-13 -165.5t-38.5 -112t-64 -63.5t-89.5 -20t-89.5 20.5t-64 64t-38.5 112t-13 164.5zM415 350q0 89 -10.5 149.5t-30 97t-47.5 52.5t-64 16t-64 -16t-47.5 -53t-29.5 -97.5 t-10 -148.5q0 -89 10 -149.5t29.5 -97.5t47.5 -53t64 -16t64 16t47.5 53t30 97.5t10.5 149.5z" />
<glyph horiz-adv-x="247" d="M161 0h-54v623l-71 -70l-25 41l114 106h36v-700z" />
<glyph horiz-adv-x="425" d="M31 0v44l203 297q43 63 63.5 112t20.5 91q0 60 -29 90.5t-81 30.5q-51 0 -88 -28t-60 -97l-42 19q28 85 77.5 118.5t115.5 33.5q79 0 120 -43t41 -116q0 -49 -21 -102.5t-72 -129.5l-189 -275l309 2v-47h-368z" />
<glyph horiz-adv-x="449" d="M212 33q68 0 102.5 43.5t34.5 119.5q0 65 -30.5 106t-95.5 41h-61v48h59q47 0 79.5 37.5t32.5 104.5q0 63 -30.5 97.5t-89.5 34.5q-105 0 -136 -116l-44 20q43 142 186 142q85 0 126 -46.5t41 -124.5q0 -60 -23.5 -104t-67.5 -67q51 -14 79 -59t28 -114q0 -46 -11.5 -84 t-35 -65.5t-59 -42.5t-83.5 -15q-69 0 -116.5 32.5t-69.5 104.5l45 21q17 -62 54 -88t86 -26z" />
<glyph horiz-adv-x="480" d="M31 191v39l180 470h52l-178 -462h240v342h52v-342h83v-47h-83v-191h-52v191h-294z" />
<glyph horiz-adv-x="454" d="M213 -11q-67 0 -116.5 31.5t-72.5 106.5l45 20q17 -62 54.5 -88t88.5 -26q37 0 64 14.5t44.5 39.5t26 59.5t8.5 75.5q0 170 -139 170q-41 0 -73 -17.5t-60 -49.5l-35 15l26 360h303v-47h-258l-18 -267q26 28 60 40t69 12q39 0 71.5 -12t56 -38t36.5 -66.5t13 -97.5 q0 -51 -12 -94.5t-36 -74.5t-60.5 -48.5t-85.5 -17.5z" />
<glyph horiz-adv-x="494" d="M267 -11q-47 0 -85.5 19.5t-66 62t-42.5 110t-15 164.5t14.5 166t42 113.5t66.5 65.5t88 21q63 0 104.5 -28.5t64.5 -94.5l-42 -24q-20 56 -49.5 79t-74.5 23q-36 0 -65.5 -16.5t-50.5 -54.5t-33 -100.5t-12 -154.5q0 -13 0.5 -32t2.5 -37q8 75 50 120.5t111 45.5 q76 0 124 -55.5t48 -163.5q0 -52 -11.5 -94.5t-34 -72.5t-56.5 -46t-78 -16zM264 34q59 0 94.5 44.5t35.5 135.5q0 85 -33.5 131.5t-95.5 46.5t-99.5 -50t-37.5 -135q0 -33 8.5 -64.5t25.5 -55.5t42.5 -38.5t59.5 -14.5z" />
<glyph horiz-adv-x="380" d="M117 0q-1 95 13 190.5t39.5 182t61.5 159t81 122.5l-288 -1v47h350v-48q-46 -41 -83.5 -107t-63.5 -150.5t-40.5 -184.5t-14.5 -210h-55z" />
<glyph horiz-adv-x="488" d="M244 -11q-88 0 -137.5 54.5t-49.5 146.5q0 72 32 119.5t80 63.5q-42 18 -67.5 59t-25.5 101q0 84 45 131t123 47t123.5 -47t45.5 -131q0 -60 -26.5 -100.5t-68.5 -59.5q49 -16 81.5 -63.5t32.5 -119.5q0 -92 -50 -146.5t-138 -54.5zM362 531q0 59 -30 96.5t-87 37.5 t-87.5 -37.5t-30.5 -96.5q0 -60 30.5 -98t86.5 -38t87 38t31 98zM244 34q66 0 100.5 43.5t34.5 115.5q0 68 -35.5 111.5t-99.5 43.5q-32 0 -57 -11.5t-42 -32.5t-26.5 -49.5t-9.5 -61.5q0 -72 35 -115.5t100 -43.5z" />
<glyph horiz-adv-x="492" d="M228 666q-59 0 -94.5 -45t-35.5 -136q0 -85 34 -132t95 -47q62 0 99 50t37 136q0 34 -8.5 65.5t-25.5 55.5t-42.5 38.5t-58.5 14.5zM227 711q47 0 85.5 -19.5t65.5 -62t42 -110.5t15 -164t-14.5 -165.5t-42 -114t-66.5 -65.5t-88 -21q-63 0 -104.5 28t-64.5 95l42 24 q20 -56 50 -79t74 -23q36 0 65.5 16.5t50.5 55t33 100.5t12 154q0 13 -0.5 32t-2.5 37q-8 -77 -50 -123t-110 -46q-79 0 -126 56t-47 165q0 52 11.5 94.5t34.5 72.5t57 46.5t78 16.5z" />
<glyph d="M267 611q45 0 80.5 -17t59.5 -54.5t36.5 -96.5t12.5 -143q0 -83 -12.5 -142t-37 -96.5t-59.5 -55t-80 -17.5t-80 17t-58.5 54.5t-36 96.5t-12.5 143t12.5 143t36 96.5t58.5 54.5t80 17zM267 566q-32 0 -57.5 -13.5t-43 -44.5t-26.5 -82t-9 -126t9 -126t26.5 -82t43 -44.5 t57.5 -13.5q33 0 58.5 13.5t43 44.5t26.5 82t9 126t-9 126t-26.5 82t-43 44.5t-58.5 13.5z" />
<glyph d="M448 0h-362v46h155v477l-68 -69l-24 40l110 106h34v-554h155v-46z" />
<glyph d="M97 0v39l180 241q25 34 44 61t31 49t18 41t6 38q0 49 -27 72.5t-73 23.5q-42 0 -75 -24.5t-52 -84.5l-42 19q23 74 67.5 105t107.5 31q72 0 109 -37.5t37 -100.5q0 -23 -6.5 -45.5t-19.5 -48t-33.5 -55t-48.5 -66.5l-163 -213l291 1v-46h-351z" />
<glyph d="M265 -67q68 0 102.5 43.5t34.5 119.5q0 65 -30.5 106t-95.5 41h-61v48h59q47 0 79.5 37.5t32.5 104.5q0 63 -30.5 97.5t-89.5 34.5q-105 0 -136 -116l-44 20q43 142 186 142q85 0 126 -46.5t41 -124.5q0 -60 -23.5 -104t-67.5 -67q51 -14 79 -59t28 -114q0 -46 -11.5 -84 t-35 -65.5t-59 -42.5t-83.5 -15q-69 0 -116.5 32.5t-69.5 104.5l45 21q17 -62 54 -88t86 -26z" />
<glyph d="M53 91v39l180 470h52l-178 -462h240v342h52v-342h83v-47h-83v-191h-52v191h-294z" />
<glyph d="M265 -111q-67 0 -116.5 31.5t-72.5 106.5l45 20q17 -62 54.5 -88t88.5 -26q37 0 64 14.5t44.5 39.5t26 59.5t8.5 75.5q0 170 -139 170q-41 0 -73 -17.5t-60 -49.5l-35 15l26 360h303v-47h-258l-18 -267q26 28 60 40t69 12q39 0 71.5 -12t56 -38t36.5 -66.5t13 -97.5 q0 -51 -12 -94.5t-36 -74.5t-60.5 -48.5t-85.5 -17.5z" />
<glyph d="M282 -11q-47 0 -85.5 19.5t-66 62t-42.5 110t-15 164.5t14.5 166t42 113.5t66.5 65.5t88 21q63 0 104.5 -28.5t64.5 -94.5l-42 -24q-20 56 -49.5 79t-74.5 23q-36 0 -65.5 -16.5t-50.5 -54.5t-33 -100.5t-12 -154.5q0 -13 0.5 -32t2.5 -37q8 75 50 120.5t111 45.5 q76 0 124 -55.5t48 -163.5q0 -52 -11.5 -94.5t-34 -72.5t-56.5 -46t-78 -16zM279 34q59 0 94.5 44.5t35.5 135.5q0 85 -33.5 131.5t-95.5 46.5t-99.5 -50t-37.5 -135q0 -33 8.5 -64.5t25.5 -55.5t42.5 -38.5t59.5 -14.5z" />
<glyph d="M186 -100q-1 95 13 190.5t39.5 182t61.5 159t81 122.5l-288 -1v47h350v-48q-46 -41 -83.5 -107t-63.5 -150.5t-40.5 -184.5t-14.5 -210h-55z" />
<glyph d="M267 -11q-88 0 -137.5 54.5t-49.5 146.5q0 72 32 119.5t80 63.5q-42 18 -67.5 59t-25.5 101q0 84 45 131t123 47t123.5 -47t45.5 -131q0 -60 -26.5 -100.5t-68.5 -59.5q49 -16 81.5 -63.5t32.5 -119.5q0 -92 -50 -146.5t-138 -54.5zM385 531q0 59 -30 96.5t-87 37.5 t-87.5 -37.5t-30.5 -96.5q0 -60 30.5 -98t86.5 -38t87 38t31 98zM267 34q66 0 100.5 43.5t34.5 115.5q0 68 -35.5 111.5t-99.5 43.5q-32 0 -57 -11.5t-42 -32.5t-26.5 -49.5t-9.5 -61.5q0 -72 35 -115.5t100 -43.5z" />
<glyph d="M255 566q-59 0 -94.5 -45t-35.5 -136q0 -85 34 -132t95 -47q62 0 99 50t37 136q0 34 -8.5 65.5t-25.5 55.5t-42.5 38.5t-58.5 14.5zM254 611q47 0 85.5 -19.5t65.5 -62t42 -110.5t15 -164t-14.5 -165.5t-42 -114t-66.5 -65.5t-88 -21q-63 0 -104.5 28t-64.5 95l42 24 q20 -56 50 -79t74 -23q36 0 65.5 16.5t50.5 55t33 100.5t12 154q0 13 -0.5 32t-2.5 37q-8 -77 -50 -123t-110 -46q-79 0 -126 56t-47 165q0 52 11.5 94.5t34.5 72.5t57 46.5t78 16.5z" />
<glyph horiz-adv-x="472" d="M235 611q45 0 80.5 -17t59.5 -54.5t36.5 -96.5t12.5 -143q0 -83 -12.5 -142t-37 -96.5t-59.5 -55t-80 -17.5t-80 17t-58.5 54.5t-36 96.5t-12.5 143t12.5 143t36 96.5t58.5 54.5t80 17zM235 566q-32 0 -57.5 -13.5t-43 -44.5t-26.5 -82t-9 -126t9 -126t26.5 -82t43 -44.5 t57.5 -13.5q33 0 58.5 13.5t43 44.5t26.5 82t9 126t-9 126t-26.5 82t-43 44.5t-58.5 13.5z" />
<glyph horiz-adv-x="227" d="M155 0h-52v523l-68 -69l-24 40l110 106h34v-600z" />
<glyph horiz-adv-x="406" d="M35 0v39l175 241q24 34 42 60.5t29.5 48.5t17 41t5.5 38q0 50 -25.5 73.5t-69.5 23.5q-41 0 -72 -24.5t-50 -84.5l-42 19q23 74 66 105t104 31q69 0 105 -37.5t36 -100.5q0 -23 -6 -45.5t-18.5 -48t-32 -55.5t-46.5 -66l-158 -213l281 1v-46h-341z" />
<glyph horiz-adv-x="431" d="M200 -68q67 0 100.5 44t33.5 119q0 65 -30 106.5t-95 41.5h-56v48h55q47 0 79.5 37t32.5 105q0 64 -30 98.5t-88 34.5q-98 0 -131 -116l-44 19q20 68 63 105t116 37q81 0 123 -46.5t42 -127.5q0 -60 -23 -102.5t-67 -65.5q50 -14 78 -58t28 -115q0 -46 -11.5 -84 t-34.5 -65.5t-58 -42.5t-82 -15q-63 0 -110 31.5t-70 106.5l45 20q17 -61 51 -88t83 -27z" />
<glyph horiz-adv-x="462" d="M34 91v37l170 472h51l-169 -464h226v344h52v-344h77v-45h-77v-191h-52v191h-278z" />
<glyph horiz-adv-x="435" d="M205 -111q-68 0 -115 32.5t-69 104.5l45 21q17 -62 53.5 -88.5t85.5 -26.5q35 0 61 14.5t43 40t25 60t8 75.5q0 86 -33 128t-96 42q-43 0 -73 -18.5t-54 -48.5l-36 15l26 360h292v-47h-247l-19 -266q23 25 54 38t73 13q35 0 65 -12t52.5 -38t35 -66.5t12.5 -97.5 q0 -51 -12 -94.5t-35.5 -74.5t-59 -48.5t-82.5 -17.5z" />
<glyph horiz-adv-x="459" d="M246 -11q-45 0 -81.5 20t-62.5 63.5t-40 110.5t-14 162q0 97 14 166t40 113.5t64 65.5t86 21q60 0 99.5 -30t61.5 -94l-42 -23q-20 55 -48.5 78.5t-72.5 23.5q-33 0 -60.5 -16.5t-47.5 -54.5t-31 -100.5t-11 -154.5q0 -12 0.5 -28.5t2.5 -32.5q6 70 46.5 114t104.5 44 q76 0 121 -56t45 -163q0 -52 -11 -94t-33 -72t-54.5 -46.5t-75.5 -16.5zM246 34q55 0 88.5 44.5t33.5 135.5q0 84 -31 131t-92 47q-58 0 -93.5 -50t-35.5 -135q0 -33 8.5 -64.5t25 -55.5t40.5 -38.5t56 -14.5z" />
<glyph horiz-adv-x="362" d="M110 -100q-1 86 10 177t34.5 177.5t58.5 163.5t82 136l-273 -1v47h333v-48q-42 -38 -77.5 -102.5t-61 -149.5t-40 -186.5t-13.5 -213.5h-53z" />
<glyph horiz-adv-x="450" d="M225 -11q-42 0 -75.5 14.5t-56.5 40.5t-35.5 63.5t-12.5 82.5q0 72 31 119.5t78 63.5q-39 19 -64 60t-25 101q0 82 42.5 129.5t117.5 47.5t118 -47.5t43 -129.5q0 -60 -26 -101t-64 -60q48 -16 78.5 -63.5t30.5 -119.5q0 -91 -47.5 -146t-132.5 -55zM336 532 q0 61 -28.5 97.5t-82.5 36.5t-82 -36.5t-28 -97.5t28.5 -99t81.5 -38t82 38t29 99zM225 34q62 0 95 43.5t33 114.5q0 34 -9 62.5t-25.5 49.5t-40 32.5t-53.5 11.5t-54 -11.5t-40.5 -32.5t-25 -49.5t-8.5 -62.5q0 -71 33 -114.5t95 -43.5z" />
<glyph horiz-adv-x="459" d="M213 566q-57 0 -89.5 -45t-32.5 -136q0 -84 31.5 -130.5t90.5 -46.5t94 49.5t35 134.5q0 34 -8.5 65.5t-25 55.5t-40.5 38.5t-55 14.5zM213 610q46 0 82.5 -20t62 -63t39.5 -110.5t14 -161.5q0 -97 -14 -166t-40 -113.5t-64 -65.5t-86 -21q-120 0 -163 123l43 23 q20 -55 48.5 -78.5t72.5 -23.5q33 0 61 16.5t48 55t31 101t11 154.5q0 12 -0.5 28t-2.5 33q-6 -70 -46.5 -114t-104.5 -44q-36 0 -66 14t-52.5 41.5t-35 68t-12.5 94.5q0 52 11.5 94.5t33.5 72.5t54.5 46t74.5 16z" />
<glyph horiz-adv-x="319" d="M34 0zM34 4q0 113 31 162.5t95 49.5q62 0 92.5 -49.5t30.5 -162.5t-30 -162t-93 -49q-64 0 -95 49.5t-31 161.5zM241 4q0 49 -5.5 82.5t-16 54t-25.5 29.5t-34 9q-20 0 -35.5 -9t-26 -29.5t-16 -53.5t-5.5 -82q0 -50 5.5 -83.5t16 -54t26 -29.5t35.5 -9q19 0 34 9 t25.5 29t16 53.5t5.5 83.5z" />
<glyph horiz-adv-x="162" d="M10 0zM110 -200h-42v349l-41 -38l-17 35l72 64h28v-410z" />
<glyph horiz-adv-x="264" d="M16 0zM22 -200v33l120 169q26 38 36 63.5t10 45.5q0 67 -60 67q-29 0 -47.5 -16t-31.5 -50l-33 15q32 89 115 89q49 0 74.5 -26.5t25.5 -72.5q0 -29 -13 -60.5t-45 -76.5l-101 -143l173 1v-38h-223z" />
<glyph horiz-adv-x="277" d="M19 0zM131 -207q-41 0 -69 18.5t-43 60.5l34 16q11 -32 30.5 -45.5t45.5 -13.5q38 0 56.5 23t18.5 64q0 35 -16 57t-51 22h-38v36h37q26 0 42.5 20t16.5 56q0 35 -17 53.5t-49 18.5q-28 0 -44.5 -15t-27.5 -45l-34 14q28 83 111 83q53 0 78 -28t25 -74q0 -71 -50 -99 q31 -11 44.5 -38.5t13.5 -62.5q0 -54 -28.5 -87.5t-85.5 -33.5z" />
<glyph horiz-adv-x="295" d="M21 0zM21 -94v32l102 271h42l-101 -265h129v184h41v-184h46v-38h-46v-106h-41v106h-172z" />
<glyph horiz-adv-x="276" d="M19 0zM84 172l-11 -143q16 15 35 21.5t39 6.5q45 0 74.5 -29.5t29.5 -96.5q0 -61 -29.5 -99.5t-88.5 -38.5q-38 0 -68.5 18t-45.5 60l34 17q22 -59 79 -59q40 0 58.5 28.5t18.5 73.5q0 92 -75 92q-41 0 -72 -37l-28 12l15 211h186v-37h-151z" />
<glyph horiz-adv-x="299" d="M34 0zM161 -207q-58 0 -92.5 48.5t-34.5 160.5q0 111 33.5 162.5t95.5 51.5q37 0 62 -16.5t39 -52.5l-31 -17q-11 27 -28 38.5t-40 11.5q-20 0 -36.5 -9t-28 -30t-18 -55.5t-6.5 -85.5q0 -6 0.5 -15.5t1.5 -17.5q5 42 29.5 65.5t62.5 23.5q45 0 72.5 -32.5t27.5 -95.5 q0 -62 -27 -98.5t-82 -36.5zM87 -78q0 -36 18 -65t54 -29q32 0 51 24.5t19 73.5q0 45 -18 70t-51 25t-53 -26.5t-20 -72.5z" />
<glyph horiz-adv-x="236" d="M18 0zM116 -200h-45q0 55 8.5 109t23.5 103t36 90t46 69l-167 -1v39h211v-35q-52 -52 -82 -150t-31 -224z" />
<glyph horiz-adv-x="296" d="M34 0zM148 -207q-55 0 -84.5 31.5t-29.5 86.5q0 42 17.5 69t46.5 37q-23 11 -37.5 35t-14.5 58q0 51 26.5 78.5t75.5 27.5t75.5 -27.5t26.5 -78.5q0 -34 -14.5 -58t-38.5 -35q29 -10 46.5 -37t17.5 -69q0 -55 -29 -86.5t-84 -31.5zM211 108q0 32 -16 52t-47 20 q-32 0 -47.5 -20t-15.5 -52t15.5 -53t47.5 -21q31 0 47 21t16 53zM220 -87q0 37 -18.5 60.5t-53.5 23.5t-54 -23.5t-19 -60.5q0 -38 18.5 -62t54.5 -24t54 24t18 62z" />
<glyph horiz-adv-x="297" d="M27 0zM209 86q0 36 -18.5 65t-53.5 29q-32 0 -51 -24.5t-19 -73.5q0 -45 18 -70.5t52 -25.5q32 0 52 26.5t20 73.5zM135 216q59 0 93 -49t34 -160q0 -112 -33 -163t-96 -51q-35 0 -61 15t-40 50l30 21q11 -27 28.5 -39t40.5 -12q20 0 36.5 9.5t28 30.5t18 55.5t6.5 84.5 q0 6 -0.5 15.5t-1.5 17.5q-5 -42 -29 -66t-62 -24q-45 0 -72.5 33t-27.5 96q0 62 27 99t81 37z" />
<glyph horiz-adv-x="236" d="M30 0zM136 -136h-34v99h-72v32h72v103h34v-103h71v-32h-71v-99z" />
<glyph horiz-adv-x="236" d="M30 -4zM207 -4v-35h-177v35h177z" />
<glyph horiz-adv-x="236" d="M30 0zM207 36v-36h-177v36h177zM207 -40v-36h-177v36h177z" />
<glyph horiz-adv-x="163" d="M26 0zM139 -218l-11 -35q-102 21 -102 236q0 217 102 238l11 -35q-37 -11 -57 -58t-20 -145q0 -97 20 -143.5t57 -57.5z" />
<glyph horiz-adv-x="163" d="M24 0zM34 -253l-10 35q37 11 57 57.5t20 143.5q0 98 -20 145t-57 58l10 35q104 -21 104 -238q0 -215 -104 -236z" />
<glyph horiz-adv-x="198" d="M60 622q0 20 10.5 31t28.5 11t28.5 -11t10.5 -31t-10.5 -31t-28.5 -11t-28.5 11t-10.5 31zM73 482h52v-482h-52v482z" />
<glyph horiz-adv-x="393" d="M73 0zM249 -122q0 -45 -17 -79.5t-48 -50.5l-17 22q21 13 35 36t15 51q-17 -5 -30 5t-13 31q0 19 10 28.5t27 9.5q38 0 38 -53zM73 0v700h52v-700h-52zM316 0l-180 234v5l174 243h58l-175 -240l186 -242h-63z" />
<glyph horiz-adv-x="550" d="M59 0zM297 285v44h200v-40q0 -83 -15 -140t-42.5 -92.5t-65.5 -51.5t-84 -16q-56 0 -99 20.5t-72.5 64.5t-44.5 112t-15 164q0 99 15 167.5t44.5 111.5t73 62.5t99.5 19.5q35 0 65.5 -8t55.5 -26.5t44.5 -49t31.5 -76.5l-47 -21q-11 39 -26.5 64.5t-34.5 41t-41.5 21.5 t-48.5 6q-41 0 -74 -15t-56 -51t-35 -96t-12 -151q0 -89 12 -149.5t35 -97.5t56 -53t74 -16q35 0 64 13t49.5 43t31 78t9.5 117h-147zM353 896h37q0 -64 -26.5 -88t-74.5 -24t-74.5 24t-26.5 88h37q0 -43 16 -59.5t47 -16.5q32 0 48.5 16.5t16.5 59.5z" />
<glyph horiz-adv-x="550" d="M59 0zM297 285v44h200v-40q0 -83 -15 -140t-42.5 -92.5t-65.5 -51.5t-84 -16q-56 0 -99 20.5t-72.5 64.5t-44.5 112t-15 164q0 99 15 167.5t44.5 111.5t73 62.5t99.5 19.5q35 0 65.5 -8t55.5 -26.5t44.5 -49t31.5 -76.5l-47 -21q-11 39 -26.5 64.5t-34.5 41t-41.5 21.5 t-48.5 6q-41 0 -74 -15t-56 -51t-35 -96t-12 -151q0 -89 12 -149.5t35 -97.5t56 -53t74 -16q35 0 64 13t49.5 43t31 78t9.5 117h-147zM288 865l-60 -79h-52v2l90 109h46l90 -109v-2h-53z" />
<glyph horiz-adv-x="549" d="M59 0zM297 285v44h200v-40q0 -83 -15 -140t-42.5 -92.5t-65.5 -51.5t-84 -16q-56 0 -99 20.5t-72.5 64.5t-44.5 112t-15 164q0 99 15 167.5t44.5 111.5t73 62.5t99.5 19.5q35 0 65.5 -8t55.5 -26.5t44.5 -49t31.5 -76.5l-47 -21q-11 39 -26.5 64.5t-34.5 41t-41.5 21.5 t-48.5 6q-41 0 -74 -15t-56 -51t-35 -96t-12 -151q0 -89 12 -149.5t35 -97.5t56 -53t74 -16q35 0 64 13t49.5 43t31 78t9.5 117h-147zM328 -122q0 -45 -17 -79.5t-48 -50.5l-17 22q21 13 35 36t15 51q-17 -5 -30 5t-13 31q0 19 10 28.5t27 9.5q38 0 38 -53z" />
<glyph horiz-adv-x="550" d="M59 0zM297 285v44h200v-40q0 -83 -15 -140t-42.5 -92.5t-65.5 -51.5t-84 -16q-56 0 -99 20.5t-72.5 64.5t-44.5 112t-15 164q0 99 15 167.5t44.5 111.5t73 62.5t99.5 19.5q35 0 65.5 -8t55.5 -26.5t44.5 -49t31.5 -76.5l-47 -21q-11 39 -26.5 64.5t-34.5 41t-41.5 21.5 t-48.5 6q-41 0 -74 -15t-56 -51t-35 -96t-12 -151q0 -89 12 -149.5t35 -97.5t56 -53t74 -16q35 0 64 13t49.5 43t31 78t9.5 117h-147zM250 840q0 20 10.5 30.5t27.5 10.5q38 0 38 -41q0 -20 -10 -31t-28 -11q-17 0 -27.5 11t-10.5 31z" />
<glyph horiz-adv-x="481" d="M86 0zM86 0v700h55v-700h-55zM407 0l-250 342v4l240 354h60l-242 -350l258 -350h-66zM304 -122q0 -45 -17 -79.5t-48 -50.5l-17 22q21 13 35 36t15 51q-17 -5 -30 5t-13 31q0 19 10 28.5t27 9.5q38 0 38 -53z" />
<glyph horiz-adv-x="320" d="M40 332zM281 378v-46h-241v46h241z" />
<glyph horiz-adv-x="443" d="M39 332zM404 378v-46h-365v46h365z" />
<glyph horiz-adv-x="592" d="M39 332zM553 378v-46h-514v46h514z" />
<glyph horiz-adv-x="443" d="M39 332zM404 378v-46h-365v46h365z" />
<glyph horiz-adv-x="198" d="M125 700v-700h-52v700h52z" />
<glyph horiz-adv-x="459" d="M259 439h-113v-439h-53v439h-68v43h68v85q0 39 9 67t25 45.5t36.5 25.5t44.5 8q17 0 33.5 -4.5t31.5 -14.5l-16 -44q-22 14 -48 14q-29 0 -46 -22t-17 -78v-82h113v-43zM391 700v-700h-52v700h52z" />
<glyph horiz-adv-x="459" d="M0 0z" />
</font>
</defs>
</svg>
