<?xml version="1.0" standalone="no"?>
<!DOCTYPE svg PUBLIC "-//W3C//DTD SVG 1.1//EN" "http://www.w3.org/Graphics/SVG/1.1/DTD/svg11.dtd" >
<svg xmlns="http://www.w3.org/2000/svg" xmlns:xlink="http://www.w3.org/1999/xlink" version="1.1">
<metadata></metadata>
<defs>
<font id="honeywell_cond_webbold" horiz-adv-x="456" >
<font-face units-per-em="1000" ascent="780" descent="-220" />
<missing-glyph horiz-adv-x="177" />
<glyph unicode="fi" horiz-adv-x="509" d="M399 574q-29 0 -45.5 17t-16.5 49t16.5 48t45.5 16t45.5 -16t16.5 -48t-16.5 -49t-45.5 -17zM281 407h-100v-407h-101v407h-64v83h64v63q0 44 11 76t30 53t45.5 31t56.5 10q45 0 76 -22l-25 -82q-20 11 -42 11t-36.5 -17t-14.5 -63v-60h100v-83zM348 490h102v-490h-102 v490z" />
<glyph unicode="fl" horiz-adv-x="523" d="M281 407h-100v-407h-101v407h-64v83h64v63q0 44 11 76t30 53t45.5 31t56.5 10q45 0 76 -22l-25 -82q-20 11 -42 11t-36.5 -17t-14.5 -63v-60h100v-83zM455 0q-24 0 -44.5 6t-34.5 20t-22 37t-8 57v580h101v-578q0 -21 10 -30.5t22 -9.5h37v-82h-61z" />
<glyph horiz-adv-x="133" />
<glyph horiz-adv-x="133" />
<glyph unicode="&#xd;" horiz-adv-x="133" />
<glyph unicode=" "  horiz-adv-x="177" />
<glyph unicode="&#x09;" horiz-adv-x="177" />
<glyph unicode="&#xa0;" horiz-adv-x="177" />
<glyph unicode="!" horiz-adv-x="190" d="M148 700l-16 -499h-75l-15 499h106zM95 -6q-29 0 -44.5 17.5t-15.5 47.5q0 32 15.5 48t44.5 16q61 0 61 -64q0 -30 -16 -47.5t-45 -17.5z" />
<glyph unicode="&#x22;" horiz-adv-x="295" d="M175 484l-7 229h88l-12 -229h-69zM121 484h-70l-12 229h88z" />
<glyph unicode="#" horiz-adv-x="576" d="M331 284l35 150h-113l-35 -150h113zM267 0l48 205h-115l-46 -205h-99l46 205h-79l20 79h76l35 150h-85l21 77h80l44 189h98l-42 -189h115l42 189h99l-43 -189h82l-19 -77h-80l-35 -150h88l-20 -79h-85l-47 -205h-99z" />
<glyph unicode="$" horiz-adv-x="452" d="M199 416v186q-37 -6 -53.5 -31t-16.5 -57q0 -65 70 -98zM254 93q35 7 53.5 31t18.5 59q0 38 -16 61.5t-56 42.5v-194zM199 -62v73q-65 5 -112 41.5t-71 116.5l82 34q14 -50 39.5 -76t61.5 -34v214l-2 2q-83 32 -120 81.5t-37 117.5q0 72 41.5 120t117.5 55v83h55v-83 q63 -6 104 -43.5t58 -109.5l-82 -33q-13 45 -33 69t-47 32v-203l7 -2q81 -32 119 -79t38 -122q0 -79 -43 -124.5t-121 -53.5v-76h-55z" />
<glyph unicode="%" horiz-adv-x="807" d="M28 0zM498 205q0 112 33 163t106 51q72 0 104.5 -51t32.5 -163q0 -111 -32.5 -162t-104.5 -51q-73 0 -106 52t-33 161zM698 205q0 84 -16.5 116.5t-44.5 32.5q-30 0 -46 -33t-16 -115q0 -85 16 -117.5t46 -32.5q28 0 44.5 32.5t16.5 116.5zM28 498q0 112 33 163t106 51 q72 0 104.5 -51t32.5 -163q0 -111 -32.5 -162t-104.5 -51q-73 0 -106 52t-33 161zM228 498q0 84 -16.5 116.5t-44.5 32.5q-30 0 -46 -33t-16 -115q0 -85 16 -117.5t46 -32.5q28 0 44.5 32.5t16.5 116.5zM574 700l-258 -700h-89l259 700h88z" />
<glyph unicode="&#x26;" horiz-adv-x="548" d="M494 -17q-26 14 -52.5 33t-54.5 42q-69 -71 -172 -71q-43 0 -78.5 12t-60.5 36t-39 59t-14 81q0 58 23.5 105t76.5 91q-24 48 -37.5 94.5t-13.5 92.5q0 69 39 112t114 43q70 0 105 -35.5t35 -99.5q0 -32 -6.5 -60t-21.5 -54.5t-39.5 -53.5t-60.5 -55q28 -43 63 -83.5 t73 -78.5q25 55 37.5 127.5t11.5 157.5h92q-1 -109 -19 -196t-53 -150q51 -42 101 -70zM160 560q0 -31 9.5 -65t26.5 -69q41 33 61 67t20 76q0 32 -16.5 47.5t-39.5 15.5q-27 0 -44 -16.5t-17 -55.5zM223 70q29 0 53.5 11.5t45.5 32.5q-43 41 -83 86.5t-73 95.5 q-22 -23 -35 -50t-13 -65q0 -52 28.5 -81.5t76.5 -29.5z" />
<glyph unicode="'" horiz-adv-x="166" d="M49 484l-10 229h88l-10 -229h-68z" />
<glyph unicode="(" horiz-adv-x="275" d="M252 -17l-26 -85q-99 20 -147.5 121t-48.5 294t48.5 294t146.5 121l27 -85q-33 -10 -57.5 -31.5t-41 -59.5t-25 -96.5t-8.5 -142.5t8.5 -142.5t25 -97t41 -59.5t57.5 -31z" />
<glyph unicode=")" horiz-adv-x="275" d="M20 -17q33 10 57.5 31t41 59.5t25 97t8.5 142.5t-8.5 142.5t-25 96.5t-41 59.5t-57.5 31.5l27 85q98 -20 146.5 -121t48.5 -294t-48.5 -294t-147.5 -121z" />
<glyph unicode="*" horiz-adv-x="329" d="M103 358l-63 44l66 103l-91 37l28 76l84 -39l-6 134h86l-6 -134l85 39l27 -75l-91 -38l67 -103l-64 -44l-62 99z" />
<glyph unicode="+" horiz-adv-x="387" d="M232 115h-76v158h-116v75h116v158h76v-158h116v-75h-116v-158z" />
<glyph unicode="," horiz-adv-x="193" d="M55 -136l-27 45q29 14 46 36.5t20 51.5q-25 -1 -41.5 15t-16.5 48t16 47.5t44 15.5q31 0 47 -19.5t16 -61.5q0 -61 -26.5 -109t-77.5 -69z" />
<glyph unicode="-" horiz-adv-x="352" d="M313 302v-88h-274v88h274z" />
<glyph unicode="." horiz-adv-x="191" d="M96 -6q-29 0 -44.5 17.5t-15.5 47.5q0 64 60 64q61 0 61 -64q0 -30 -16 -47.5t-45 -17.5z" />
<glyph unicode="/" horiz-adv-x="411" d="M407 700l-295 -700h-108l295 700h108z" />
<glyph unicode="0" horiz-adv-x="535" d="M45 0zM45 350q0 190 53.5 276.5t170.5 86.5q115 0 168.5 -86.5t53.5 -276.5t-53.5 -276.5t-168.5 -86.5q-117 0 -170.5 87.5t-53.5 275.5zM387 349q0 78 -8 130.5t-23 85t-37 46t-50 13.5q-29 0 -51.5 -14t-37.5 -46.5t-23 -84.5t-8 -128q0 -79 8 -132t23 -85t37.5 -45.5 t51.5 -13.5q28 0 50 13.5t37 45t23 84.5t8 131z" />
<glyph unicode="1" horiz-adv-x="535" d="M472 0h-408v93h152v469l-65 -54l-42 84l142 111h70v-610h151v-93z" />
<glyph unicode="2" horiz-adv-x="535" d="M62 0zM83 0v81l196 280q37 52 53.5 92.5t16.5 73.5q0 48 -22.5 72t-60.5 24q-44 0 -74 -24.5t-50 -81.5l-80 36q30 88 84 124t127 36q85 0 132.5 -45t47.5 -128q0 -51 -23 -104t-73 -128l-153 -219l269 4v-93h-390z" />
<glyph unicode="3" horiz-adv-x="535" d="M64 0zM264 73q48 0 76 32.5t28 95.5q0 57 -27 86.5t-75 29.5h-51v89h49q38 0 65 30.5t27 83.5q0 49 -25.5 76t-70.5 27q-44 0 -69.5 -24.5t-38.5 -72.5l-83 36q22 78 74.5 114.5t128.5 36.5q93 0 139.5 -48t46.5 -129q0 -57 -22 -99.5t-63 -71.5q45 -17 71.5 -60 t26.5 -109q0 -45 -12.5 -83.5t-38 -66.5t-63.5 -44t-90 -16q-73 0 -126.5 34.5t-76.5 111.5l84 40q16 -55 47 -77t69 -22z" />
<glyph unicode="4" horiz-adv-x="535" d="M37 0zM37 173v76l165 451h101l-161 -434h184v287h101v-287h72v-93h-72v-173h-101v173h-289z" />
<glyph unicode="5" horiz-adv-x="535" d="M60 0zM264 -14q-72 0 -126.5 33.5t-77.5 113.5l83 39q15 -55 47 -77t71 -22q57 0 84.5 41.5t27.5 110.5q0 70 -28 103.5t-81 33.5q-32 0 -59 -14t-48 -39l-70 31l24 360h335v-91h-249l-12 -197q22 18 50.5 27t57.5 9q39 0 72 -12.5t58 -39t39 -68.5t14 -101 q0 -52 -13.5 -96t-40 -76.5t-66 -50.5t-92.5 -18z" />
<glyph unicode="6" horiz-adv-x="535" d="M57 0zM281 -14q-53 0 -94.5 21t-70.5 65t-44 112.5t-15 163.5q0 189 59 277t174 88q69 0 115 -29.5t70 -95.5l-79 -45q-18 44 -43 64t-61 20q-30 0 -55 -13.5t-42 -46t-26.5 -87t-9.5 -136.5v-21q16 55 55 85.5t94 30.5q75 0 123 -55t48 -163q0 -52 -12.5 -95.5 t-37 -74.5t-62 -48t-86.5 -17zM278 73q45 0 72 34.5t27 107.5q0 69 -24.5 105t-71.5 36q-48 0 -76.5 -40t-28.5 -104q0 -63 27 -101t75 -38z" />
<glyph unicode="7" horiz-adv-x="535" d="M78 0zM170 0q0 96 13 185.5t36 168.5t55.5 143.5t71.5 110.5l-268 -2v94h379v-88q-85 -88 -131 -243t-44 -369h-112z" />
<glyph unicode="8" horiz-adv-x="535" d="M64 0zM268 -13q-97 0 -150.5 56t-53.5 149q0 66 27.5 111t69.5 65q-35 23 -56.5 63t-21.5 91q0 91 49 141t136 50t136 -50t49 -141q0 -51 -22 -91t-57 -63q43 -20 70.5 -65t27.5 -111q0 -93 -53.5 -149t-150.5 -56zM358 519q0 22 -6 42t-17 35t-27.5 23.5t-38.5 8.5 t-39 -8.5t-28.5 -23.5t-17.5 -35t-6 -42q0 -45 22.5 -77t67.5 -32q44 0 67 32t23 77zM269 72q49 0 75.5 34.5t26.5 90.5q0 52 -27 87t-75 35q-50 0 -77 -35t-27 -87q0 -55 26.5 -90t77.5 -35z" />
<glyph unicode="9" horiz-adv-x="535" d="M57 0zM257 627q-45 0 -72 -35.5t-27 -108.5q0 -69 25 -106.5t72 -37.5q48 0 76 40.5t28 106.5q0 64 -28 102.5t-74 38.5zM256 713q53 0 94.5 -21t70 -65t43 -112.5t14.5 -162.5q0 -189 -58.5 -277t-173.5 -88q-69 0 -115 29t-71 95l80 45q18 -44 43 -63.5t61 -19.5 q30 0 54.5 13.5t42 46t26.5 87t9 135.5v20q-16 -57 -54.5 -88t-92.5 -31q-78 0 -125 56t-47 165q0 52 12.5 95.5t37.5 74.5t62 48.5t87 17.5z" />
<glyph unicode=":" horiz-adv-x="191" d="M36 0zM96 -6q-29 0 -44.5 17.5t-15.5 47.5q0 64 60 64q61 0 61 -64q0 -30 -16 -47.5t-45 -17.5zM96 359q-29 0 -44.5 17.5t-15.5 47.5q0 64 60 64q61 0 61 -64q0 -30 -16 -47.5t-45 -17.5z" />
<glyph unicode=";" horiz-adv-x="193" d="M28 0zM55 -136l-27 45q29 14 46 36.5t20 51.5q-25 -1 -41.5 15t-16.5 48t16 47.5t44 15.5q31 0 47 -19.5t16 -61.5q0 -61 -26.5 -109t-77.5 -69zM97 359q-29 0 -44.5 17.5t-15.5 47.5q0 64 60 64q61 0 61 -64q0 -30 -16 -47.5t-45 -17.5z" />
<glyph unicode="&#x3c;" horiz-adv-x="378" d="M273 529l43 -62l-167 -157l169 -155l-46 -67l-211 198v45z" />
<glyph unicode="=" horiz-adv-x="387" d="M348 421v-78h-308v78h308zM348 276v-78h-308v78h308z" />
<glyph unicode="&#x3e;" horiz-adv-x="378" d="M104 88l-42 62l168 157l-169 156l44 66l212 -198v-44z" />
<glyph unicode="?" horiz-adv-x="396" d="M148 201l-5 161h36q50 0 79 34.5t29 103.5q0 63 -27 94.5t-77 31.5q-45 0 -73 -23.5t-41 -77.5l-78 34q10 43 29 73t45 48.5t58 26.5t68 8q94 0 142.5 -56t48.5 -154q0 -93 -40 -145t-107 -64l-6 -95h-81zM186 -6q-28 0 -43.5 17.5t-15.5 47.5q0 32 15.5 48t43.5 16 q61 0 61 -64q0 -30 -15.5 -47.5t-45.5 -17.5z" />
<glyph unicode="@" horiz-adv-x="620" d="M315 -102q-63 0 -113.5 24t-86 69t-54.5 108.5t-19 142.5q0 80 19 144t54 108.5t86 68t114 23.5q62 0 111 -22t82.5 -62.5t51 -98.5t17.5 -129q0 -91 -35 -142.5t-96 -51.5q-28 0 -47.5 12t-30.5 41q-32 -60 -93 -60q-38 0 -63 24.5t-25 69.5q0 51 36.5 83t98.5 32h35 q-1 47 -19 64.5t-40 17.5q-42 0 -59 -49l-50 33q11 31 39 52.5t79 21.5q57 0 87 -33.5t30 -103.5v-100q0 -30 9 -45.5t30 -15.5q29 0 49.5 37.5t20.5 110.5q0 68 -16.5 119.5t-45.5 85.5t-69 51t-87 17q-50 0 -92 -19t-72.5 -57.5t-48 -95t-17.5 -131.5q0 -76 18 -133 t49.5 -95t73.5 -57t90 -19q55 0 98 19t75 63l32 -25q-70 -97 -206 -97zM289 127q30 0 49 25t19 71v11h-28q-39 0 -59 -18.5t-20 -44.5q0 -20 11 -32t28 -12z" />
<glyph unicode="A" horiz-adv-x="508" d="M252 579l-84 -356h169zM390 0l-32 134h-210l-32 -134h-107l181 700h129l180 -700h-109z" />
<glyph unicode="B" horiz-adv-x="532" d="M74 0v700h223q48 0 82.5 -13.5t56.5 -37.5t32.5 -57t10.5 -72q0 -58 -22 -97.5t-60 -59.5q50 -16 73 -62t23 -101q0 -99 -50.5 -149.5t-152.5 -50.5h-216zM282 610h-106v-209h104q50 0 74 31t24 74q0 51 -27 77.5t-69 26.5zM284 310h-108v-221h105q54 0 81 27.5t27 87.5 q0 50 -25.5 78t-79.5 28z" />
<glyph unicode="C" horiz-adv-x="538" d="M298 -13q-63 0 -109.5 20.5t-77 64.5t-46 113t-15.5 166t15.5 165.5t47 112t78 64t109.5 20.5q40 0 74 -8.5t61 -29.5t47.5 -55.5t32.5 -85.5l-93 -34q-16 67 -46.5 92.5t-76.5 25.5q-34 0 -60.5 -12.5t-44.5 -43t-27.5 -82t-9.5 -129.5q0 -79 9.5 -131.5t28 -83.5 t45 -44t61.5 -13q45 0 78 27.5t53 95.5l89 -38q-26 -93 -84 -135t-139 -42z" />
<glyph unicode="D" horiz-adv-x="578" d="M265 0h-191v700h195q130 0 194.5 -83t64.5 -263t-65 -267t-198 -87zM262 93q36 0 65.5 13t50.5 43t32.5 79.5t11.5 122.5q0 70 -10 119t-29.5 79.5t-47.5 44t-65 13.5h-90v-514h82z" />
<glyph unicode="E" horiz-adv-x="511" d="M74 0v700h403v-92h-300v-211h256v-95h-256v-210h295v-92h-398z" />
<glyph unicode="F" horiz-adv-x="475" d="M74 0v700h386v-94h-280v-212h247v-97h-247v-297h-106z" />
<glyph unicode="G" horiz-adv-x="569" d="M281 -13q-110 0 -170.5 88.5t-60.5 275.5q0 97 15.5 165.5t47 112t78.5 64t110 20.5q40 0 74 -9t61 -29t47 -53.5t32 -82.5l-91 -36q-19 67 -49.5 91.5t-73.5 24.5q-35 0 -62 -12t-45.5 -42.5t-28 -82.5t-9.5 -131t9.5 -131.5t28 -84.5t45 -45.5t61.5 -13.5 q21 0 42.5 8.5t38.5 28.5t28 54.5t12 85.5v21h-120v86h217v-360h-73l-11 87q-21 -49 -61.5 -74.5t-91.5 -25.5z" />
<glyph unicode="H" horiz-adv-x="610" d="M429 0v303h-249v-303h-106v700h106v-300h249v300h106v-700h-106z" />
<glyph unicode="I" horiz-adv-x="255" d="M74 0v700h106v-700h-106z" />
<glyph unicode="J" horiz-adv-x="406" d="M344 247q0 -74 -15 -123.5t-42 -80t-64 -43.5t-81 -13q-36 0 -74.5 12t-69.5 41l53 80q19 -19 42.5 -28.5t48.5 -9.5q21 0 39 8.5t30.5 27t19.5 48t7 72.5v462h106v-453z" />
<glyph unicode="K" horiz-adv-x="524" d="M181 196v-196h-107v700h107l-2 -355l217 355h117l-198 -300l207 -400h-122l-151 296z" />
<glyph unicode="L" horiz-adv-x="486" d="M181 95h283v-95h-390v700h107v-605z" />
<glyph unicode="M" horiz-adv-x="733" d="M322 0l-156 495l5 -495h-97v700h121l172 -550l170 550h122v-700h-99l6 498l-158 -498h-86z" />
<glyph unicode="N" horiz-adv-x="603" d="M432 0l-262 487l2 -487h-98v700h93l267 -495l-4 495h99v-700h-97z" />
<glyph unicode="O" horiz-adv-x="599" d="M300 -13q-131 0 -190.5 87t-59.5 277t61.5 276t188.5 86q66 0 113 -21t77 -65t44.5 -112.5t14.5 -163.5q0 -190 -61.5 -277t-187.5 -87zM300 620q-35 0 -62 -13t-45 -44t-27 -83.5t-9 -130.5q0 -77 9 -129t27 -84t45 -45.5t62 -13.5t61.5 13.5t44.5 45t27 84t9 131.5 q0 76 -9 128t-27 83t-44.5 44.5t-61.5 13.5z" />
<glyph unicode="P" horiz-adv-x="525" d="M74 0v700h217q102 0 153 -60.5t51 -166.5q0 -118 -56.5 -179.5t-158.5 -61.5h-100v-232h-106zM279 606h-99v-279h98q53 0 82 35.5t29 107.5q0 66 -26.5 101t-83.5 35z" />
<glyph unicode="Q" horiz-adv-x="599" d="M300 -13q-131 0 -190.5 87t-59.5 277t61.5 276t188.5 86q66 0 113 -21t77 -65t44.5 -112.5t14.5 -163.5q0 -122 -24.5 -200t-75.5 -119l65 -122h-100l-45 85q-34 -8 -69 -8zM300 620q-35 0 -62 -13t-45 -44t-27 -83t-9 -131q0 -77 9 -129t27 -83.5t45 -45.5t62 -14 q13 0 22 3l-65 124h102l40 -76q21 29 31.5 82t10.5 141q0 76 -9 128t-26.5 83t-44 44.5t-61.5 13.5z" />
<glyph unicode="R" horiz-adv-x="531" d="M280 608h-101v-260h101q53 0 82 33t29 99q0 63 -27 95.5t-84 32.5zM74 0v700h219q103 0 153.5 -57t50.5 -160q0 -76 -27.5 -127t-79.5 -76l111 -280h-113l-97 256q-5 -1 -16 -1h-96v-255h-105z" />
<glyph unicode="S" horiz-adv-x="475" d="M434 546l-88 -36q-17 61 -47.5 86.5t-72.5 25.5q-40 0 -66 -23t-26 -68q0 -38 23 -65.5t72 -48.5l42 -18q42 -18 73.5 -39t52.5 -46.5t31 -57t10 -71.5q0 -95 -54.5 -146.5t-151.5 -51.5q-85 0 -141.5 40t-83.5 131l89 40q18 -63 51.5 -92.5t84.5 -29.5q50 0 76.5 26.5 t26.5 74.5q0 42 -22 69t-78 50l-41 17q-81 34 -121 87t-40 124q0 39 12.5 73.5t37 60t61 40.5t85.5 15q82 0 135 -42.5t70 -124.5z" />
<glyph unicode="T" horiz-adv-x="460" d="M12 700h435v-95h-164v-605h-106v605h-165v95z" />
<glyph unicode="U" horiz-adv-x="578" d="M411 231v469h106v-463q0 -125 -60.5 -187.5t-167.5 -62.5q-109 0 -168 62.5t-59 187.5v463h106v-469q0 -78 32.5 -113t88.5 -35q57 0 89.5 35t32.5 113z" />
<glyph unicode="V" horiz-adv-x="504" d="M254 126l136 574h107l-182 -700h-127l-181 700h109z" />
<glyph unicode="W" horiz-adv-x="719" d="M305 698h112l97 -528l98 530h100l-147 -700h-112l-94 529l-92 -529h-112l-148 700h105l99 -532z" />
<glyph unicode="X" horiz-adv-x="514" d="M384 0l-131 263l-128 -263h-116l187 356l-176 344h122l120 -252l116 252h116l-176 -342l187 -358h-121z" />
<glyph unicode="Y" horiz-adv-x="502" d="M198 273l-190 427h117l128 -323l130 323h111l-190 -427v-273h-106v273z" />
<glyph unicode="Z" d="M17 0v78l298 530l-284 -2v94h403v-78l-297 -530l300 2v-94h-420z" />
<glyph unicode="[" horiz-adv-x="270" d="M51 -92v808h190v-80h-97v-647h100v-81h-193z" />
<glyph unicode="\" horiz-adv-x="418" d="M297 0l-293 700h109l293 -700h-109z" />
<glyph unicode="]" horiz-adv-x="271" d="M23 -92v81h100v647h-97v80h190v-808h-193z" />
<glyph unicode="^" horiz-adv-x="360" d="M133 700h96l110 -320v-3h-90l-70 228l-72 -228h-86v3z" />
<glyph unicode="_" horiz-adv-x="363" d="M366 0v-82h-369v82h369z" />
<glyph unicode="`" d="M199 573l-95 115v7h116l60 -118v-4h-81z" />
<glyph unicode="a" horiz-adv-x="440" d="M190 66q41 0 68.5 37.5t27.5 106.5v14h-41q-57 0 -86 -25.5t-29 -66.5q0 -30 15.5 -48t44.5 -18zM300 0l-8 83q-19 -45 -51.5 -70t-77.5 -25q-57 0 -91 36.5t-34 101.5q0 38 14 70t39.5 54.5t62 35t81.5 12.5h51v7q-1 32 -8.5 53.5t-19 34.5t-26.5 18.5t-31 5.5 q-30 0 -52.5 -16.5t-33.5 -51.5l-76 46q20 48 61.5 78t110.5 30q83 0 128.5 -46t45.5 -155v-302h-85z" />
<glyph unicode="b" horiz-adv-x="477" d="M273 -13q-82 0 -126 83l-5 -70h-82v700h101v-276q21 39 54 59t73 20q72 0 112 -63.5t40 -191.5q0 -125 -42.5 -193t-124.5 -68zM161 243q0 -91 24.5 -131.5t65.5 -40.5q45 0 67 41.5t22 131.5q0 91 -22.5 132.5t-64.5 41.5q-41 0 -66.5 -41t-25.5 -134z" />
<glyph unicode="c" horiz-adv-x="412" d="M224 -13q-44 0 -78.5 15t-58.5 46.5t-37 80.5t-13 117q0 133 50.5 195t142.5 62q65 0 103.5 -32.5t58.5 -101.5l-84 -38q-23 85 -79 85q-47 0 -70.5 -37.5t-23.5 -133.5q0 -93 22 -132t70 -39q32 0 52.5 20t33.5 64l83 -37q-19 -59 -58.5 -96.5t-113.5 -37.5z" />
<glyph unicode="d" horiz-adv-x="476" d="M315 243q0 93 -25.5 134.5t-65.5 41.5q-44 0 -66 -42t-22 -132t22 -132t66 -42q40 0 65.5 41t25.5 131zM332 0l-8 78q-20 -45 -52 -68t-79 -23q-72 0 -114 65t-42 192q0 128 44 193.5t120 65.5q38 0 65.5 -20t47.5 -58v275h101v-700h-83z" />
<glyph unicode="e" horiz-adv-x="429" d="M224 -13q-86 0 -136.5 62.5t-50.5 194.5q0 126 48 192.5t139 66.5q45 0 77 -18.5t52.5 -50.5t30.5 -76t10 -95q0 -13 -0.5 -25.5t-1.5 -25.5h-258q4 -77 28.5 -108.5t68.5 -31.5q63 0 87 79l78 -37q-10 -26 -24 -49t-34.5 -40.5t-48.5 -27.5t-65 -10zM222 418 q-38 0 -60.5 -30t-27.5 -99h165q-1 68 -21 98.5t-56 30.5z" />
<glyph unicode="f" horiz-adv-x="292" d="M281 407h-100v-407h-101v407h-63v83h63v61q0 45 11.5 77.5t31 53.5t46 31t56.5 10q23 0 42.5 -5.5t35.5 -15.5l-26 -83q-18 11 -43 11q-23 0 -38 -16.5t-15 -61.5v-62h100v-83z" />
<glyph unicode="g" horiz-adv-x="476" d="M315 254q0 85 -25 124.5t-65 39.5q-44 0 -66.5 -39t-22.5 -126q0 -88 22.5 -128.5t63.5 -40.5q42 0 67.5 41t25.5 129zM216 -217q-75 0 -119.5 32t-67.5 93l83 43q26 -85 98 -85q104 0 104 144v74q-18 -40 -49 -61t-70 -21q-72 0 -115 61.5t-43 187.5q0 125 44.5 188.5 t124.5 63.5q76 0 119 -84l7 71h84v-474q0 -119 -54.5 -176t-145.5 -57z" />
<glyph unicode="h" horiz-adv-x="488" d="M331 293q0 63 -19 90.5t-55 27.5q-43 0 -68.5 -42.5t-27.5 -123.5v-245h-101v700h101v-303q21 57 57 81.5t79 24.5q69 0 102 -48t33 -137v-318h-101v293z" />
<glyph unicode="i" horiz-adv-x="223" d="M49 641q0 32 16.5 48.5t45.5 16.5t46 -16.5t17 -48.5t-17 -48.5t-46 -16.5t-45.5 16.5t-16.5 48.5zM61 490h101v-490h-101v490z" />
<glyph unicode="j" horiz-adv-x="223" d="M111 576q-29 0 -45.5 16.5t-16.5 48.5t16.5 48.5t45.5 16.5t46 -16.5t17 -48.5t-17 -48.5t-46 -16.5zM60 -37v527h102v-537q0 -88 -37 -129t-98 -41q-23 0 -43.5 4t-40.5 15l25 83q17 -10 40 -10q26 0 39 18.5t13 69.5z" />
<glyph unicode="k" horiz-adv-x="430" d="M161 120v-120h-101v700h101l-2 -457l150 247h112l-148 -213l151 -277h-115l-97 193z" />
<glyph unicode="l" horiz-adv-x="235" d="M167 0q-24 0 -44.5 6t-34.5 20t-22 37t-8 57v580h101v-578q0 -21 10 -30.5t22 -9.5h37v-82h-61z" />
<glyph unicode="m" horiz-adv-x="716" d="M309 0v293q0 63 -16.5 90t-48.5 27q-37 0 -59 -39t-24 -117v-254h-101v490h85l9 -89q21 57 55.5 79.5t72.5 22.5q47 0 74 -31t38 -78q20 60 56 84.5t79 24.5q68 0 100 -47t32 -134v-322h-101v297q0 62 -16.5 87.5t-47.5 25.5q-38 0 -61 -36t-25 -107v-267h-101z" />
<glyph unicode="n" horiz-adv-x="488" d="M60 490h86l9 -93q22 57 58 81.5t81 24.5q72 0 105 -48t33 -137v-318h-101v295q0 63 -19 89.5t-55 26.5q-42 0 -68.5 -42.5t-27.5 -123.5v-245h-101v490z" />
<glyph unicode="o" d="M37 247q0 133 50.5 194.5t140.5 61.5q96 0 143.5 -60.5t47.5 -195.5q0 -132 -48.5 -196t-142.5 -64q-95 0 -143 62.5t-48 197.5zM320 246q0 93 -22 131.5t-70 38.5q-49 0 -71 -38.5t-22 -131.5q0 -47 5.5 -80t17 -53.5t29 -29.5t41.5 -9t41.5 9t28.5 29.5t16.5 53.5 t5.5 80z" />
<glyph unicode="p" horiz-adv-x="477" d="M161 244q0 -91 25.5 -132t63.5 -41q46 0 68 42.5t22 131.5q0 91 -21.5 131.5t-65.5 40.5q-41 0 -66.5 -40.5t-25.5 -132.5zM145 490l9 -81q21 47 55.5 70.5t77.5 23.5q74 0 113.5 -65t39.5 -190t-42 -193t-127 -68q-69 0 -110 68v-242h-101v677h85z" />
<glyph unicode="q" horiz-adv-x="476" d="M202 503q38 0 70.5 -20.5t52.5 -61.5l7 69h83v-676h-101v251q-21 -40 -52 -59t-70 -19q-73 0 -114 64t-41 192q0 130 43.5 195t121.5 65zM315 245q0 93 -25.5 133.5t-64.5 40.5q-44 0 -66.5 -41.5t-22.5 -132.5q0 -90 22.5 -132t64.5 -42q41 0 66.5 41.5t25.5 132.5z" />
<glyph unicode="r" horiz-adv-x="307" d="M60 0v490h85l9 -102q20 62 56 91t84 24l1 -105q-66 8 -99.5 -38t-34.5 -137v-223h-101z" />
<glyph unicode="s" horiz-adv-x="370" d="M182 65q35 0 52.5 16t17.5 44q0 26 -16 42t-49 29l-31 12q-63 24 -95.5 60t-32.5 94q0 62 40 102t117 40q60 0 99 -27t60 -86l-78 -39q-9 33 -30.5 52t-51.5 19q-26 0 -45 -13t-19 -42q0 -20 14 -37t51 -31l37 -14q57 -22 91 -58t34 -96q0 -28 -9.5 -54t-29.5 -46 t-51 -32t-74 -12q-38 0 -67 9t-50 25t-34.5 38t-22.5 48l78 38q25 -81 95 -81z" />
<glyph unicode="t" horiz-adv-x="301" d="M286 9q-14 -10 -35 -16t-44 -6q-59 0 -96 35.5t-37 117.5v267h-59v83h59v143h101v-143h101v-83h-101v-256q0 -42 14 -58t34 -16q11 0 22.5 3t20.5 10z" />
<glyph unicode="u" horiz-adv-x="485" d="M425 0h-86l-7 85q-21 -51 -56 -74.5t-77 -23.5q-75 0 -109.5 51t-34.5 138v314h101v-297q0 -117 76 -117q41 0 65.5 40.5t26.5 120.5v253h101v-490z" />
<glyph unicode="v" horiz-adv-x="414" d="M7 490h108l94 -375l96 375h102l-147 -490h-106z" />
<glyph unicode="w" horiz-adv-x="587" d="M245 487h102l69 -356l68 359h95l-113 -490h-105l-67 352l-67 -352h-103l-116 490h101l67 -358z" />
<glyph unicode="x" horiz-adv-x="415" d="M293 0l-90 170l-89 -170h-108l142 250l-135 240h117l80 -164l81 164h108l-135 -241l145 -249h-116z" />
<glyph unicode="y" horiz-adv-x="416" d="M145 -58l12 49l-150 499h108l95 -368l96 368h103l-176 -583q-22 -72 -59 -98.5t-87 -26.5q-25 0 -43.5 4t-39.5 14l22 82q31 -11 52 -11q27 0 42.5 15.5t24.5 55.5z" />
<glyph unicode="z" horiz-adv-x="377" d="M25 0v73l209 333h-206v84h317v-75l-208 -331h215v-84h-327z" />
<glyph unicode="{" horiz-adv-x="286" d="M231 -100q-59 5 -93.5 41t-34.5 108q0 34 3.5 63t3.5 58q0 54 -19.5 78.5t-61.5 24.5h-20v80h20q42 0 61.5 24t19.5 78q0 30 -3.5 59t-3.5 64q0 71 34.5 107t93.5 42l27 -83q-33 -5 -51 -24t-18 -61q0 -29 3.5 -57t3.5 -60q0 -93 -65 -129q65 -35 65 -128 q0 -31 -3.5 -59.5t-3.5 -57.5q0 -42 18 -61t51 -23z" />
<glyph unicode="|" horiz-adv-x="238" d="M72 -65v831h92v-831h-92z" />
<glyph unicode="}" horiz-adv-x="286" d="M22 -16q33 4 51 23t18 61q0 29 -3.5 57.5t-3.5 59.5q0 93 65 128q-65 36 -65 129q0 32 3.5 60t3.5 57q0 42 -18 61t-51 24l27 83q59 -6 93.5 -42t34.5 -107q0 -35 -3.5 -64t-3.5 -59q0 -54 19.5 -78t61.5 -24h20v-80h-20q-42 0 -61.5 -24.5t-19.5 -78.5q0 -29 3.5 -58 t3.5 -63q0 -72 -34.5 -108t-93.5 -41z" />
<glyph unicode="~" horiz-adv-x="420" d="M326 418l73 -12q-3 -72 -32.5 -107.5t-76.5 -35.5q-24 0 -45.5 12t-41.5 24q-17 11 -32.5 20.5t-32.5 9.5t-29 -15.5t-14 -47.5l-73 13q4 72 34 106.5t76 34.5q25 0 46.5 -11t41.5 -24q17 -11 33.5 -19t30.5 -8q17 0 28.5 14t13.5 46z" />
<glyph unicode="&#xa1;" horiz-adv-x="189" d="M38 -199l16 499h75l15 -499h-106zM91 507q29 0 44.5 -17.5t15.5 -47.5q0 -32 -15.5 -48t-44.5 -16q-61 0 -61 64q0 30 16 47.5t45 17.5z" />
<glyph unicode="&#xa2;" horiz-adv-x="406" d="M379 136q-17 -46 -49 -81t-91 -42v-75h-59v75q-71 9 -112 67t-41 177q0 115 40 173.5t113 69.5v78h59v-77q104 -9 137 -124l-75 -37q-18 64 -62 76v-322q50 14 67 78zM115 256q0 -74 16 -112t49 -49v320q-33 -11 -49 -47.5t-16 -111.5z" />
<glyph unicode="&#xa3;" horiz-adv-x="447" d="M449 84q-26 -47 -64.5 -65.5t-92.5 -18.5h-266v85h25q23 0 30 28.5t5 78.5l-2 106h-58v79h56l-3 116q-1 60 12.5 102t38 68.5t58 38t72.5 11.5q71 0 113 -33.5t66 -102.5l-81 -42q-16 44 -38 66.5t-57 22.5q-86 0 -83 -137l3 -110h127v-79h-124l2 -107q1 -34 -2 -61.5 t-13 -44.5h119q31 0 54.5 14t41.5 46z" />
<glyph unicode="&#xa5;" horiz-adv-x="502" d="M444 216h-140v-216h-107v216h-140v72h133l-23 52h-110v74h78l-127 286h118l129 -327l126 327h113l-129 -286h79v-74h-110l-23 -52h133v-72z" />
<glyph unicode="&#xa6;" horiz-adv-x="238" d="M72 387v379h92v-379h-92zM72 -65v381h92v-381h-92z" />
<glyph unicode="&#xa7;" horiz-adv-x="392" d="M125 352q-2 -55 54 -75l15 -5q31 -11 53 6.5t22 55.5q1 29 -11 47t-41 28l-16 6q-32 11 -53.5 -7t-22.5 -56zM191 -26q-36 0 -63.5 9t-47 24.5t-33 37t-22.5 46.5l73 37q27 -80 91 -80q35 0 51 16.5t16 45.5q0 31 -14 47t-46 26l-29 10q-60 20 -91.5 57t-31.5 94 q0 36 15.5 65.5t44.5 46.5q-49 44 -49 114q0 30 9.5 56t28.5 45.5t45.5 30.5t61.5 11q57 0 95 -24.5t60 -80.5l-76 -38q-8 31 -29 49t-50 18q-30 0 -46.5 -16t-16.5 -46q0 -24 13 -43.5t48 -31.5l40 -13q63 -21 89 -55.5t26 -88.5q0 -33 -16.5 -63.5t-48.5 -47.5 q31 -22 43 -49.5t12 -65.5q0 -27 -8.5 -53t-26.5 -46t-47 -32t-70 -12z" />
<glyph unicode="&#xa8;" d="M253 641q0 60 56 60q59 0 59 -60q0 -62 -59 -62q-56 0 -56 62zM96 641q0 30 15.5 45t42.5 15q58 0 58 -60q0 -62 -58 -62q-27 0 -42.5 15.5t-15.5 46.5z" />
<glyph unicode="&#xa9;" horiz-adv-x="631" d="M44 350q0 81 19.5 145t55 108.5t86 67.5t112.5 23q61 0 111 -23t85 -67.5t54.5 -108.5t19.5 -145t-19.5 -145.5t-54.5 -108.5t-85 -67.5t-111 -23.5q-62 0 -112.5 23.5t-86 67.5t-55 108.5t-19.5 145.5zM89 350q0 -76 17.5 -133t48 -95t72 -57t90.5 -19t90 19t71 57 t47 95t17 133t-17 133t-47 95t-71 57t-90 19t-90.5 -19t-72 -57t-48 -95t-17.5 -133zM447 274q-37 -101 -128 -101q-31 0 -56 9.5t-43 31.5t-28 56t-10 84q0 97 37.5 139.5t102.5 42.5q89 0 123 -91l-63 -32q-10 28 -24.5 43.5t-36.5 15.5q-33 0 -50.5 -25.5t-17.5 -93.5 q0 -66 18 -90.5t50 -24.5q24 0 39 14t25 45z" />
<glyph unicode="&#xaa;" horiz-adv-x="315" d="M141 404q28 0 45 28.5t17 76.5v5h-42q-29 0 -46.5 -17t-17.5 -43q0 -23 11 -36.5t33 -13.5zM208 412q-13 -31 -35.5 -49t-55.5 -18q-37 0 -63 26t-26 77t35.5 84t93.5 33h46q-1 48 -17.5 65t-43.5 17q-26 0 -44.5 -12t-30.5 -32l-42 44q40 65 129 65q27 0 49.5 -7.5 t39 -25t26 -45.5t9.5 -69v-210h-65z" />
<glyph unicode="&#xab;" horiz-adv-x="508" d="M182 0l-146 243v3l145 244h105l-147 -243l150 -247h-107zM365 0l-151 245v3l146 242h105l-147 -241l154 -249h-107z" />
<glyph unicode="&#xad;" horiz-adv-x="313" d="M275 302v-88h-237v88h237z" />
<glyph unicode="&#xae;" horiz-adv-x="360" d="M180 336q-35 0 -62.5 13.5t-47.5 38t-30.5 59.5t-10.5 78q0 42 10.5 77t30.5 59.5t47.5 38t62.5 13.5q71 0 111 -51.5t40 -136.5q0 -86 -40 -137.5t-111 -51.5zM180 363q51 0 87 40.5t36 121.5q0 79 -36 120.5t-87 41.5q-52 0 -87.5 -41t-35.5 -121q0 -81 35.5 -121.5 t87.5 -40.5zM179 588h-23v-60h23q27 0 27 30t-27 30zM121 435v186h62q29 0 43 -17t14 -47q0 -38 -25 -55l27 -67h-39l-21 60h-26v-60h-35z" />
<glyph unicode="&#xaf;" d="M331 666v-69h-210v69h210z" />
<glyph unicode="&#xb0;" horiz-adv-x="358" d="M179 352q-69 0 -107 49t-38 130q0 82 38 131t107 49t107 -49t38 -131q0 -81 -38 -130t-107 -49zM179 647q-35 0 -56.5 -29.5t-21.5 -86.5t21.5 -85.5t56.5 -28.5t56.5 28.5t21.5 85.5t-21.5 86.5t-56.5 29.5z" />
<glyph unicode="&#xb1;" horiz-adv-x="387" d="M232 144h-76v143h-116v75h116v145h76v-145h116v-75h-116v-143zM348 75v-75h-308v75h308z" />
<glyph unicode="&#xb2;" horiz-adv-x="274" d="M6 294zM20 294v57l116 161q36 52 36 85q0 48 -42 48q-23 0 -38 -12.5t-27 -42.5l-59 25q17 54 51 76t79 22q54 0 84 -27.5t30 -78.5q0 -32 -15 -64t-47 -78l-74 -105l145 3v-69h-239z" />
<glyph unicode="&#xb3;" horiz-adv-x="286" d="M10 286zM136 286q-45 0 -77.5 20t-48.5 68l59 30q11 -31 27 -43t36 -12q26 0 40 16.5t14 47.5q0 30 -14.5 45t-40.5 15h-29v63h29q20 0 33.5 15t13.5 42q0 25 -12.5 39.5t-35.5 14.5q-45 0 -57 -51l-60 25q14 48 46 70t80 22q58 0 87.5 -29t29.5 -77q0 -33 -13.5 -58 t-37.5 -42q26 -12 41.5 -37t15.5 -61q0 -55 -32 -89t-94 -34z" />
<glyph unicode="&#xb4;" d="M346 688l-93 -115h-80v4l60 118h113v-7z" />
<glyph unicode="&#xb6;" horiz-adv-x="519" d="M309 326h48v282h-48v-282zM223 326v281q-52 1 -77.5 -36t-25.5 -101q0 -71 28 -108t75 -36zM309 232v-232h-86v234q-91 6 -142 65.5t-51 171.5q0 109 52.5 169t152.5 60h208v-700h-86v232h-48z" />
<glyph unicode="&#xb7;" horiz-adv-x="191" d="M36 272zM96 272q-29 0 -44.5 17.5t-15.5 47.5q0 64 60 64q61 0 61 -64q0 -30 -16 -47.5t-45 -17.5z" />
<glyph unicode="&#xb8;" d="M240 -241q-34 0 -63.5 15.5t-46.5 52.5l51 34q19 -43 56 -43q18 0 29 11t11 29q0 17 -10.5 28t-27.5 11q-7 0 -17 -2l-17 15l19 90h57l-13 -58h1q29 0 51.5 -21t22.5 -63q0 -51 -30.5 -75t-72.5 -24z" />
<glyph unicode="&#xb9;" horiz-adv-x="192" d="M6 294zM149 294h-76v312l-37 -28l-30 63l92 67h51v-414z" />
<glyph unicode="&#xba;" horiz-adv-x="329" d="M27 530q0 95 36.5 139t100.5 44q69 0 103 -43t34 -140q0 -185 -137 -185q-67 0 -102 44t-35 141zM229 530q0 65 -16 92t-49 27q-32 0 -47.5 -27t-15.5 -92q0 -66 15.5 -93.5t47.5 -27.5t48.5 27.5t16.5 93.5z" />
<glyph unicode="&#xbb;" horiz-adv-x="508" d="M322 489l146 -243v-3l-145 -244h-105l147 243l-150 247h107zM139 489l151 -245v-3l-146 -242h-105l147 241l-154 249h107z" />
<glyph unicode="&#xbc;" horiz-adv-x="677" d="M6 0zM149 293h-76v312l-37 -28l-30 63l92 67h51v-414zM460 700l-258 -700h-89l259 700h88zM377 94v56l93 261h76l-92 -248h95v146h73v-146h40v-69h-40v-94h-73v94h-172z" />
<glyph unicode="&#xbd;" horiz-adv-x="672" d="M6 0zM402 0v57l116 161q36 52 36 85q0 48 -42 48q-23 0 -38 -12.5t-27 -42.5l-59 25q17 54 51 76t79 22q54 0 84 -27.5t30 -78.5q0 -32 -15 -64t-47 -78l-74 -105l145 3v-69h-239zM149 293h-76v312l-37 -28l-30 63l92 67h51v-414zM460 700l-258 -700h-89l259 700h88z" />
<glyph unicode="&#xbe;" horiz-adv-x="746" d="M10 0zM136 285q-45 0 -77.5 20t-48.5 68l59 30q11 -31 27 -43t36 -12q26 0 40 16.5t14 47.5q0 30 -14.5 45t-40.5 15h-29v63h29q20 0 33.5 15t13.5 42q0 25 -12.5 39.5t-35.5 14.5q-45 0 -57 -51l-60 25q14 48 46 70t80 22q58 0 87.5 -29t29.5 -77q0 -33 -13.5 -58 t-37.5 -42q26 -12 41.5 -37t15.5 -61q0 -55 -32 -89t-94 -34zM542 700l-258 -700h-89l259 700h88zM446 94v56l93 261h76l-92 -248h95v146h73v-146h40v-69h-40v-94h-73v94h-172z" />
<glyph unicode="&#xbf;" horiz-adv-x="395" d="M238 300l5 -161h-36q-50 0 -79 -34.5t-29 -103.5q0 -63 27 -94.5t77 -31.5q45 0 73 23.5t41 77.5l78 -34q-10 -44 -29 -73.5t-45 -48t-58 -26.5t-68 -8q-94 0 -142.5 56t-48.5 154q0 93 40 145t107 64l6 95h81zM200 507q28 0 43.5 -17.5t15.5 -47.5q0 -32 -15.5 -48 t-43.5 -16q-61 0 -61 64q0 30 15.5 47.5t45.5 17.5z" />
<glyph unicode="&#xc0;" horiz-adv-x="508" d="M9 0zM252 579l-84 -356h169zM390 0l-32 134h-210l-32 -134h-107l181 700h129l180 -700h-109zM222 785l-95 115v7h116l60 -118v-4h-81z" />
<glyph unicode="&#xc1;" horiz-adv-x="508" d="M9 0zM252 579l-84 -356h169zM390 0l-32 134h-210l-32 -134h-107l181 700h129l180 -700h-109zM381 898l-93 -115h-80v4l60 118h113v-7z" />
<glyph unicode="&#xc2;" horiz-adv-x="508" d="M9 0zM252 579l-84 -356h169zM390 0l-32 134h-210l-32 -134h-107l181 700h129l180 -700h-109zM252 849l-47 -66h-87v3l93 119h87l94 -119v-3h-91z" />
<glyph unicode="&#xc3;" horiz-adv-x="508" d="M9 0zM252 579l-84 -356h169zM390 0l-32 134h-210l-32 -134h-107l181 700h129l180 -700h-109zM321 899h63q2 -31 -4 -51.5t-17 -33t-25 -18t-28 -5.5q-17 0 -30.5 6t-26 13.5t-23.5 13.5t-21 6q-14 0 -18 -11t-4 -25h-65q-2 31 4.5 51.5t17 33t24 17.5t26.5 5 q18 0 32.5 -6t27 -12.5t23.5 -12.5t22 -6q14 0 18 10.5t4 24.5z" />
<glyph unicode="&#xc4;" horiz-adv-x="508" d="M9 0zM252 579l-84 -356h169zM390 0l-32 134h-210l-32 -134h-107l181 700h129l180 -700h-109zM279 851q0 60 56 60q59 0 59 -60q0 -62 -59 -62q-56 0 -56 62zM122 851q0 30 15.5 45t42.5 15q58 0 58 -60q0 -62 -58 -62q-27 0 -42.5 15.5t-15.5 46.5z" />
<glyph unicode="&#xc5;" horiz-adv-x="508" d="M9 0zM252 579l-84 -356h169zM390 0l-32 134h-210l-32 -134h-107l181 700h129l180 -700h-109zM165 856q0 46 25 71t64 25q38 0 62.5 -25t24.5 -71q0 -45 -24.5 -70t-62.5 -25q-39 0 -64 25t-25 70zM214 856q0 -23 11 -36.5t29 -13.5q17 0 28.5 13.5t11.5 36.5t-11.5 36.5 t-28.5 13.5q-18 0 -29 -13.5t-11 -36.5z" />
<glyph unicode="&#xc6;" horiz-adv-x="744" d="M255 592l-88 -369h171zM389 0l-31 133h-213l-33 -133h-105l189 700h508v-91h-351l49 -209h264v-94h-245l50 -214h241v-92h-323z" />
<glyph unicode="&#xc7;" horiz-adv-x="538" d="M289 -241q-33 0 -62.5 15.5t-46.5 52.5l51 34q19 -43 56 -43q18 0 29 11t11 29q0 17 -10.5 28t-27.5 11q-5 0 -8.5 -0.5t-8.5 -1.5l-17 15l17 78q-113 8 -167.5 94.5t-54.5 268.5q0 97 15.5 165.5t47 112t78 64t109.5 20.5q40 0 74 -8.5t61 -29.5t47.5 -55.5t32.5 -85.5 l-93 -34q-16 67 -46.5 92.5t-76.5 25.5q-34 0 -60.5 -12.5t-44.5 -43t-27.5 -82t-9.5 -129.5q0 -79 9.5 -131.5t28 -83.5t45 -44t61.5 -13q45 0 78 27.5t53 95.5l89 -38q-23 -85 -73 -126t-119 -49l-11 -47h1q29 0 51.5 -21t22.5 -63q0 -51 -30.5 -75t-73.5 -24z" />
<glyph unicode="&#xc8;" horiz-adv-x="511" d="M74 0zM74 0v700h403v-92h-300v-211h256v-95h-256v-210h295v-92h-398zM246 785l-95 115v7h116l60 -118v-4h-81z" />
<glyph unicode="&#xc9;" horiz-adv-x="511" d="M74 0zM74 0v700h403v-92h-300v-211h256v-95h-256v-210h295v-92h-398zM405 898l-93 -115h-80v4l60 118h113v-7z" />
<glyph unicode="&#xca;" horiz-adv-x="511" d="M74 0zM74 0v700h403v-92h-300v-211h256v-95h-256v-210h295v-92h-398zM277 849l-47 -66h-87v3l93 119h87l94 -119v-3h-91z" />
<glyph unicode="&#xcb;" horiz-adv-x="511" d="M74 0zM74 0v700h403v-92h-300v-211h256v-95h-256v-210h295v-92h-398zM303 851q0 60 56 60q59 0 59 -60q0 -62 -59 -62q-56 0 -56 62zM146 851q0 30 15.5 45t42.5 15q58 0 58 -60q0 -62 -58 -62q-27 0 -42.5 15.5t-15.5 46.5z" />
<glyph unicode="&#xcc;" horiz-adv-x="255" d="M1 0zM74 0v700h106v-700h-106zM96 785l-95 115v7h116l60 -118v-4h-81z" />
<glyph unicode="&#xcd;" horiz-adv-x="255" d="M74 0zM74 0v700h106v-700h-106zM255 898l-93 -115h-80v4l60 118h113v-7z" />
<glyph unicode="&#xce;" horiz-adv-x="255" d="M0 0zM74 0v700h106v-700h-106zM127 849l-47 -66h-87v3l93 119h87l94 -119v-3h-91z" />
<glyph unicode="&#xcf;" horiz-adv-x="255" d="M0 0zM74 0v700h106v-700h-106zM153 851q0 60 56 60q59 0 59 -60q0 -62 -59 -62q-56 0 -56 62zM-4 851q0 30 15.5 45t42.5 15q58 0 58 -60q0 -62 -58 -62q-27 0 -42.5 15.5t-15.5 46.5z" />
<glyph unicode="&#xd0;" horiz-adv-x="593" d="M279 0h-190v312h-56v87h56v301h195q130 0 194 -83t64 -263t-65 -267t-198 -87zM195 93h81q37 0 66.5 13t50.5 43t32 79.5t11 122.5q0 71 -10 120t-29.5 79.5t-47.5 44t-65 13.5h-89v-209h99v-87h-99v-219z" />
<glyph unicode="&#xd1;" horiz-adv-x="603" d="M74 0zM432 0l-262 487l2 -487h-98v700h93l267 -495l-4 495h99v-700h-97zM369 900h63q2 -31 -4 -51.5t-17 -33t-25 -18t-28 -5.5q-17 0 -30.5 6t-26 13.5t-23.5 13.5t-21 6q-14 0 -18 -11t-4 -25h-65q-2 31 4.5 51.5t17 33t24 17.5t26.5 5q18 0 32.5 -6t27 -12.5 t23.5 -12.5t22 -6q14 0 18 10.5t4 24.5z" />
<glyph unicode="&#xd2;" horiz-adv-x="599" d="M50 0zM300 -13q-131 0 -190.5 87t-59.5 277t61.5 276t188.5 86q66 0 113 -21t77 -65t44.5 -112.5t14.5 -163.5q0 -190 -61.5 -277t-187.5 -87zM300 620q-35 0 -62 -13t-45 -44t-27 -83.5t-9 -130.5q0 -77 9 -129t27 -84t45 -45.5t62 -13.5t61.5 13.5t44.5 45t27 84 t9 131.5q0 76 -9 128t-27 83t-44.5 44.5t-61.5 13.5zM265 785l-95 115v7h116l60 -118v-4h-81z" />
<glyph unicode="&#xd3;" horiz-adv-x="599" d="M50 0zM300 -13q-131 0 -190.5 87t-59.5 277t61.5 276t188.5 86q66 0 113 -21t77 -65t44.5 -112.5t14.5 -163.5q0 -190 -61.5 -277t-187.5 -87zM300 620q-35 0 -62 -13t-45 -44t-27 -83.5t-9 -130.5q0 -77 9 -129t27 -84t45 -45.5t62 -13.5t61.5 13.5t44.5 45t27 84 t9 131.5q0 76 -9 128t-27 83t-44.5 44.5t-61.5 13.5zM424 899l-93 -115h-80v4l60 118h113v-7z" />
<glyph unicode="&#xd4;" horiz-adv-x="599" d="M50 0zM300 -13q-131 0 -190.5 87t-59.5 277t61.5 276t188.5 86q66 0 113 -21t77 -65t44.5 -112.5t14.5 -163.5q0 -190 -61.5 -277t-187.5 -87zM300 620q-35 0 -62 -13t-45 -44t-27 -83.5t-9 -130.5q0 -77 9 -129t27 -84t45 -45.5t62 -13.5t61.5 13.5t44.5 45t27 84 t9 131.5q0 76 -9 128t-27 83t-44.5 44.5t-61.5 13.5zM295 850l-47 -66h-87v3l93 119h87l94 -119v-3h-91z" />
<glyph unicode="&#xd5;" horiz-adv-x="599" d="M50 0zM300 -13q-131 0 -190.5 87t-59.5 277t61.5 276t188.5 86q66 0 113 -21t77 -65t44.5 -112.5t14.5 -163.5q0 -190 -61.5 -277t-187.5 -87zM300 620q-35 0 -62 -13t-45 -44t-27 -83.5t-9 -130.5q0 -77 9 -129t27 -84t45 -45.5t62 -13.5t61.5 13.5t44.5 45t27 84 t9 131.5q0 76 -9 128t-27 83t-44.5 44.5t-61.5 13.5zM364 900h63q2 -31 -4 -51.5t-17 -33t-25 -18t-28 -5.5q-17 0 -30.5 6t-26 13.5t-23.5 13.5t-21 6q-14 0 -18 -11t-4 -25h-65q-2 31 4.5 51.5t17 33t24 17.5t26.5 5q18 0 32.5 -6t27 -12.5t23.5 -12.5t22 -6q14 0 18 10.5 t4 24.5z" />
<glyph unicode="&#xd6;" horiz-adv-x="599" d="M50 0zM300 -13q-131 0 -190.5 87t-59.5 277t61.5 276t188.5 86q66 0 113 -21t77 -65t44.5 -112.5t14.5 -163.5q0 -190 -61.5 -277t-187.5 -87zM300 620q-35 0 -62 -13t-45 -44t-27 -83.5t-9 -130.5q0 -77 9 -129t27 -84t45 -45.5t62 -13.5t61.5 13.5t44.5 45t27 84 t9 131.5q0 76 -9 128t-27 83t-44.5 44.5t-61.5 13.5zM322 852q0 60 56 60q59 0 59 -60q0 -62 -59 -62q-56 0 -56 62zM165 852q0 30 15.5 45t42.5 15q58 0 58 -60q0 -62 -58 -62q-27 0 -42.5 15.5t-15.5 46.5z" />
<glyph unicode="&#xd7;" horiz-adv-x="380" d="M101 143l-54 46l98 123l-101 127l56 49l92 -115l88 113l54 -48l-98 -123l98 -123l-57 -49l-88 111z" />
<glyph unicode="&#xd8;" horiz-adv-x="601" d="M305 -13q-102 0 -162 57l-29 -44h-81l67 101q-45 88 -45 250q0 190 61.5 276t188.5 86q52 0 92 -13t70 -42l28 42h82l-67 -101q44 -85 44 -248q0 -190 -61.5 -277t-187.5 -87zM162 349q0 -42 3 -75.5t8 -59.5l235 352q-18 29 -43.5 41.5t-59.5 12.5q-35 0 -62 -13 t-45 -44t-27 -83.5t-9 -130.5zM305 77q35 0 61.5 13.5t44 45t26.5 84t9 131.5q0 42 -3 75t-8 59l-235 -354q19 -29 44.5 -41.5t60.5 -12.5z" />
<glyph unicode="&#xd9;" horiz-adv-x="578" d="M62 0zM411 231v469h106v-463q0 -125 -60.5 -187.5t-167.5 -62.5q-109 0 -168 62.5t-59 187.5v463h106v-469q0 -78 32.5 -113t88.5 -35q57 0 89.5 35t32.5 113zM259 785l-95 115v7h116l60 -118v-4h-81z" />
<glyph unicode="&#xda;" horiz-adv-x="578" d="M62 0zM411 231v469h106v-463q0 -125 -60.5 -187.5t-167.5 -62.5q-109 0 -168 62.5t-59 187.5v463h106v-469q0 -78 32.5 -113t88.5 -35q57 0 89.5 35t32.5 113zM418 899l-93 -115h-80v4l60 118h113v-7z" />
<glyph unicode="&#xdb;" horiz-adv-x="578" d="M62 0zM411 231v469h106v-463q0 -125 -60.5 -187.5t-167.5 -62.5q-109 0 -168 62.5t-59 187.5v463h106v-469q0 -78 32.5 -113t88.5 -35q57 0 89.5 35t32.5 113zM288 850l-47 -66h-87v3l93 119h87l94 -119v-3h-91z" />
<glyph unicode="&#xdc;" horiz-adv-x="578" d="M62 0zM411 231v469h106v-463q0 -125 -60.5 -187.5t-167.5 -62.5q-109 0 -168 62.5t-59 187.5v463h106v-469q0 -78 32.5 -113t88.5 -35q57 0 89.5 35t32.5 113zM316 852q0 60 56 60q59 0 59 -60q0 -62 -59 -62q-56 0 -56 62zM159 852q0 30 15.5 45t42.5 15q58 0 58 -60 q0 -62 -58 -62q-27 0 -42.5 15.5t-15.5 46.5z" />
<glyph unicode="&#xdd;" horiz-adv-x="502" d="M8 0zM198 273l-190 427h117l128 -323l130 323h111l-190 -427v-273h-106v273zM380 899l-93 -115h-80v4l60 118h113v-7z" />
<glyph unicode="&#xde;" horiz-adv-x="513" d="M180 0h-106v700h106v-124h126q90 0 134 -56.5t44 -157.5q0 -112 -51.5 -168.5t-139.5 -56.5h-113v-137zM293 480h-113v-249h112q42 0 65 31t23 95q0 59 -21 91t-66 32z" />
<glyph unicode="&#xdf;" horiz-adv-x="504" d="M261 328h-29v89h26q35 0 56.5 29t21.5 78q0 48 -23 76t-62 28q-45 0 -67.5 -32t-22.5 -89v-507h-101v502q0 101 48.5 157t144.5 56q87 0 135 -49.5t48 -134.5q0 -52 -19.5 -89t-52.5 -58q48 -17 75.5 -65.5t27.5 -120.5q0 -98 -48.5 -152t-129.5 -54q-21 0 -42 4.5 t-39 13.5l21 78q23 -10 49 -10q39 0 63.5 29.5t24.5 91.5q0 57 -25.5 93t-79.5 36z" />
<glyph unicode="&#xe0;" horiz-adv-x="440" d="M38 0zM190 66q41 0 68.5 37.5t27.5 106.5v14h-41q-57 0 -86 -25.5t-29 -66.5q0 -30 15.5 -48t44.5 -18zM300 0l-8 83q-19 -45 -51.5 -70t-77.5 -25q-57 0 -91 36.5t-34 101.5q0 38 14 70t39.5 54.5t62 35t81.5 12.5h51v7q-1 32 -8.5 53.5t-19 34.5t-26.5 18.5t-31 5.5 q-30 0 -52.5 -16.5t-33.5 -51.5l-76 46q20 48 61.5 78t110.5 30q83 0 128.5 -46t45.5 -155v-302h-85zM179 575l-95 115v7h116l60 -118v-4h-81z" />
<glyph unicode="&#xe1;" horiz-adv-x="440" d="M38 0zM190 66q41 0 68.5 37.5t27.5 106.5v14h-41q-57 0 -86 -25.5t-29 -66.5q0 -30 15.5 -48t44.5 -18zM300 0l-8 83q-19 -45 -51.5 -70t-77.5 -25q-57 0 -91 36.5t-34 101.5q0 38 14 70t39.5 54.5t62 35t81.5 12.5h51v7q-1 32 -8.5 53.5t-19 34.5t-26.5 18.5t-31 5.5 q-30 0 -52.5 -16.5t-33.5 -51.5l-76 46q20 48 61.5 78t110.5 30q83 0 128.5 -46t45.5 -155v-302h-85zM338 689l-93 -115h-80v4l60 118h113v-7z" />
<glyph unicode="&#xe2;" horiz-adv-x="440" d="M38 0zM190 66q41 0 68.5 37.5t27.5 106.5v14h-41q-57 0 -86 -25.5t-29 -66.5q0 -30 15.5 -48t44.5 -18zM300 0l-8 83q-19 -45 -51.5 -70t-77.5 -25q-57 0 -91 36.5t-34 101.5q0 38 14 70t39.5 54.5t62 35t81.5 12.5h51v7q-1 32 -8.5 53.5t-19 34.5t-26.5 18.5t-31 5.5 q-30 0 -52.5 -16.5t-33.5 -51.5l-76 46q20 48 61.5 78t110.5 30q83 0 128.5 -46t45.5 -155v-302h-85zM209 640l-47 -66h-87v3l93 119h87l94 -119v-3h-91z" />
<glyph unicode="&#xe3;" horiz-adv-x="440" d="M38 0zM190 66q41 0 68.5 37.5t27.5 106.5v14h-41q-57 0 -86 -25.5t-29 -66.5q0 -30 15.5 -48t44.5 -18zM300 0l-8 83q-19 -45 -51.5 -70t-77.5 -25q-57 0 -91 36.5t-34 101.5q0 38 14 70t39.5 54.5t62 35t81.5 12.5h51v7q-1 32 -8.5 53.5t-19 34.5t-26.5 18.5t-31 5.5 q-30 0 -52.5 -16.5t-33.5 -51.5l-76 46q20 48 61.5 78t110.5 30q83 0 128.5 -46t45.5 -155v-302h-85zM278 690h63q2 -31 -4 -51.5t-17 -33t-25 -18t-28 -5.5q-17 0 -30.5 6t-26 13.5t-23.5 13.5t-21 6q-14 0 -18 -11t-4 -25h-65q-2 31 4.5 51.5t17 33t24 17.5t26.5 5 q18 0 32.5 -6t27 -12.5t23.5 -12.5t22 -6q14 0 18 10.5t4 24.5z" />
<glyph unicode="&#xe4;" horiz-adv-x="440" d="M38 0zM190 66q41 0 68.5 37.5t27.5 106.5v14h-41q-57 0 -86 -25.5t-29 -66.5q0 -30 15.5 -48t44.5 -18zM300 0l-8 83q-19 -45 -51.5 -70t-77.5 -25q-57 0 -91 36.5t-34 101.5q0 38 14 70t39.5 54.5t62 35t81.5 12.5h51v7q-1 32 -8.5 53.5t-19 34.5t-26.5 18.5t-31 5.5 q-30 0 -52.5 -16.5t-33.5 -51.5l-76 46q20 48 61.5 78t110.5 30q83 0 128.5 -46t45.5 -155v-302h-85zM236 642q0 60 56 60q59 0 59 -60q0 -62 -59 -62q-56 0 -56 62zM79 642q0 30 15.5 45t42.5 15q58 0 58 -60q0 -62 -58 -62q-27 0 -42.5 15.5t-15.5 46.5z" />
<glyph unicode="&#xe5;" horiz-adv-x="440" d="M38 0zM190 66q41 0 68.5 37.5t27.5 106.5v14h-41q-57 0 -86 -25.5t-29 -66.5q0 -30 15.5 -48t44.5 -18zM300 0l-8 83q-19 -45 -51.5 -70t-77.5 -25q-57 0 -91 36.5t-34 101.5q0 38 14 70t39.5 54.5t62 35t81.5 12.5h51v7q-1 32 -8.5 53.5t-19 34.5t-26.5 18.5t-31 5.5 q-30 0 -52.5 -16.5t-33.5 -51.5l-76 46q20 48 61.5 78t110.5 30q83 0 128.5 -46t45.5 -155v-302h-85zM122 647q0 46 25 71t64 25q38 0 62.5 -25t24.5 -71q0 -45 -24.5 -70t-62.5 -25q-39 0 -64 25t-25 70zM171 647q0 -23 11 -36.5t29 -13.5q17 0 28.5 13.5t11.5 36.5 t-11.5 36.5t-28.5 13.5q-18 0 -29 -13.5t-11 -36.5z" />
<glyph unicode="&#xe6;" horiz-adv-x="679" d="M475 -13q-52 0 -91.5 25.5t-58.5 81.5q-21 -49 -61 -77.5t-91 -28.5q-61 0 -98 36.5t-37 102.5q0 37 14 68t39.5 53t62 34t81.5 12h51v3q-1 68 -24 94.5t-62 26.5q-30 0 -52 -17t-33 -52l-76 46q20 48 60.5 78t109.5 30q45 0 79 -18t52 -63q46 81 134 81q45 0 77.5 -18.5 t52.5 -50t29.5 -74.5t9.5 -91v-25q0 -12 -2 -25h-258v-4q5 -79 29 -111t69 -32q62 0 87 79l78 -37q-10 -26 -24 -49t-34 -40.5t-48 -27.5t-65 -10zM187 66q45 0 72 37.5t27 106.5v10h-41q-57 0 -86 -25t-29 -63q0 -30 15.5 -48t41.5 -18zM472 418q-36 0 -58.5 -27.5 t-27.5 -96.5h164q-3 124 -78 124z" />
<glyph unicode="&#xe7;" horiz-adv-x="412" d="M214 -241q-33 0 -63 15.5t-47 52.5l51 34q21 -43 57 -43q17 0 28.5 11t11.5 29q0 17 -10.5 28t-28.5 11q-5 0 -8.5 -0.5t-7.5 -1.5l-17 15l17 79q-76 8 -118 69.5t-42 187.5q0 133 51 195t143 62q64 0 102.5 -32.5t58.5 -101.5l-83 -38q-13 44 -32 64.5t-48 20.5 q-47 0 -70.5 -37.5t-23.5 -133.5q0 -95 22 -134.5t70 -39.5q62 0 89 84l80 -35q-17 -49 -49.5 -86t-93.5 -45l-11 -47h2q29 0 51.5 -21t22.5 -63q0 -51 -30.5 -75t-73.5 -24z" />
<glyph unicode="&#xe8;" horiz-adv-x="428" d="M37 0zM224 -13q-86 0 -136.5 62.5t-50.5 194.5q0 126 48 192.5t139 66.5q45 0 77 -18.5t52.5 -50.5t30.5 -76t10 -95q0 -13 -0.5 -25.5t-1.5 -25.5h-258q4 -77 28.5 -108.5t68.5 -31.5q63 0 87 79l78 -37q-10 -26 -24 -49t-34.5 -40.5t-48.5 -27.5t-65 -10zM222 418 q-38 0 -60.5 -30t-27.5 -99h165q-1 68 -21 98.5t-56 30.5zM188 575l-95 115v7h116l60 -118v-4h-81z" />
<glyph unicode="&#xe9;" horiz-adv-x="428" d="M37 0zM224 -13q-86 0 -136.5 62.5t-50.5 194.5q0 126 48 192.5t139 66.5q45 0 77 -18.5t52.5 -50.5t30.5 -76t10 -95q0 -13 -0.5 -25.5t-1.5 -25.5h-258q4 -77 28.5 -108.5t68.5 -31.5q63 0 87 79l78 -37q-10 -26 -24 -49t-34.5 -40.5t-48.5 -27.5t-65 -10zM222 418 q-38 0 -60.5 -30t-27.5 -99h165q-1 68 -21 98.5t-56 30.5zM347 688l-93 -115h-80v4l60 118h113v-7z" />
<glyph unicode="&#xea;" horiz-adv-x="428" d="M37 0zM224 -13q-86 0 -136.5 62.5t-50.5 194.5q0 126 48 192.5t139 66.5q45 0 77 -18.5t52.5 -50.5t30.5 -76t10 -95q0 -13 -0.5 -25.5t-1.5 -25.5h-258q4 -77 28.5 -108.5t68.5 -31.5q63 0 87 79l78 -37q-10 -26 -24 -49t-34.5 -40.5t-48.5 -27.5t-65 -10zM222 418 q-38 0 -60.5 -30t-27.5 -99h165q-1 68 -21 98.5t-56 30.5zM218 639l-47 -66h-87v3l93 119h87l94 -119v-3h-91z" />
<glyph unicode="&#xeb;" horiz-adv-x="428" d="M37 0zM224 -13q-86 0 -136.5 62.5t-50.5 194.5q0 126 48 192.5t139 66.5q45 0 77 -18.5t52.5 -50.5t30.5 -76t10 -95q0 -13 -0.5 -25.5t-1.5 -25.5h-258q4 -77 28.5 -108.5t68.5 -31.5q63 0 87 79l78 -37q-10 -26 -24 -49t-34.5 -40.5t-48.5 -27.5t-65 -10zM222 418 q-38 0 -60.5 -30t-27.5 -99h165q-1 68 -21 98.5t-56 30.5zM245 641q0 60 56 60q59 0 59 -60q0 -62 -59 -62q-56 0 -56 62zM88 641q0 30 15.5 45t42.5 15q58 0 58 -60q0 -62 -58 -62q-27 0 -42.5 15.5t-15.5 46.5z" />
<glyph unicode="&#xec;" horiz-adv-x="223" d="M0 0zM60 490h102v-490h-102v490zM80 575l-95 115v7h116l60 -118v-4h-81z" />
<glyph unicode="&#xed;" horiz-adv-x="223" d="M60 0zM60 490h102v-490h-102v490zM239 688l-93 -115h-80v4l60 118h113v-7z" />
<glyph unicode="&#xee;" horiz-adv-x="223" d="M0 0zM60 490h102v-490h-102v490zM111 639l-47 -66h-87v3l93 119h87l94 -119v-3h-91z" />
<glyph unicode="&#xef;" horiz-adv-x="223" d="M0 0zM60 490h102v-490h-102v490zM136 641q0 60 56 60q59 0 59 -60q0 -62 -59 -62q-56 0 -56 62zM-21 641q0 30 15.5 45t42.5 15q58 0 58 -60q0 -62 -58 -62q-27 0 -42.5 15.5t-15.5 46.5z" />
<glyph unicode="&#xf0;" d="M229 -13q-95 0 -143.5 61t-48.5 194q0 132 49 193t135 61q55 0 90 -44q-13 68 -45 121l-60 -48l-27 47l52 42q-40 39 -98 58l33 71q40 -9 73 -28t59 -46l67 54l28 -47l-60 -49q43 -63 64.5 -154.5t21.5 -209.5v-16q0 -135 -48 -197.5t-142 -62.5zM321 241q0 94 -21.5 133 t-70.5 39t-71.5 -39t-22.5 -133q0 -92 23.5 -131t70.5 -39t69.5 39t22.5 131z" />
<glyph unicode="&#xf1;" horiz-adv-x="488" d="M60 0zM60 490h86l9 -93q22 57 58 81.5t81 24.5q72 0 105 -48t33 -137v-318h-101v295q0 63 -19 89.5t-55 26.5q-42 0 -68.5 -42.5t-27.5 -123.5v-245h-101v490zM326 689h63q2 -31 -4 -51.5t-17 -33t-25 -18t-28 -5.5q-17 0 -30.5 6t-26 13.5t-23.5 13.5t-21 6 q-14 0 -18 -11t-4 -25h-65q-2 31 4.5 51.5t17 33t24 17.5t26.5 5q18 0 32.5 -6t27 -12.5t23.5 -12.5t22 -6q14 0 18 10.5t4 24.5z" />
<glyph unicode="&#xf2;" d="M37 0zM37 247q0 133 50.5 194.5t140.5 61.5q96 0 143.5 -60.5t47.5 -195.5q0 -132 -48.5 -196t-142.5 -64q-95 0 -143 62.5t-48 197.5zM320 246q0 93 -22 131.5t-70 38.5q-49 0 -71 -38.5t-22 -131.5q0 -47 5.5 -80t17 -53.5t29 -29.5t41.5 -9t41.5 9t28.5 29.5 t16.5 53.5t5.5 80zM196 575l-95 115v7h116l60 -118v-4h-81z" />
<glyph unicode="&#xf3;" d="M37 0zM37 247q0 133 50.5 194.5t140.5 61.5q96 0 143.5 -60.5t47.5 -195.5q0 -132 -48.5 -196t-142.5 -64q-95 0 -143 62.5t-48 197.5zM320 246q0 93 -22 131.5t-70 38.5q-49 0 -71 -38.5t-22 -131.5q0 -47 5.5 -80t17 -53.5t29 -29.5t41.5 -9t41.5 9t28.5 29.5 t16.5 53.5t5.5 80zM355 688l-93 -115h-80v4l60 118h113v-7z" />
<glyph unicode="&#xf4;" d="M37 0zM37 247q0 133 50.5 194.5t140.5 61.5q96 0 143.5 -60.5t47.5 -195.5q0 -132 -48.5 -196t-142.5 -64q-95 0 -143 62.5t-48 197.5zM320 246q0 93 -22 131.5t-70 38.5q-49 0 -71 -38.5t-22 -131.5q0 -47 5.5 -80t17 -53.5t29 -29.5t41.5 -9t41.5 9t28.5 29.5 t16.5 53.5t5.5 80zM227 639l-47 -66h-87v3l93 119h87l94 -119v-3h-91z" />
<glyph unicode="&#xf5;" d="M37 0zM37 247q0 133 50.5 194.5t140.5 61.5q96 0 143.5 -60.5t47.5 -195.5q0 -132 -48.5 -196t-142.5 -64q-95 0 -143 62.5t-48 197.5zM320 246q0 93 -22 131.5t-70 38.5q-49 0 -71 -38.5t-22 -131.5q0 -47 5.5 -80t17 -53.5t29 -29.5t41.5 -9t41.5 9t28.5 29.5 t16.5 53.5t5.5 80zM295 689h63q2 -31 -4 -51.5t-17 -33t-25 -18t-28 -5.5q-17 0 -30.5 6t-26 13.5t-23.5 13.5t-21 6q-14 0 -18 -11t-4 -25h-65q-2 31 4.5 51.5t17 33t24 17.5t26.5 5q18 0 32.5 -6t27 -12.5t23.5 -12.5t22 -6q14 0 18 10.5t4 24.5z" />
<glyph unicode="&#xf6;" d="M37 0zM37 247q0 133 50.5 194.5t140.5 61.5q96 0 143.5 -60.5t47.5 -195.5q0 -132 -48.5 -196t-142.5 -64q-95 0 -143 62.5t-48 197.5zM320 246q0 93 -22 131.5t-70 38.5q-49 0 -71 -38.5t-22 -131.5q0 -47 5.5 -80t17 -53.5t29 -29.5t41.5 -9t41.5 9t28.5 29.5 t16.5 53.5t5.5 80zM253 641q0 60 56 60q59 0 59 -60q0 -62 -59 -62q-56 0 -56 62zM96 641q0 30 15.5 45t42.5 15q58 0 58 -60q0 -62 -58 -62q-27 0 -42.5 15.5t-15.5 46.5z" />
<glyph unicode="&#xf7;" horiz-adv-x="387" d="M137 479q0 30 15 46t41 16q56 0 56 -62q0 -29 -14.5 -46t-41.5 -17q-26 0 -41 17t-15 46zM348 349v-78h-308v78h308zM137 144q0 30 15 46t41 16q56 0 56 -62q0 -63 -56 -63q-26 0 -41 16t-15 47z" />
<glyph unicode="&#xf8;" horiz-adv-x="463" d="M233 -13q-77 0 -124 41l-21 -28h-72l56 77q-15 32 -23 73.5t-8 96.5q0 133 51 194.5t141 61.5q39 0 70.5 -10t54.5 -32l21 29h71l-56 -78q29 -59 29 -165q0 -132 -48.5 -196t-141.5 -64zM233 421q-51 0 -73 -40t-22 -135q0 -23 2 -42.5t4 -36.5l156 219q-11 19 -27.5 27 t-39.5 8zM233 69q48 0 70.5 40t22.5 137q0 22 -1.5 40.5t-3.5 33.5l-155 -219q20 -32 67 -32z" />
<glyph unicode="&#xf9;" horiz-adv-x="485" d="M55 0zM425 0h-86l-7 85q-21 -51 -56 -74.5t-77 -23.5q-75 0 -109.5 51t-34.5 138v314h101v-297q0 -117 76 -117q41 0 65.5 40.5t26.5 120.5v253h101v-490zM208 575l-95 115v7h116l60 -118v-4h-81z" />
<glyph unicode="&#xfa;" horiz-adv-x="485" d="M55 0zM425 0h-86l-7 85q-21 -51 -56 -74.5t-77 -23.5q-75 0 -109.5 51t-34.5 138v314h101v-297q0 -117 76 -117q41 0 65.5 40.5t26.5 120.5v253h101v-490zM367 688l-93 -115h-80v4l60 118h113v-7z" />
<glyph unicode="&#xfb;" horiz-adv-x="485" d="M55 0zM425 0h-86l-7 85q-21 -51 -56 -74.5t-77 -23.5q-75 0 -109.5 51t-34.5 138v314h101v-297q0 -117 76 -117q41 0 65.5 40.5t26.5 120.5v253h101v-490zM238 639l-47 -66h-87v3l93 119h87l94 -119v-3h-91z" />
<glyph unicode="&#xfc;" horiz-adv-x="485" d="M55 0zM425 0h-86l-7 85q-21 -51 -56 -74.5t-77 -23.5q-75 0 -109.5 51t-34.5 138v314h101v-297q0 -117 76 -117q41 0 65.5 40.5t26.5 120.5v253h101v-490zM265 641q0 60 56 60q59 0 59 -60q0 -62 -59 -62q-56 0 -56 62zM108 641q0 30 15.5 45t42.5 15q58 0 58 -60 q0 -62 -58 -62q-27 0 -42.5 15.5t-15.5 46.5z" />
<glyph unicode="&#xfd;" horiz-adv-x="416" d="M4 0zM145 -58l12 49l-150 499h108l95 -368l96 368h103l-176 -583q-22 -72 -59 -98.5t-87 -26.5q-25 0 -43.5 4t-39.5 14l22 82q31 -11 52 -11q27 0 42.5 15.5t24.5 55.5zM335 688l-93 -115h-80v4l60 118h113v-7z" />
<glyph unicode="&#xfe;" horiz-adv-x="477" d="M161 244q0 -91 25.5 -132t63.5 -41q46 0 68 42.5t22 131.5q0 91 -21.5 131.5t-65.5 40.5q-41 0 -66.5 -40.5t-25.5 -132.5zM60 -187v887h101v-280q18 41 51.5 62t74.5 21q74 0 113.5 -65t39.5 -190t-42 -193t-127 -68q-69 0 -110 66v-240h-101z" />
<glyph unicode="&#xff;" horiz-adv-x="416" d="M4 0zM145 -58l12 49l-150 499h108l95 -368l96 368h103l-176 -583q-22 -72 -59 -98.5t-87 -26.5q-25 0 -43.5 4t-39.5 14l22 82q31 -11 52 -11q27 0 42.5 15.5t24.5 55.5zM233 641q0 60 56 60q59 0 59 -60q0 -62 -59 -62q-56 0 -56 62zM76 641q0 30 15.5 45t42.5 15 q58 0 58 -60q0 -62 -58 -62q-27 0 -42.5 15.5t-15.5 46.5z" />
<glyph unicode="&#x100;" horiz-adv-x="508" d="M9 0zM252 579l-84 -356h169zM390 0l-32 134h-210l-32 -134h-107l181 700h129l180 -700h-109zM358 876v-69h-210v69h210z" />
<glyph unicode="&#x101;" horiz-adv-x="440" d="M38 0zM190 66q41 0 68.5 37.5t27.5 106.5v14h-41q-57 0 -86 -25.5t-29 -66.5q0 -30 15.5 -48t44.5 -18zM300 0l-8 83q-19 -45 -51.5 -70t-77.5 -25q-57 0 -91 36.5t-34 101.5q0 38 14 70t39.5 54.5t62 35t81.5 12.5h51v7q-1 32 -8.5 53.5t-19 34.5t-26.5 18.5t-31 5.5 q-30 0 -52.5 -16.5t-33.5 -51.5l-76 46q20 48 61.5 78t110.5 30q83 0 128.5 -46t45.5 -155v-302h-85zM315 667v-69h-210v69h210z" />
<glyph unicode="&#x102;" horiz-adv-x="508" d="M9 0zM252 579l-84 -356h169zM390 0l-32 134h-210l-32 -134h-107l181 700h129l180 -700h-109zM310 904h66q0 -73 -32 -100.5t-90 -27.5t-90 27.5t-32 100.5h66q0 -37 13.5 -51t41.5 -14q29 0 43 14t14 51z" />
<glyph unicode="&#x103;" horiz-adv-x="440" d="M38 0zM190 66q41 0 68.5 37.5t27.5 106.5v14h-41q-57 0 -86 -25.5t-29 -66.5q0 -30 15.5 -48t44.5 -18zM300 0l-8 83q-19 -45 -51.5 -70t-77.5 -25q-57 0 -91 36.5t-34 101.5q0 38 14 70t39.5 54.5t62 35t81.5 12.5h51v7q-1 32 -8.5 53.5t-19 34.5t-26.5 18.5t-31 5.5 q-30 0 -52.5 -16.5t-33.5 -51.5l-76 46q20 48 61.5 78t110.5 30q83 0 128.5 -46t45.5 -155v-302h-85zM267 695h66q0 -73 -32 -100.5t-90 -27.5t-90 27.5t-32 100.5h66q0 -37 13.5 -51t41.5 -14q29 0 43 14t14 51z" />
<glyph unicode="&#x104;" horiz-adv-x="508" d="M498 -188q-19 -14 -38.5 -22t-44.5 -8q-20 0 -39 5.5t-34 19t-24 35.5t-9 55q0 49 22.5 81.5t52.5 46.5l-26 109h-211l-32 -134h-106l181 700h129l180 -700h-52q-19 -2 -33 -10.5t-23.5 -21.5t-14 -28.5t-4.5 -31.5q0 -32 15.5 -44t35.5 -12q26 0 46 17zM252 581 l-85 -358h171z" />
<glyph unicode="&#x105;" horiz-adv-x="440" d="M424 -188q-18 -14 -37.5 -21.5t-44.5 -7.5q-20 0 -39 5.5t-34 18.5t-24 35t-9 55q0 44 18 75t44 49l-6 62q-19 -45 -51.5 -70t-77.5 -25q-57 0 -91 36.5t-34 101.5q0 38 14 70t39.5 54.5t62 35t81.5 12.5h51v7q-1 32 -8.5 53.5t-19 34.5t-26.5 18.5t-31 5.5 q-30 0 -52.5 -16.5t-33.5 -51.5l-76 46q20 48 61.5 78t110.5 30q83 0 128.5 -46t45.5 -155v-302h-15q-18 -2 -31 -10.5t-22 -21.5t-13.5 -28.5t-4.5 -31.5q0 -31 15.5 -43.5t35.5 -12.5q26 0 46 17zM190 66q41 0 68.5 37.5t27.5 106.5v14h-41q-57 0 -86 -25.5t-29 -66.5 q0 -30 15.5 -48t44.5 -18z" />
<glyph unicode="&#x106;" horiz-adv-x="538" d="M50 0zM298 -13q-63 0 -109.5 20.5t-77 64.5t-46 113t-15.5 166t15.5 165.5t47 112t78 64t109.5 20.5q40 0 74 -8.5t61 -29.5t47.5 -55.5t32.5 -85.5l-93 -34q-16 67 -46.5 92.5t-76.5 25.5q-34 0 -60.5 -12.5t-44.5 -43t-27.5 -82t-9.5 -129.5q0 -79 9.5 -131.5t28 -83.5 t45 -44t61.5 -13q45 0 78 27.5t53 95.5l89 -38q-26 -93 -84 -135t-139 -42zM424 899l-93 -115h-80v4l60 118h113v-7z" />
<glyph unicode="&#x107;" horiz-adv-x="412" d="M37 0zM224 -13q-44 0 -78.5 15t-58.5 46.5t-37 80.5t-13 117q0 133 50.5 195t142.5 62q65 0 103.5 -32.5t58.5 -101.5l-84 -38q-23 85 -79 85q-47 0 -70.5 -37.5t-23.5 -133.5q0 -93 22 -132t70 -39q32 0 52.5 20t33.5 64l83 -37q-19 -59 -58.5 -96.5t-113.5 -37.5z M351 688l-93 -115h-80v4l60 118h113v-7z" />
<glyph unicode="&#x108;" horiz-adv-x="538" d="M50 0zM298 -13q-63 0 -109.5 20.5t-77 64.5t-46 113t-15.5 166t15.5 165.5t47 112t78 64t109.5 20.5q40 0 74 -8.5t61 -29.5t47.5 -55.5t32.5 -85.5l-93 -34q-16 67 -46.5 92.5t-76.5 25.5q-34 0 -60.5 -12.5t-44.5 -43t-27.5 -82t-9.5 -129.5q0 -79 9.5 -131.5t28 -83.5 t45 -44t61.5 -13q45 0 78 27.5t53 95.5l89 -38q-26 -93 -84 -135t-139 -42zM294 850l-47 -66h-87v3l93 119h87l94 -119v-3h-91z" />
<glyph unicode="&#x109;" horiz-adv-x="412" d="M37 0zM224 -13q-44 0 -78.5 15t-58.5 46.5t-37 80.5t-13 117q0 133 50.5 195t142.5 62q65 0 103.5 -32.5t58.5 -101.5l-84 -38q-23 85 -79 85q-47 0 -70.5 -37.5t-23.5 -133.5q0 -93 22 -132t70 -39q32 0 52.5 20t33.5 64l83 -37q-19 -59 -58.5 -96.5t-113.5 -37.5z M222 639l-47 -66h-87v3l93 119h87l94 -119v-3h-91z" />
<glyph unicode="&#x10a;" horiz-adv-x="538" d="M50 0zM298 -13q-63 0 -109.5 20.5t-77 64.5t-46 113t-15.5 166t15.5 165.5t47 112t78 64t109.5 20.5q40 0 74 -8.5t61 -29.5t47.5 -55.5t32.5 -85.5l-93 -34q-16 67 -46.5 92.5t-76.5 25.5q-34 0 -60.5 -12.5t-44.5 -43t-27.5 -82t-9.5 -129.5q0 -79 9.5 -131.5t28 -83.5 t45 -44t61.5 -13q45 0 78 27.5t53 95.5l89 -38q-26 -93 -84 -135t-139 -42zM236 851q0 31 15.5 46t44.5 15q59 0 59 -61q0 -62 -59 -62q-29 0 -44.5 15.5t-15.5 46.5z" />
<glyph unicode="&#x10b;" horiz-adv-x="412" d="M37 0zM224 -13q-44 0 -78.5 15t-58.5 46.5t-37 80.5t-13 117q0 133 50.5 195t142.5 62q65 0 103.5 -32.5t58.5 -101.5l-84 -38q-23 85 -79 85q-47 0 -70.5 -37.5t-23.5 -133.5q0 -93 22 -132t70 -39q32 0 52.5 20t33.5 64l83 -37q-19 -59 -58.5 -96.5t-113.5 -37.5z M163 640q0 31 15.5 46t44.5 15q59 0 59 -61q0 -62 -59 -62q-29 0 -44.5 15.5t-15.5 46.5z" />
<glyph unicode="&#x10c;" horiz-adv-x="538" d="M50 0zM298 -13q-63 0 -109.5 20.5t-77 64.5t-46 113t-15.5 166t15.5 165.5t47 112t78 64t109.5 20.5q40 0 74 -8.5t61 -29.5t47.5 -55.5t32.5 -85.5l-93 -34q-16 67 -46.5 92.5t-76.5 25.5q-34 0 -60.5 -12.5t-44.5 -43t-27.5 -82t-9.5 -129.5q0 -79 9.5 -131.5t28 -83.5 t45 -44t61.5 -13q45 0 78 27.5t53 95.5l89 -38q-26 -93 -84 -135t-139 -42zM299 842l50 64h87v-3l-95 -119h-87l-92 119v3h90z" />
<glyph unicode="&#x10d;" horiz-adv-x="412" d="M37 0zM224 -13q-44 0 -78.5 15t-58.5 46.5t-37 80.5t-13 117q0 133 50.5 195t142.5 62q65 0 103.5 -32.5t58.5 -101.5l-84 -38q-23 85 -79 85q-47 0 -70.5 -37.5t-23.5 -133.5q0 -93 22 -132t70 -39q32 0 52.5 20t33.5 64l83 -37q-19 -59 -58.5 -96.5t-113.5 -37.5z M226 631l50 64h87v-3l-95 -119h-87l-92 119v3h90z" />
<glyph unicode="&#x10e;" horiz-adv-x="578" d="M74 0zM265 0h-191v700h195q130 0 194.5 -83t64.5 -263t-65 -267t-198 -87zM262 93q36 0 65.5 13t50.5 43t32.5 79.5t11.5 122.5q0 70 -10 119t-29.5 79.5t-47.5 44t-65 13.5h-90v-514h82zM298 841l50 64h87v-3l-95 -119h-87l-92 119v3h90z" />
<glyph unicode="&#x10f;" horiz-adv-x="548" d="M37 0zM540 467h-67l5 233h86zM315 243q0 93 -25.5 134.5t-65.5 41.5q-44 0 -66 -42t-22 -132t22 -132t66 -42q40 0 65.5 41t25.5 131zM332 0l-8 78q-20 -45 -52 -68t-79 -23q-72 0 -114 65t-42 192q0 128 44 193.5t120 65.5q38 0 65.5 -20t47.5 -58v275h101v-700h-83z " />
<glyph unicode="&#x110;" horiz-adv-x="593" d="M279 0h-190v312h-56v87h56v301h195q130 0 194 -83t64 -263t-65 -267t-198 -87zM195 93h81q37 0 66.5 13t50.5 43t32 79.5t11 122.5q0 71 -10 120t-29.5 79.5t-47.5 44t-65 13.5h-89v-209h99v-87h-99v-219z" />
<glyph unicode="&#x111;" horiz-adv-x="487" d="M315 243q0 92 -24.5 133t-66.5 41q-43 0 -65.5 -41t-22.5 -131t21.5 -132t66.5 -42q41 0 66 41t25 131zM324 78q-20 -45 -52 -68t-79 -23q-72 0 -114 65t-42 191q0 127 44 192.5t120 65.5q38 0 65.5 -20t47.5 -57v130h-105v65h105v81h102v-81h52v-65h-52v-554h-84z" />
<glyph unicode="&#x112;" horiz-adv-x="511" d="M74 0zM74 0v700h403v-92h-300v-211h256v-95h-256v-210h295v-92h-398zM383 876v-69h-210v69h210z" />
<glyph unicode="&#x113;" horiz-adv-x="428" d="M37 0zM224 -13q-86 0 -136.5 62.5t-50.5 194.5q0 126 48 192.5t139 66.5q45 0 77 -18.5t52.5 -50.5t30.5 -76t10 -95q0 -13 -0.5 -25.5t-1.5 -25.5h-258q4 -77 28.5 -108.5t68.5 -31.5q63 0 87 79l78 -37q-10 -26 -24 -49t-34.5 -40.5t-48.5 -27.5t-65 -10zM222 418 q-38 0 -60.5 -30t-27.5 -99h165q-1 68 -21 98.5t-56 30.5zM324 666v-69h-210v69h210z" />
<glyph unicode="&#x114;" horiz-adv-x="511" d="M74 0zM74 0v700h403v-92h-300v-211h256v-95h-256v-210h295v-92h-398zM334 904h66q0 -73 -32 -100.5t-90 -27.5t-90 27.5t-32 100.5h66q0 -37 13.5 -51t41.5 -14q29 0 43 14t14 51z" />
<glyph unicode="&#x115;" horiz-adv-x="428" d="M37 0zM224 -13q-86 0 -136.5 62.5t-50.5 194.5q0 126 48 192.5t139 66.5q45 0 77 -18.5t52.5 -50.5t30.5 -76t10 -95q0 -13 -0.5 -25.5t-1.5 -25.5h-258q4 -77 28.5 -108.5t68.5 -31.5q63 0 87 79l78 -37q-10 -26 -24 -49t-34.5 -40.5t-48.5 -27.5t-65 -10zM222 418 q-38 0 -60.5 -30t-27.5 -99h165q-1 68 -21 98.5t-56 30.5zM276 694h66q0 -73 -32 -100.5t-90 -27.5t-90 27.5t-32 100.5h66q0 -37 13.5 -51t41.5 -14q29 0 43 14t14 51z" />
<glyph unicode="&#x116;" horiz-adv-x="511" d="M74 0zM74 0v700h403v-92h-300v-211h256v-95h-256v-210h295v-92h-398zM217 850q0 31 15.5 46t44.5 15q59 0 59 -61q0 -62 -59 -62q-29 0 -44.5 15.5t-15.5 46.5z" />
<glyph unicode="&#x117;" horiz-adv-x="428" d="M37 0zM224 -13q-86 0 -136.5 62.5t-50.5 194.5q0 126 48 192.5t139 66.5q45 0 77 -18.5t52.5 -50.5t30.5 -76t10 -95q0 -13 -0.5 -25.5t-1.5 -25.5h-258q4 -77 28.5 -108.5t68.5 -31.5q63 0 87 79l78 -37q-10 -26 -24 -49t-34.5 -40.5t-48.5 -27.5t-65 -10zM222 418 q-38 0 -60.5 -30t-27.5 -99h165q-1 68 -21 98.5t-56 30.5zM159 640q0 31 15.5 46t44.5 15q59 0 59 -61q0 -62 -59 -62q-29 0 -44.5 15.5t-15.5 46.5z" />
<glyph unicode="&#x118;" horiz-adv-x="511" d="M479 -188q-19 -14 -38.5 -22t-43.5 -8q-20 0 -39 5.5t-34 19t-24.5 35.5t-9.5 55q0 32 10.5 58.5t27.5 44.5h-254v700h403v-92h-300v-211h256v-95h-256v-210h295v-92h-44q-19 -2 -33 -10.5t-23.5 -21.5t-14 -28.5t-4.5 -31.5q0 -32 15.5 -44t35.5 -12q26 0 46 17z" />
<glyph unicode="&#x119;" horiz-adv-x="428" d="M271 -218q-20 0 -39 5.5t-34 19t-24 35.5t-9 55q0 29 8 52t21 40q-74 11 -115.5 72.5t-41.5 182.5q0 126 48 192.5t139 66.5q45 0 77 -18.5t52.5 -50.5t30.5 -76t10 -95q0 -13 -0.5 -25.5t-1.5 -25.5h-258q4 -77 28.5 -108.5t68.5 -31.5q63 0 87 79l78 -37 q-17 -42 -43.5 -74.5t-73.5 -45.5q-26 -11 -38.5 -35.5t-12.5 -50.5q0 -32 15.5 -44t35.5 -12q26 0 46 17l28 -57q-18 -14 -37.5 -22t-44.5 -8zM222 418q-38 0 -60.5 -30t-27.5 -99h165q-1 68 -21 98.5t-56 30.5z" />
<glyph unicode="&#x11a;" horiz-adv-x="511" d="M74 0zM74 0v700h403v-92h-300v-211h256v-95h-256v-210h295v-92h-398zM280 841l50 64h87v-3l-95 -119h-87l-92 119v3h90z" />
<glyph unicode="&#x11b;" horiz-adv-x="428" d="M37 0zM224 -13q-86 0 -136.5 62.5t-50.5 194.5q0 126 48 192.5t139 66.5q45 0 77 -18.5t52.5 -50.5t30.5 -76t10 -95q0 -13 -0.5 -25.5t-1.5 -25.5h-258q4 -77 28.5 -108.5t68.5 -31.5q63 0 87 79l78 -37q-10 -26 -24 -49t-34.5 -40.5t-48.5 -27.5t-65 -10zM222 418 q-38 0 -60.5 -30t-27.5 -99h165q-1 68 -21 98.5t-56 30.5zM222 631l50 64h87v-3l-95 -119h-87l-92 119v3h90z" />
<glyph unicode="&#x11c;" horiz-adv-x="569" d="M50 0zM281 -13q-110 0 -170.5 88.5t-60.5 275.5q0 97 15.5 165.5t47 112t78.5 64t110 20.5q40 0 74 -9t61 -29t47 -53.5t32 -82.5l-91 -36q-19 67 -49.5 91.5t-73.5 24.5q-35 0 -62 -12t-45.5 -42.5t-28 -82.5t-9.5 -131t9.5 -131.5t28 -84.5t45 -45.5t61.5 -13.5 q21 0 42.5 8.5t38.5 28.5t28 54.5t12 85.5v21h-120v86h217v-360h-73l-11 87q-21 -49 -61.5 -74.5t-91.5 -25.5zM297 850l-47 -66h-87v3l93 119h87l94 -119v-3h-91z" />
<glyph unicode="&#x11d;" horiz-adv-x="475" d="M29 0zM219 639l-47 -66h-87v3l93 119h87l94 -119v-3h-91zM315 254q0 85 -25 124.5t-65 39.5q-44 0 -66.5 -39t-22.5 -126q0 -88 22.5 -128.5t63.5 -40.5q42 0 67.5 41t25.5 129zM216 -217q-75 0 -119.5 32t-67.5 93l83 43q26 -85 98 -85q104 0 104 144v74 q-18 -40 -49 -61t-70 -21q-72 0 -115 61.5t-43 187.5q0 125 44.5 188.5t124.5 63.5q76 0 119 -84l7 71h84v-474q0 -119 -54.5 -176t-145.5 -57z" />
<glyph unicode="&#x11e;" horiz-adv-x="569" d="M50 0zM281 -13q-110 0 -170.5 88.5t-60.5 275.5q0 97 15.5 165.5t47 112t78.5 64t110 20.5q40 0 74 -9t61 -29t47 -53.5t32 -82.5l-91 -36q-19 67 -49.5 91.5t-73.5 24.5q-35 0 -62 -12t-45.5 -42.5t-28 -82.5t-9.5 -131t9.5 -131.5t28 -84.5t45 -45.5t61.5 -13.5 q21 0 42.5 8.5t38.5 28.5t28 54.5t12 85.5v21h-120v86h217v-360h-73l-11 87q-21 -49 -61.5 -74.5t-91.5 -25.5zM354 905h66q0 -73 -32 -100.5t-90 -27.5t-90 27.5t-32 100.5h66q0 -37 13.5 -51t41.5 -14q29 0 43 14t14 51z" />
<glyph unicode="&#x11f;" horiz-adv-x="475" d="M29 0zM315 254q0 85 -25 124.5t-65 39.5q-44 0 -66.5 -39t-22.5 -126q0 -88 22.5 -128.5t63.5 -40.5q42 0 67.5 41t25.5 129zM216 -217q-75 0 -119.5 32t-67.5 93l83 43q26 -85 98 -85q104 0 104 144v74q-18 -40 -49 -61t-70 -21q-72 0 -115 61.5t-43 187.5 q0 125 44.5 188.5t124.5 63.5q76 0 119 -84l7 71h84v-474q0 -119 -54.5 -176t-145.5 -57zM276 694h66q0 -73 -32 -100.5t-90 -27.5t-90 27.5t-32 100.5h66q0 -37 13.5 -51t41.5 -14q29 0 43 14t14 51z" />
<glyph unicode="&#x120;" horiz-adv-x="569" d="M50 0zM281 -13q-110 0 -170.5 88.5t-60.5 275.5q0 97 15.5 165.5t47 112t78.5 64t110 20.5q40 0 74 -9t61 -29t47 -53.5t32 -82.5l-91 -36q-19 67 -49.5 91.5t-73.5 24.5q-35 0 -62 -12t-45.5 -42.5t-28 -82.5t-9.5 -131t9.5 -131.5t28 -84.5t45 -45.5t61.5 -13.5 q21 0 42.5 8.5t38.5 28.5t28 54.5t12 85.5v21h-120v86h217v-360h-73l-11 87q-21 -49 -61.5 -74.5t-91.5 -25.5zM237 851q0 31 15.5 46t44.5 15q59 0 59 -61q0 -62 -59 -62q-29 0 -44.5 15.5t-15.5 46.5z" />
<glyph unicode="&#x121;" horiz-adv-x="475" d="M29 0zM315 254q0 85 -25 124.5t-65 39.5q-44 0 -66.5 -39t-22.5 -126q0 -88 22.5 -128.5t63.5 -40.5q42 0 67.5 41t25.5 129zM216 -217q-75 0 -119.5 32t-67.5 93l83 43q26 -85 98 -85q104 0 104 144v74q-18 -40 -49 -61t-70 -21q-72 0 -115 61.5t-43 187.5 q0 125 44.5 188.5t124.5 63.5q76 0 119 -84l7 71h84v-474q0 -119 -54.5 -176t-145.5 -57zM161 640q0 31 15.5 46t44.5 15q59 0 59 -61q0 -62 -59 -62q-29 0 -44.5 15.5t-15.5 46.5z" />
<glyph unicode="&#x122;" horiz-adv-x="569" d="M50 0zM281 -13q-110 0 -170.5 88.5t-60.5 275.5q0 97 15.5 165.5t47 112t78.5 64t110 20.5q40 0 74 -9t61 -29t47 -53.5t32 -82.5l-91 -36q-19 67 -49.5 91.5t-73.5 24.5q-35 0 -62 -12t-45.5 -42.5t-28 -82.5t-9.5 -131t9.5 -131.5t28 -84.5t45 -45.5t61.5 -13.5 q21 0 42.5 8.5t38.5 28.5t28 54.5t12 85.5v21h-120v86h217v-360h-73l-11 87q-21 -49 -61.5 -74.5t-91.5 -25.5zM348 -138q0 -61 -26.5 -104t-71.5 -60l-26 39q26 14 44 36t21 50q-26 -2 -42 12.5t-16 44.5q0 29 15.5 43.5t43.5 14.5q58 0 58 -76z" />
<glyph unicode="&#x123;" horiz-adv-x="475" d="M156 640q0 61 26.5 104t71.5 60l26 -39q-26 -14 -44 -36t-21 -50q26 2 42 -12.5t16 -44.5q0 -29 -15.5 -43.5t-43.5 -14.5q-58 0 -58 76zM315 254q0 85 -25 124.5t-65 39.5q-44 0 -66.5 -39t-22.5 -126q0 -88 22.5 -128.5t63.5 -40.5q42 0 67.5 41t25.5 129zM216 -217 q-75 0 -119.5 32t-67.5 93l83 43q26 -85 98 -85q104 0 104 144v74q-18 -40 -49 -61t-70 -21q-72 0 -115 61.5t-43 187.5q0 125 44.5 188.5t124.5 63.5q76 0 119 -84l7 71h84v-474q0 -119 -54.5 -176t-145.5 -57z" />
<glyph unicode="&#x124;" horiz-adv-x="610" d="M74 0zM429 0v303h-249v-303h-106v700h106v-300h249v300h106v-700h-106zM303 850l-47 -66h-87v3l93 119h87l94 -119v-3h-91z" />
<glyph unicode="&#x125;" horiz-adv-x="488" d="M0 0zM331 293q0 63 -19 90.5t-55 27.5q-43 0 -68.5 -42.5t-27.5 -123.5v-245h-101v700h101v-303q21 57 57 81.5t79 24.5q69 0 102 -48t33 -137v-318h-101v293zM109 849l-47 -66h-87v3l93 119h87l94 -119v-3h-91z" />
<glyph unicode="&#x126;" horiz-adv-x="627" d="M190 400h249v94h-249v-94zM439 0v303h-249v-303h-106v494h-51v68h51v138h106v-138h249v138h106v-138h50v-68h-50v-494h-106z" />
<glyph unicode="&#x127;" horiz-adv-x="497" d="M172 243v-243h-102v554h-51v65h51v81h102v-81h106v-65h-106v-159q20 57 56 82.5t79 25.5q69 0 101.5 -52t32.5 -146v-305h-101v280q0 70 -19 99t-54 29q-43 0 -68 -42t-27 -123z" />
<glyph unicode="&#x128;" horiz-adv-x="255" d="M0 0zM74 0v700h106v-700h-106zM195 899h63q2 -31 -4 -51.5t-17 -33t-25 -18t-28 -5.5q-17 0 -30.5 6t-26 13.5t-23.5 13.5t-21 6q-14 0 -18 -11t-4 -25h-65q-2 31 4.5 51.5t17 33t24 17.5t26.5 5q18 0 32.5 -6t27 -12.5t23.5 -12.5t22 -6q14 0 18 10.5t4 24.5z" />
<glyph unicode="&#x129;" horiz-adv-x="223" d="M0 0zM60 490h102v-490h-102v490zM179 689h63q2 -31 -4 -51.5t-17 -33t-25 -18t-28 -5.5q-17 0 -30.5 6t-26 13.5t-23.5 13.5t-21 6q-14 0 -18 -11t-4 -25h-65q-2 31 4.5 51.5t17 33t24 17.5t26.5 5q18 0 32.5 -6t27 -12.5t23.5 -12.5t22 -6q14 0 18 10.5t4 24.5z" />
<glyph unicode="&#x12a;" horiz-adv-x="255" d="M23 0zM74 0v700h106v-700h-106zM233 876v-69h-210v69h210z" />
<glyph unicode="&#x12b;" horiz-adv-x="224" d="M7 0zM60 490h102v-490h-102v490zM217 666v-69h-210v69h210z" />
<glyph unicode="&#x12c;" horiz-adv-x="255" d="M6 0zM74 0v700h106v-700h-106zM184 904h66q0 -73 -32 -100.5t-90 -27.5t-90 27.5t-32 100.5h66q0 -37 13.5 -51t41.5 -14q29 0 43 14t14 51z" />
<glyph unicode="&#x12d;" horiz-adv-x="223" d="M0 0zM60 490h102v-490h-102v490zM168 694h66q0 -73 -32 -100.5t-90 -27.5t-90 27.5t-32 100.5h66q0 -37 13.5 -51t41.5 -14q29 0 43 14t14 51z" />
<glyph unicode="&#x12e;" horiz-adv-x="254" d="M191 -188q-20 -14 -38.5 -22t-43.5 -8q-20 0 -39 5.5t-34.5 19t-25 35.5t-9.5 55q0 48 22 80.5t51 47.5v675h106v-700h-41q-19 -2 -33 -10.5t-23 -21.5t-13.5 -28.5t-4.5 -31.5q0 -32 16 -44t36 -12q25 0 45 17z" />
<glyph unicode="&#x12f;" horiz-adv-x="223" d="M49 641q0 32 16.5 48.5t45.5 16.5t46 -16.5t17 -48.5t-17 -48.5t-46 -16.5t-45.5 16.5t-16.5 48.5zM173 -188q-20 -14 -39 -22t-44 -8q-20 0 -39 5.5t-34 19t-24.5 35.5t-9.5 55q0 50 23 83t54 49v461h102v-490h-41q-19 -2 -33 -10.5t-23.5 -21.5t-14 -28.5t-4.5 -31.5 q0 -32 16 -44t36 -12q25 0 45 17z" />
<glyph unicode="&#x130;" horiz-adv-x="255" d="M67 0zM74 0v700h106v-700h-106zM67 850q0 31 15.5 46t44.5 15q59 0 59 -61q0 -62 -59 -62q-29 0 -44.5 15.5t-15.5 46.5z" />
<glyph unicode="&#x131;" horiz-adv-x="223" d="M60 490h102v-490h-102v490z" />
<glyph unicode="&#x132;" horiz-adv-x="662" d="M74 0zM74 0v700h106v-700h-106zM601 247q0 -74 -15 -123.5t-42 -80t-64 -43.5t-81 -13q-36 0 -74.5 12t-69.5 41l53 80q19 -19 42.5 -28.5t48.5 -9.5q21 0 39 8.5t30.5 27t19.5 48t7 72.5v462h106v-453z" />
<glyph unicode="&#x133;" horiz-adv-x="442" d="M49 0zM49 641q0 32 16.5 48.5t45.5 16.5t46 -16.5t17 -48.5t-17 -48.5t-46 -16.5t-45.5 16.5t-16.5 48.5zM61 490h101v-490h-101v490zM331 576q-29 0 -45.5 16.5t-16.5 48.5t16.5 48.5t45.5 16.5t46 -16.5t17 -48.5t-17 -48.5t-46 -16.5zM280 -37v527h102v-537 q0 -88 -37 -129t-98 -41q-23 0 -43.5 4t-40.5 15l25 83q17 -10 40 -10q26 0 39 18.5t13 69.5z" />
<glyph unicode="&#x134;" horiz-adv-x="404" d="M0 0zM344 247q0 -74 -15 -123.5t-42 -80t-64 -43.5t-81 -13q-36 0 -74.5 12t-69.5 41l53 80q19 -19 42.5 -28.5t48.5 -9.5q21 0 39 8.5t30.5 27t19.5 48t7 72.5v462h106v-453zM288 849l-47 -66h-87v3l93 119h87l94 -119v-3h-91z" />
<glyph unicode="&#x135;" horiz-adv-x="223" d="M0 0zM60 -37v527h102v-537q0 -88 -37 -129t-98 -41q-23 0 -43.5 4t-40.5 14l25 85q10 -5 19.5 -8t21.5 -3q25 0 38 18.5t13 69.5zM111 639l-47 -66h-87v3l93 119h87l94 -119v-3h-91z" />
<glyph unicode="&#x136;" horiz-adv-x="524" d="M74 0zM181 196v-196h-107v700h107l-2 -355l217 355h117l-198 -300l207 -400h-122l-151 296zM338 -138q0 -61 -26.5 -104t-71.5 -60l-26 39q26 14 44 36t21 50q-26 -2 -42 12.5t-16 44.5q0 29 15.5 43.5t43.5 14.5q58 0 58 -76z" />
<glyph unicode="&#x137;" horiz-adv-x="430" d="M60 0zM161 120v-120h-101v700h101l-2 -457l150 247h112l-148 -213l151 -277h-115l-97 193zM287 -138q0 -61 -26.5 -104t-71.5 -60l-26 39q26 14 44 36t21 50q-26 -2 -42 12.5t-16 44.5q0 29 15.5 43.5t43.5 14.5q58 0 58 -76z" />
<glyph unicode="&#x138;" horiz-adv-x="430" d="M161 120v-120h-101v490h101l-2 -247l150 247h112l-147 -213l150 -277h-115l-98 194z" />
<glyph unicode="&#x139;" horiz-adv-x="486" d="M74 0zM181 95h283v-95h-390v700h107v-605zM254 898l-93 -115h-80v4l60 118h113v-7z" />
<glyph unicode="&#x13a;" horiz-adv-x="223" d="M58 0zM167 0q-24 0 -44.5 6t-34.5 20t-22 37t-8 57v580h101v-578q0 -21 10 -30.5t22 -9.5h37v-82h-61zM239 898l-93 -115h-80v4l60 118h113v-7z" />
<glyph unicode="&#x13b;" horiz-adv-x="486" d="M74 0zM181 95h283v-95h-390v700h107v-605zM327 -138q0 -61 -26.5 -104t-71.5 -60l-26 39q26 14 44 36t21 50q-26 -2 -42 12.5t-16 44.5q0 29 15.5 43.5t43.5 14.5q58 0 58 -76z" />
<glyph unicode="&#x13c;" horiz-adv-x="223" d="M47 0zM167 0q-24 0 -44.5 6t-34.5 20t-22 37t-8 57v580h101v-578q0 -21 10 -30.5t22 -9.5h37v-82h-61zM171 -138q0 -61 -26.5 -104t-71.5 -60l-26 39q26 14 44 36t21 50q-26 -2 -42 12.5t-16 44.5q0 29 15.5 43.5t43.5 14.5q58 0 58 -76z" />
<glyph unicode="&#x13d;" horiz-adv-x="487" d="M74 0zM370 468h-67l5 233h86zM181 95h283v-95h-390v700h107v-605z" />
<glyph unicode="&#x13e;" horiz-adv-x="295" d="M60 0zM287 469h-67l5 233h86zM169 0q-24 0 -44.5 6t-34.5 20t-22 37t-8 57v580h101v-578q0 -21 10 -30.5t22 -9.5h37v-82h-61z" />
<glyph unicode="&#x13f;" horiz-adv-x="487" d="M74 0zM181 95h283v-95h-390v700h107v-605zM301 359q0 31 15.5 46t44.5 15q59 0 59 -61q0 -62 -59 -62q-29 0 -44.5 15.5t-15.5 46.5z" />
<glyph unicode="&#x140;" horiz-adv-x="318" d="M60 0zM169 0q-24 0 -44.5 6t-34.5 20t-22 37t-8 57v580h101v-578q0 -21 10 -30.5t22 -9.5h37v-82h-61zM205 307q0 31 15.5 46t44.5 15q59 0 59 -61q0 -62 -59 -62q-29 0 -44.5 15.5t-15.5 46.5z" />
<glyph unicode="&#x141;" horiz-adv-x="501" d="M479 0h-389v240l-71 -61v96l71 60v365h106v-299l128 105v-98l-128 -105v-208h283v-95z" />
<glyph unicode="&#x142;" horiz-adv-x="251" d="M244 0h-61q-24 0 -44.5 6t-34.5 20t-22 37t-8 57v126l-64 -68v96l64 67v359h101v-272l71 74v-96l-71 -74v-210q0 -21 10 -30.5t22 -9.5h37v-82z" />
<glyph unicode="&#x143;" horiz-adv-x="603" d="M74 0zM432 0l-262 487l2 -487h-98v700h93l267 -495l-4 495h99v-700h-97zM429 899l-93 -115h-80v4l60 118h113v-7z" />
<glyph unicode="&#x144;" horiz-adv-x="488" d="M60 0zM60 490h86l9 -93q22 57 58 81.5t81 24.5q72 0 105 -48t33 -137v-318h-101v295q0 63 -19 89.5t-55 26.5q-42 0 -68.5 -42.5t-27.5 -123.5v-245h-101v490zM386 688l-93 -115h-80v4l60 118h113v-7z" />
<glyph unicode="&#x145;" horiz-adv-x="603" d="M74 0zM432 0l-262 487l2 -487h-98v700h93l267 -495l-4 495h99v-700h-97zM360 -138q0 -61 -26.5 -104t-71.5 -60l-26 39q26 14 44 36t21 50q-26 -2 -42 12.5t-16 44.5q0 29 15.5 43.5t43.5 14.5q58 0 58 -76z" />
<glyph unicode="&#x146;" horiz-adv-x="488" d="M60 0zM60 490h86l9 -93q22 57 58 81.5t81 24.5q72 0 105 -48t33 -137v-318h-101v295q0 63 -19 89.5t-55 26.5q-42 0 -68.5 -42.5t-27.5 -123.5v-245h-101v490zM306 -138q0 -61 -26.5 -104t-71.5 -60l-26 39q26 14 44 36t21 50q-26 -2 -42 12.5t-16 44.5q0 29 15.5 43.5 t43.5 14.5q58 0 58 -76z" />
<glyph unicode="&#x147;" horiz-adv-x="603" d="M74 0zM432 0l-262 487l2 -487h-98v700h93l267 -495l-4 495h99v-700h-97zM304 842l50 64h87v-3l-95 -119h-87l-92 119v3h90z" />
<glyph unicode="&#x148;" horiz-adv-x="488" d="M60 0zM60 490h86l9 -93q22 57 58 81.5t81 24.5q72 0 105 -48t33 -137v-318h-101v295q0 63 -19 89.5t-55 26.5q-42 0 -68.5 -42.5t-27.5 -123.5v-245h-101v490zM261 631l50 64h87v-3l-95 -119h-87l-92 119v3h90z" />
<glyph unicode="&#x14a;" horiz-adv-x="603" d="M427 -35v42l-258 484l2 -491h-97v700h93l268 -498l-4 498h98v-747q0 -88 -37 -129t-99 -41q-20 0 -40.5 3t-40.5 13l23 87q11 -5 20 -8t21 -3q26 0 38.5 19t12.5 71z" />
<glyph unicode="&#x14b;" horiz-adv-x="488" d="M330 -36v330q0 63 -18.5 90t-54.5 27q-42 0 -68.5 -43t-27.5 -124v-244h-101v490h86l9 -90q22 56 58 79.5t81 23.5q72 0 105 -48t33 -137v-369q0 -86 -37 -126t-99 -40q-20 0 -40.5 3t-41.5 14l24 86q11 -5 20 -8t21 -3q26 0 38.5 19t12.5 70z" />
<glyph unicode="&#x14c;" horiz-adv-x="599" d="M50 0zM300 -13q-131 0 -190.5 87t-59.5 277t61.5 276t188.5 86q66 0 113 -21t77 -65t44.5 -112.5t14.5 -163.5q0 -190 -61.5 -277t-187.5 -87zM300 620q-35 0 -62 -13t-45 -44t-27 -83.5t-9 -130.5q0 -77 9 -129t27 -84t45 -45.5t62 -13.5t61.5 13.5t44.5 45t27 84 t9 131.5q0 76 -9 128t-27 83t-44.5 44.5t-61.5 13.5zM401 877v-69h-210v69h210z" />
<glyph unicode="&#x14d;" d="M37 0zM37 247q0 133 50.5 194.5t140.5 61.5q96 0 143.5 -60.5t47.5 -195.5q0 -132 -48.5 -196t-142.5 -64q-95 0 -143 62.5t-48 197.5zM320 246q0 93 -22 131.5t-70 38.5q-49 0 -71 -38.5t-22 -131.5q0 -47 5.5 -80t17 -53.5t29 -29.5t41.5 -9t41.5 9t28.5 29.5 t16.5 53.5t5.5 80zM333 666v-69h-210v69h210z" />
<glyph unicode="&#x14e;" horiz-adv-x="599" d="M50 0zM300 -13q-131 0 -190.5 87t-59.5 277t61.5 276t188.5 86q66 0 113 -21t77 -65t44.5 -112.5t14.5 -163.5q0 -190 -61.5 -277t-187.5 -87zM300 620q-35 0 -62 -13t-45 -44t-27 -83.5t-9 -130.5q0 -77 9 -129t27 -84t45 -45.5t62 -13.5t61.5 13.5t44.5 45t27 84 t9 131.5q0 76 -9 128t-27 83t-44.5 44.5t-61.5 13.5zM353 905h66q0 -73 -32 -100.5t-90 -27.5t-90 27.5t-32 100.5h66q0 -37 13.5 -51t41.5 -14q29 0 43 14t14 51z" />
<glyph unicode="&#x14f;" d="M37 0zM37 247q0 133 50.5 194.5t140.5 61.5q96 0 143.5 -60.5t47.5 -195.5q0 -132 -48.5 -196t-142.5 -64q-95 0 -143 62.5t-48 197.5zM320 246q0 93 -22 131.5t-70 38.5q-49 0 -71 -38.5t-22 -131.5q0 -47 5.5 -80t17 -53.5t29 -29.5t41.5 -9t41.5 9t28.5 29.5 t16.5 53.5t5.5 80zM284 694h66q0 -73 -32 -100.5t-90 -27.5t-90 27.5t-32 100.5h66q0 -37 13.5 -51t41.5 -14q29 0 43 14t14 51z" />
<glyph unicode="&#x150;" horiz-adv-x="599" d="M50 0zM300 -13q-131 0 -190.5 87t-59.5 277t61.5 276t188.5 86q66 0 113 -21t77 -65t44.5 -112.5t14.5 -163.5q0 -190 -61.5 -277t-187.5 -87zM300 620q-35 0 -62 -13t-45 -44t-27 -83.5t-9 -130.5q0 -77 9 -129t27 -84t45 -45.5t62 -13.5t61.5 13.5t44.5 45t27 84 t9 131.5q0 76 -9 128t-27 83t-44.5 44.5t-61.5 13.5zM501 900l-98 -116h-74v4l61 118h111v-6zM349 906v-6l-99 -116h-74v4l61 118h112z" />
<glyph unicode="&#x151;" d="M37 0zM37 247q0 133 50.5 194.5t140.5 61.5q96 0 143.5 -60.5t47.5 -195.5q0 -132 -48.5 -196t-142.5 -64q-95 0 -143 62.5t-48 197.5zM320 246q0 93 -22 131.5t-70 38.5q-49 0 -71 -38.5t-22 -131.5q0 -47 5.5 -80t17 -53.5t29 -29.5t41.5 -9t41.5 9t28.5 29.5 t16.5 53.5t5.5 80zM432 689l-98 -116h-74v4l61 118h111v-6zM280 695v-6l-99 -116h-74v4l61 118h112z" />
<glyph unicode="&#x152;" horiz-adv-x="832" d="M312 0q-132 0 -197 86t-65 267q0 180 64.5 263.5t198.5 83.5h479v-91h-289v-209h251v-94h-251v-214h297v-92h-488zM314 607q-38 0 -67 -13t-49 -43t-30.5 -79t-10.5 -121t10 -121.5t30 -80t49 -44t67 -13.5h87v515h-86z" />
<glyph unicode="&#x153;" horiz-adv-x="714" d="M512 -13q-47 0 -82.5 20t-58.5 69q-47 -89 -143 -89q-95 0 -143 62.5t-48 197.5q0 133 50.5 194.5t140.5 61.5q102 0 143 -90q24 48 59.5 69t81.5 21q44 0 76 -18.5t52.5 -50.5t30 -76t9.5 -95q1 -23 -2 -51h-257q4 -77 29.5 -108.5t67.5 -31.5q63 0 87 79l78 -37 q-10 -26 -24 -49t-34 -40.5t-48 -27.5t-65 -10zM510 418q-38 0 -61.5 -29.5t-27.5 -100.5h165q-1 69 -21 99.5t-55 30.5zM320 246q0 94 -21.5 132.5t-70.5 38.5t-71.5 -38.5t-22.5 -132.5q0 -95 23 -134.5t71 -39.5t70 39.5t22 134.5z" />
<glyph unicode="&#x154;" horiz-adv-x="531" d="M74 0zM280 608h-101v-260h101q53 0 82 33t29 99q0 63 -27 95.5t-84 32.5zM74 0v700h219q103 0 153.5 -57t50.5 -160q0 -76 -27.5 -127t-79.5 -76l111 -280h-113l-97 256q-5 -1 -16 -1h-96v-255h-105zM416 898l-93 -115h-80v4l60 118h113v-7z" />
<glyph unicode="&#x155;" horiz-adv-x="307" d="M60 0zM60 0v490h85l9 -102q20 62 56 91t84 24l1 -105q-66 8 -99.5 -38t-34.5 -137v-223h-101zM327 688l-93 -115h-80v4l60 118h113v-7z" />
<glyph unicode="&#x156;" horiz-adv-x="531" d="M74 0zM280 608h-101v-260h101q53 0 82 33t29 99q0 63 -27 95.5t-84 32.5zM74 0v700h219q103 0 153.5 -57t50.5 -160q0 -76 -27.5 -127t-79.5 -76l111 -280h-113l-97 256q-5 -1 -16 -1h-96v-255h-105zM334 -138q0 -61 -26.5 -104t-71.5 -60l-26 39q26 14 44 36t21 50 q-26 -2 -42 12.5t-16 44.5q0 29 15.5 43.5t43.5 14.5q58 0 58 -76z" />
<glyph unicode="&#x157;" horiz-adv-x="307" d="M44 0zM60 0v490h85l9 -102q20 62 56 91t84 24l1 -105q-66 8 -99.5 -38t-34.5 -137v-223h-101zM168 -138q0 -61 -26.5 -104t-71.5 -60l-26 39q26 14 44 36t21 50q-26 -2 -42 12.5t-16 44.5q0 29 15.5 43.5t43.5 14.5q58 0 58 -76z" />
<glyph unicode="&#x158;" horiz-adv-x="531" d="M74 0zM280 608h-101v-260h101q53 0 82 33t29 99q0 63 -27 95.5t-84 32.5zM74 0v700h219q103 0 153.5 -57t50.5 -160q0 -76 -27.5 -127t-79.5 -76l111 -280h-113l-97 256q-5 -1 -16 -1h-96v-255h-105zM291 841l50 64h87v-3l-95 -119h-87l-92 119v3h90z" />
<glyph unicode="&#x159;" horiz-adv-x="307" d="M60 0zM60 0v490h85l9 -102q20 62 56 91t84 24l1 -105q-66 8 -99.5 -38t-34.5 -137v-223h-101zM202 631l50 64h87v-3l-95 -119h-87l-92 119v3h90z" />
<glyph unicode="&#x15a;" horiz-adv-x="478" d="M7 0zM434 546l-88 -36q-17 61 -47.5 86.5t-72.5 25.5q-40 0 -66 -23t-26 -68q0 -38 23 -65.5t72 -48.5l42 -18q42 -18 73.5 -39t52.5 -46.5t31 -57t10 -71.5q0 -95 -54.5 -146.5t-151.5 -51.5q-85 0 -141.5 40t-83.5 131l89 40q18 -63 51.5 -92.5t84.5 -29.5 q50 0 76.5 26.5t26.5 74.5q0 42 -22 69t-78 50l-41 17q-81 34 -121 87t-40 124q0 39 12.5 73.5t37 60t61 40.5t85.5 15q82 0 135 -42.5t70 -124.5zM357 894l-93 -115h-80v4l60 118h113v-7z" />
<glyph unicode="&#x15b;" horiz-adv-x="370" d="M9 0zM182 65q35 0 52.5 16t17.5 44q0 26 -16 42t-49 29l-31 12q-63 24 -95.5 60t-32.5 94q0 62 40 102t117 40q60 0 99 -27t60 -86l-78 -39q-9 33 -30.5 52t-51.5 19q-26 0 -45 -13t-19 -42q0 -20 14 -37t51 -31l37 -14q57 -22 91 -58t34 -96q0 -28 -9.5 -54t-29.5 -46 t-51 -32t-74 -12q-38 0 -67 9t-50 25t-34.5 38t-22.5 48l78 38q25 -81 95 -81zM308 688l-93 -115h-80v4l60 118h113v-7z" />
<glyph unicode="&#x15c;" horiz-adv-x="478" d="M7 0zM434 546l-88 -36q-17 61 -47.5 86.5t-72.5 25.5q-40 0 -66 -23t-26 -68q0 -38 23 -65.5t72 -48.5l42 -18q42 -18 73.5 -39t52.5 -46.5t31 -57t10 -71.5q0 -95 -54.5 -146.5t-151.5 -51.5q-85 0 -141.5 40t-83.5 131l89 40q18 -63 51.5 -92.5t84.5 -29.5 q50 0 76.5 26.5t26.5 74.5q0 42 -22 69t-78 50l-41 17q-81 34 -121 87t-40 124q0 39 12.5 73.5t37 60t61 40.5t85.5 15q82 0 135 -42.5t70 -124.5zM228 845l-47 -66h-87v3l93 119h87l94 -119v-3h-91z" />
<glyph unicode="&#x15d;" horiz-adv-x="370" d="M9 0zM182 65q35 0 52.5 16t17.5 44q0 26 -16 42t-49 29l-31 12q-63 24 -95.5 60t-32.5 94q0 62 40 102t117 40q60 0 99 -27t60 -86l-78 -39q-9 33 -30.5 52t-51.5 19q-26 0 -45 -13t-19 -42q0 -20 14 -37t51 -31l37 -14q57 -22 91 -58t34 -96q0 -28 -9.5 -54t-29.5 -46 t-51 -32t-74 -12q-38 0 -67 9t-50 25t-34.5 38t-22.5 48l78 38q25 -81 95 -81zM180 639l-47 -66h-87v3l93 119h87l94 -119v-3h-91z" />
<glyph unicode="&#x15e;" horiz-adv-x="478" d="M220 -245q-33 0 -62.5 15t-46.5 53l51 33q19 -42 56 -42q17 0 28.5 10.5t11.5 28.5t-10.5 29t-28.5 11q-5 0 -8.5 -0.5t-8.5 -1.5l-16 15l18 82q-74 7 -123 47t-74 123l89 40q18 -63 51.5 -92.5t84.5 -29.5q50 0 76.5 26.5t26.5 74.5q0 42 -22.5 68.5t-77.5 50.5l-41 17 q-161 69 -161 211q0 39 12.5 73.5t37 60t61 40.5t85.5 15q82 0 135 -42.5t70 -124.5l-88 -36q-17 61 -47.5 86.5t-72.5 25.5q-40 0 -66 -23t-26 -68q0 -38 23.5 -65t71.5 -49l42 -18q42 -18 73.5 -39t52.5 -46.5t31 -57t10 -71.5q0 -88 -47 -138t-131 -58l-12 -51h2 q29 -1 51.5 -22t22.5 -62q0 -52 -30.5 -75.5t-73.5 -23.5z" />
<glyph unicode="&#x15f;" horiz-adv-x="370" d="M174 -241q-32 0 -62 15.5t-47 52.5l51 34q19 -43 57 -43q17 0 28.5 11t11.5 29q0 17 -10.5 28t-28.5 11q-5 0 -8.5 -0.5t-8.5 -1.5l-16 15l16 79q-64 5 -98 38t-50 81l78 38q25 -81 95 -81q35 0 52.5 16t17.5 44q0 26 -16 41.5t-49 29.5l-31 12q-63 24 -95 60t-32 94 q0 62 40 102t116 40q60 0 99 -27t60 -86l-78 -39q-9 33 -30.5 52t-51.5 19q-26 0 -45 -13t-19 -42q0 -20 14 -37t51 -31l37 -14q57 -21 91 -57.5t34 -96.5q0 -26 -8 -49.5t-24 -43t-41.5 -32.5t-59.5 -17l-11 -48h2q29 0 51.5 -21t22.5 -63q0 -51 -30.5 -75t-74.5 -24z" />
<glyph unicode="&#x160;" horiz-adv-x="478" d="M7 0zM434 546l-88 -36q-17 61 -47.5 86.5t-72.5 25.5q-40 0 -66 -23t-26 -68q0 -38 23 -65.5t72 -48.5l42 -18q42 -18 73.5 -39t52.5 -46.5t31 -57t10 -71.5q0 -95 -54.5 -146.5t-151.5 -51.5q-85 0 -141.5 40t-83.5 131l89 40q18 -63 51.5 -92.5t84.5 -29.5 q50 0 76.5 26.5t26.5 74.5q0 42 -22 69t-78 50l-41 17q-81 34 -121 87t-40 124q0 39 12.5 73.5t37 60t61 40.5t85.5 15q82 0 135 -42.5t70 -124.5zM232 837l50 64h87v-3l-95 -119h-87l-92 119v3h90z" />
<glyph unicode="&#x161;" horiz-adv-x="370" d="M9 0zM182 65q35 0 52.5 16t17.5 44q0 26 -16 42t-49 29l-31 12q-63 24 -95.5 60t-32.5 94q0 62 40 102t117 40q60 0 99 -27t60 -86l-78 -39q-9 33 -30.5 52t-51.5 19q-26 0 -45 -13t-19 -42q0 -20 14 -37t51 -31l37 -14q57 -22 91 -58t34 -96q0 -28 -9.5 -54t-29.5 -46 t-51 -32t-74 -12q-38 0 -67 9t-50 25t-34.5 38t-22.5 48l78 38q25 -81 95 -81zM183 631l50 64h87v-3l-95 -119h-87l-92 119v3h90z" />
<glyph unicode="&#x162;" horiz-adv-x="460" d="M12 0zM12 700h435v-95h-164v-605h-106v605h-165v95zM289 -138q0 -61 -26.5 -104t-71.5 -60l-26 39q26 14 44 36t21 50q-26 -2 -42 12.5t-16 44.5q0 29 15.5 43.5t43.5 14.5q58 0 58 -76z" />
<glyph unicode="&#x163;" horiz-adv-x="301" d="M15 0zM286 9q-14 -10 -35 -16t-44 -6q-59 0 -96 35.5t-37 117.5v267h-59v83h59v143h101v-143h101v-83h-101v-256q0 -42 14 -58t34 -16q11 0 22.5 3t20.5 10zM241 -138q0 -61 -26.5 -104t-71.5 -60l-26 39q26 14 44 36t21 50q-26 -2 -42 12.5t-16 44.5q0 29 15.5 43.5 t43.5 14.5q58 0 58 -76z" />
<glyph unicode="&#x164;" horiz-adv-x="460" d="M12 0zM12 700h435v-95h-164v-605h-106v605h-165v95zM232 841l50 64h87v-3l-95 -119h-87l-92 119v3h90z" />
<glyph unicode="&#x165;" horiz-adv-x="306" d="M281 554h-65l6 196h82zM286 9q-14 -10 -35 -16t-44 -6q-59 0 -96 35.5t-37 117.5v267h-59v83h59v143h101v-143h101v-83h-101v-256q0 -42 14 -58t34 -16q11 0 22.5 3t20.5 10z" />
<glyph unicode="&#x166;" horiz-adv-x="461" d="M12 700h436v-95h-164v-220h127v-77h-127v-308h-106v308h-128v77h128v220h-166v95z" />
<glyph unicode="&#x167;" horiz-adv-x="297" d="M290 9q-13 -11 -34.5 -16.5t-44.5 -5.5q-29 0 -54 8t-43 27t-28.5 48.5t-10.5 73.5v114h-59v67h59v82h-59v83h59v143h99v-143h102v-83h-102v-82h102v-67h-102v-105q0 -43 15 -59.5t36 -16.5q26 0 46 14z" />
<glyph unicode="&#x168;" horiz-adv-x="578" d="M62 0zM411 231v469h106v-463q0 -125 -60.5 -187.5t-167.5 -62.5q-109 0 -168 62.5t-59 187.5v463h106v-469q0 -78 32.5 -113t88.5 -35q57 0 89.5 35t32.5 113zM358 900h63q2 -31 -4 -51.5t-17 -33t-25 -18t-28 -5.5q-17 0 -30.5 6t-26 13.5t-23.5 13.5t-21 6 q-14 0 -18 -11t-4 -25h-65q-2 31 4.5 51.5t17 33t24 17.5t26.5 5q18 0 32.5 -6t27 -12.5t23.5 -12.5t22 -6q14 0 18 10.5t4 24.5z" />
<glyph unicode="&#x169;" horiz-adv-x="485" d="M55 0zM425 0h-86l-7 85q-21 -51 -56 -74.5t-77 -23.5q-75 0 -109.5 51t-34.5 138v314h101v-297q0 -117 76 -117q41 0 65.5 40.5t26.5 120.5v253h101v-490zM307 689h63q2 -31 -4 -51.5t-17 -33t-25 -18t-28 -5.5q-17 0 -30.5 6t-26 13.5t-23.5 13.5t-21 6q-14 0 -18 -11 t-4 -25h-65q-2 31 4.5 51.5t17 33t24 17.5t26.5 5q18 0 32.5 -6t27 -12.5t23.5 -12.5t22 -6q14 0 18 10.5t4 24.5z" />
<glyph unicode="&#x16a;" horiz-adv-x="578" d="M62 0zM411 231v469h106v-463q0 -125 -60.5 -187.5t-167.5 -62.5q-109 0 -168 62.5t-59 187.5v463h106v-469q0 -78 32.5 -113t88.5 -35q57 0 89.5 35t32.5 113zM395 877v-69h-210v69h210z" />
<glyph unicode="&#x16b;" horiz-adv-x="485" d="M55 0zM425 0h-86l-7 85q-21 -51 -56 -74.5t-77 -23.5q-75 0 -109.5 51t-34.5 138v314h101v-297q0 -117 76 -117q41 0 65.5 40.5t26.5 120.5v253h101v-490zM344 666v-69h-210v69h210z" />
<glyph unicode="&#x16c;" horiz-adv-x="578" d="M62 0zM411 231v469h106v-463q0 -125 -60.5 -187.5t-167.5 -62.5q-109 0 -168 62.5t-59 187.5v463h106v-469q0 -78 32.5 -113t88.5 -35q57 0 89.5 35t32.5 113zM347 905h66q0 -73 -32 -100.5t-90 -27.5t-90 27.5t-32 100.5h66q0 -37 13.5 -51t41.5 -14q29 0 43 14t14 51z " />
<glyph unicode="&#x16d;" horiz-adv-x="485" d="M55 0zM425 0h-86l-7 85q-21 -51 -56 -74.5t-77 -23.5q-75 0 -109.5 51t-34.5 138v314h101v-297q0 -117 76 -117q41 0 65.5 40.5t26.5 120.5v253h101v-490zM296 694h66q0 -73 -32 -100.5t-90 -27.5t-90 27.5t-32 100.5h66q0 -37 13.5 -51t41.5 -14q29 0 43 14t14 51z" />
<glyph unicode="&#x16e;" horiz-adv-x="578" d="M62 0zM411 231v469h106v-463q0 -125 -60.5 -187.5t-167.5 -62.5q-109 0 -168 62.5t-59 187.5v463h106v-469q0 -78 32.5 -113t88.5 -35q57 0 89.5 35t32.5 113zM202 857q0 46 25 71t64 25q38 0 62.5 -25t24.5 -71q0 -45 -24.5 -70t-62.5 -25q-39 0 -64 25t-25 70zM251 857 q0 -23 11 -36.5t29 -13.5q17 0 28.5 13.5t11.5 36.5t-11.5 36.5t-28.5 13.5q-18 0 -29 -13.5t-11 -36.5z" />
<glyph unicode="&#x16f;" horiz-adv-x="485" d="M55 0zM425 0h-86l-7 85q-21 -51 -56 -74.5t-77 -23.5q-75 0 -109.5 51t-34.5 138v314h101v-297q0 -117 76 -117q41 0 65.5 40.5t26.5 120.5v253h101v-490zM151 646q0 46 25 71t64 25q38 0 62.5 -25t24.5 -71q0 -45 -24.5 -70t-62.5 -25q-39 0 -64 25t-25 70zM200 646 q0 -23 11 -36.5t29 -13.5q17 0 28.5 13.5t11.5 36.5t-11.5 36.5t-28.5 13.5q-18 0 -29 -13.5t-11 -36.5z" />
<glyph unicode="&#x170;" horiz-adv-x="578" d="M62 0zM411 231v469h106v-463q0 -125 -60.5 -187.5t-167.5 -62.5q-109 0 -168 62.5t-59 187.5v463h106v-469q0 -78 32.5 -113t88.5 -35q57 0 89.5 35t32.5 113zM495 900l-98 -116h-74v4l61 118h111v-6zM343 906v-6l-99 -116h-74v4l61 118h112z" />
<glyph unicode="&#x171;" horiz-adv-x="485" d="M55 0zM425 0h-86l-7 85q-21 -51 -56 -74.5t-77 -23.5q-75 0 -109.5 51t-34.5 138v314h101v-297q0 -117 76 -117q41 0 65.5 40.5t26.5 120.5v253h101v-490zM444 689l-98 -116h-74v4l61 118h111v-6zM292 695v-6l-99 -116h-74v4l61 118h112z" />
<glyph unicode="&#x172;" horiz-adv-x="578" d="M352 -218q-20 0 -39 5.5t-34 19t-24.5 35.5t-9.5 55q0 28 7.5 50.5t20.5 39.5q-102 5 -156.5 67.5t-54.5 180.5v465h106v-469q0 -78 32.5 -113t88.5 -35q57 0 89.5 35t32.5 113v469h106v-465q0 -104 -42 -164t-120 -77q-23 -13 -35 -36t-12 -50q0 -32 15.5 -44t35.5 -12 q26 0 46 17l29 -57q-19 -14 -38.5 -22t-43.5 -8z" />
<glyph unicode="&#x173;" horiz-adv-x="485" d="M460 -188q-19 -14 -38.5 -22t-43.5 -8q-20 0 -39 5.5t-34 19t-24.5 35.5t-9.5 55q0 45 19 76.5t47 48.5l-5 63q-21 -51 -56 -74.5t-77 -23.5q-75 0 -109.5 51t-34.5 138v314h102v-297q0 -117 75 -117q40 0 64 40.5t26 120.5v253h103v-490h-16q-19 -2 -33 -10.5 t-23.5 -21.5t-14 -28.5t-4.5 -31.5q0 -32 15.5 -44t35.5 -12q26 0 46 17z" />
<glyph unicode="&#x174;" horiz-adv-x="719" d="M7 0zM305 698h112l97 -528l98 530h100l-147 -700h-112l-94 529l-92 -529h-112l-148 700h105l99 -532zM358 849l-47 -66h-87v3l93 119h87l94 -119v-3h-91z" />
<glyph unicode="&#x175;" horiz-adv-x="587" d="M8 0zM245 487h102l69 -356l68 359h95l-113 -490h-105l-67 352l-67 -352h-103l-116 490h101l67 -358zM291 639l-47 -66h-87v3l93 119h87l94 -119v-3h-91z" />
<glyph unicode="&#x176;" horiz-adv-x="502" d="M8 0zM198 273l-190 427h117l128 -323l130 323h111l-190 -427v-273h-106v273zM251 850l-47 -66h-87v3l93 119h87l94 -119v-3h-91z" />
<glyph unicode="&#x177;" horiz-adv-x="416" d="M4 0zM145 -58l12 49l-150 499h108l95 -368l96 368h103l-176 -583q-22 -72 -59 -98.5t-87 -26.5q-25 0 -43.5 4t-39.5 14l22 82q31 -11 52 -11q27 0 42.5 15.5t24.5 55.5zM207 639l-47 -66h-87v3l93 119h87l94 -119v-3h-91z" />
<glyph unicode="&#x178;" horiz-adv-x="502" d="M8 0zM198 273l-190 427h117l128 -323l130 323h111l-190 -427v-273h-106v273zM278 852q0 60 56 60q59 0 59 -60q0 -62 -59 -62q-56 0 -56 62zM121 852q0 30 15.5 45t42.5 15q58 0 58 -60q0 -62 -58 -62q-27 0 -42.5 15.5t-15.5 46.5z" />
<glyph unicode="&#x179;" d="M17 0zM17 0v78l298 530l-284 -2v94h403v-78l-297 -530l300 2v-94h-420zM354 898l-93 -115h-80v4l60 118h113v-7z" />
<glyph unicode="&#x17a;" horiz-adv-x="377" d="M25 0zM25 0v73l209 333h-206v84h317v-75l-208 -331h215v-84h-327zM315 688l-93 -115h-80v4l60 118h113v-7z" />
<glyph unicode="&#x17b;" d="M17 0zM17 0v78l298 530l-284 -2v94h403v-78l-297 -530l300 2v-94h-420zM167 850q0 31 15.5 46t44.5 15q59 0 59 -61q0 -62 -59 -62q-29 0 -44.5 15.5t-15.5 46.5z" />
<glyph unicode="&#x17c;" horiz-adv-x="377" d="M25 0zM25 0v73l209 333h-206v84h317v-75l-208 -331h215v-84h-327zM127 640q0 31 15.5 46t44.5 15q59 0 59 -61q0 -62 -59 -62q-29 0 -44.5 15.5t-15.5 46.5z" />
<glyph unicode="&#x17d;" d="M17 0zM17 0v78l298 530l-284 -2v94h403v-78l-297 -530l300 2v-94h-420zM229 841l50 64h87v-3l-95 -119h-87l-92 119v3h90z" />
<glyph unicode="&#x17e;" horiz-adv-x="377" d="M25 0zM25 0v73l209 333h-206v84h317v-75l-208 -331h215v-84h-327zM190 631l50 64h87v-3l-95 -119h-87l-92 119v3h90z" />
<glyph unicode="&#x192;" horiz-adv-x="313" d="M-7 -217q-17 0 -36.5 3.5t-34.5 12.5l25 82q16 -11 39 -11q24 0 38 20.5t21 76.5l37 328h-61l12 81h60l7 66q10 88 47 133.5t103 45.5q24 0 46.5 -6t37.5 -14l-27 -81q-8 5 -19.5 9.5t-22.5 4.5q-23 0 -41.5 -20.5t-24.5 -75.5l-7 -62h100l-13 -81h-99l-36 -335 q-9 -91 -49.5 -134t-101.5 -43z" />
<glyph unicode="&#x218;" horiz-adv-x="478" d="M7 0zM434 546l-88 -36q-17 61 -47.5 86.5t-72.5 25.5q-40 0 -66 -23t-26 -68q0 -38 23 -65.5t72 -48.5l42 -18q42 -18 73.5 -39t52.5 -46.5t31 -57t10 -71.5q0 -95 -54.5 -146.5t-151.5 -51.5q-85 0 -141.5 40t-83.5 131l89 40q18 -63 51.5 -92.5t84.5 -29.5 q50 0 76.5 26.5t26.5 74.5q0 42 -22 69t-78 50l-41 17q-81 34 -121 87t-40 124q0 39 12.5 73.5t37 60t61 40.5t85.5 15q82 0 135 -42.5t70 -124.5zM288 -142q0 -61 -26.5 -104t-71.5 -60l-26 39q26 14 44 36t21 50q-26 -2 -42 12.5t-16 44.5q0 29 15.5 43.5t43.5 14.5 q58 0 58 -76z" />
<glyph unicode="&#x219;" horiz-adv-x="370" d="M9 0zM182 65q35 0 52.5 16t17.5 44q0 26 -16 42t-49 29l-31 12q-63 24 -95.5 60t-32.5 94q0 62 40 102t117 40q60 0 99 -27t60 -86l-78 -39q-9 33 -30.5 52t-51.5 19q-26 0 -45 -13t-19 -42q0 -20 14 -37t51 -31l37 -14q57 -22 91 -58t34 -96q0 -28 -9.5 -54t-29.5 -46 t-51 -32t-74 -12q-38 0 -67 9t-50 25t-34.5 38t-22.5 48l78 38q25 -81 95 -81zM242 -138q0 -61 -26.5 -104t-71.5 -60l-26 39q26 14 44 36t21 50q-26 -2 -42 12.5t-16 44.5q0 29 15.5 43.5t43.5 14.5q58 0 58 -76z" />
<glyph unicode="&#x237;" horiz-adv-x="223" d="M60 -37v527h102v-537q0 -88 -37 -129t-98 -41q-23 0 -43.5 4t-40.5 14l25 85q10 -5 19.5 -8t21.5 -3q25 0 38 18.5t13 69.5z" />
<glyph unicode="&#x2c6;" d="M226 639l-47 -66h-87v3l93 119h87l94 -119v-3h-91z" />
<glyph unicode="&#x2c7;" d="M228 631l50 64h87v-3l-95 -119h-87l-92 119v3h90z" />
<glyph unicode="&#x2d8;" d="M284 694h66q0 -73 -32 -100.5t-90 -27.5t-90 27.5t-32 100.5h66q0 -37 13.5 -51t41.5 -14q29 0 43 14t14 51z" />
<glyph unicode="&#x2d9;" d="M169 640q0 31 15.5 46t44.5 15q59 0 59 -61q0 -62 -59 -62q-29 0 -44.5 15.5t-15.5 46.5z" />
<glyph unicode="&#x2da;" d="M141 646q0 46 25 71t64 25q38 0 62.5 -25t24.5 -71q0 -45 -24.5 -70t-62.5 -25q-39 0 -64 25t-25 70zM190 646q0 -23 11 -36.5t29 -13.5q17 0 28.5 13.5t11.5 36.5t-11.5 36.5t-28.5 13.5q-18 0 -29 -13.5t-11 -36.5z" />
<glyph unicode="&#x2db;" d="M242 -218q-20 0 -39 5.5t-34 19t-24.5 35.5t-9.5 55q0 36 12 63t31.5 45.5t43.5 27t48 7.5l2 -40q-19 -2 -33 -10.5t-23 -21.5t-13.5 -28.5t-4.5 -31.5q0 -32 15.5 -44t35.5 -12q26 0 46 17l28 -57q-18 -14 -37.5 -22t-43.5 -8z" />
<glyph unicode="&#x2dc;" d="M300 689h63q2 -31 -4 -51.5t-17 -33t-25 -18t-28 -5.5q-17 0 -30.5 6t-26 13.5t-23.5 13.5t-21 6q-14 0 -18 -11t-4 -25h-65q-2 31 4.5 51.5t17 33t24 17.5t26.5 5q18 0 32.5 -6t27 -12.5t23.5 -12.5t22 -6q14 0 18 10.5t4 24.5z" />
<glyph unicode="&#x2dd;" d="M436 689l-98 -116h-74v4l61 118h111v-6zM284 695v-6l-99 -116h-74v4l61 118h112z" />
<glyph unicode="&#x1e80;" horiz-adv-x="719" d="M7 0zM305 698h112l97 -528l98 530h100l-147 -700h-112l-94 529l-92 -529h-112l-148 700h105l99 -532zM328 785l-95 115v7h116l60 -118v-4h-81z" />
<glyph unicode="&#x1e81;" horiz-adv-x="587" d="M8 0zM245 487h102l69 -356l68 359h95l-113 -490h-105l-67 352l-67 -352h-103l-116 490h101l67 -358zM260 575l-95 115v7h116l60 -118v-4h-81z" />
<glyph unicode="&#x1e82;" horiz-adv-x="719" d="M7 0zM305 698h112l97 -528l98 530h100l-147 -700h-112l-94 529l-92 -529h-112l-148 700h105l99 -532zM487 898l-93 -115h-80v4l60 118h113v-7z" />
<glyph unicode="&#x1e83;" horiz-adv-x="587" d="M8 0zM245 487h102l69 -356l68 359h95l-113 -490h-105l-67 352l-67 -352h-103l-116 490h101l67 -358zM419 688l-93 -115h-80v4l60 118h113v-7z" />
<glyph unicode="&#x1e84;" horiz-adv-x="719" d="M7 0zM305 698h112l97 -528l98 530h100l-147 -700h-112l-94 529l-92 -529h-112l-148 700h105l99 -532zM385 851q0 60 56 60q59 0 59 -60q0 -62 -59 -62q-56 0 -56 62zM228 851q0 30 15.5 45t42.5 15q58 0 58 -60q0 -62 -58 -62q-27 0 -42.5 15.5t-15.5 46.5z" />
<glyph unicode="&#x1e85;" horiz-adv-x="587" d="M8 0zM245 487h102l69 -356l68 359h95l-113 -490h-105l-67 352l-67 -352h-103l-116 490h101l67 -358zM317 641q0 60 56 60q59 0 59 -60q0 -62 -59 -62q-56 0 -56 62zM160 641q0 30 15.5 45t42.5 15q58 0 58 -60q0 -62 -58 -62q-27 0 -42.5 15.5t-15.5 46.5z" />
<glyph unicode="&#x2000;" horiz-adv-x="476" />
<glyph unicode="&#x2001;" horiz-adv-x="953" />
<glyph unicode="&#x2002;" horiz-adv-x="377" />
<glyph unicode="&#x2003;" horiz-adv-x="753" />
<glyph unicode="&#x2004;" horiz-adv-x="251" />
<glyph unicode="&#x2005;" horiz-adv-x="189" />
<glyph unicode="&#x2006;" horiz-adv-x="126" />
<glyph unicode="&#x2007;" horiz-adv-x="472" />
<glyph unicode="&#x2008;" horiz-adv-x="187" />
<glyph unicode="&#x2009;" horiz-adv-x="151" />
<glyph unicode="&#x200a;" horiz-adv-x="75" />
<glyph unicode="&#x200b;" horiz-adv-x="0" />
<glyph unicode="&#x2010;" horiz-adv-x="352" d="M313 302v-88h-274v88h274z" />
<glyph unicode="&#x2011;" horiz-adv-x="352" d="M313 302v-88h-274v88h274z" />
<glyph unicode="&#x2012;" horiz-adv-x="447" d="M409 302v-88h-371v88h371z" />
<glyph unicode="&#x2013;" horiz-adv-x="447" d="M409 302v-88h-371v88h371z" />
<glyph unicode="&#x2014;" horiz-adv-x="597" d="M559 302v-88h-521v88h521z" />
<glyph unicode="&#x2015;" horiz-adv-x="820" d="M782 302v-88h-744v88h744z" />
<glyph unicode="&#x2018;" horiz-adv-x="185" d="M128 739l27 -44q-28 -14 -45 -36t-19 -51q24 1 40 -14.5t16 -47.5t-15.5 -47.5t-42.5 -15.5q-30 0 -46 19.5t-16 61.5q0 60 25.5 107.5t75.5 67.5z" />
<glyph unicode="&#x2019;" horiz-adv-x="185" d="M54 473l-26 44q28 14 45 36.5t19 50.5q-24 -1 -40 14.5t-16 47.5t15.5 47t42.5 15q30 0 46 -19t16 -61q0 -60 -25.5 -107.5t-76.5 -67.5z" />
<glyph unicode="&#x201a;" horiz-adv-x="185" d="M54 -131l-26 44q27 14 43.5 35.5t19.5 49.5q-24 -1 -39.5 14.5t-15.5 46.5t15.5 46t41.5 15q29 0 44.5 -18.5t15.5 -59.5q0 -60 -25 -106.5t-74 -66.5z" />
<glyph unicode="&#x201c;" horiz-adv-x="336" d="M128 739l27 -44q-28 -14 -45 -36t-19 -51q24 1 40 -14.5t16 -47.5t-15.5 -47.5t-42.5 -15.5q-30 0 -46 19.5t-16 61.5q0 60 25.5 107.5t75.5 67.5zM279 739l27 -44q-28 -14 -45 -36t-19 -51q24 1 40 -14.5t16 -47.5t-15.5 -47.5t-42.5 -15.5q-30 0 -46 19.5t-16 61.5 q0 60 25.5 107.5t75.5 67.5z" />
<glyph unicode="&#x201d;" horiz-adv-x="336" d="M52 472l-26 44q28 14 45 36.5t19 50.5q-24 -1 -40 14.5t-16 47.5t15.5 47t42.5 15q30 0 46 -19t16 -61q0 -60 -25.5 -107.5t-76.5 -67.5zM204 472l-26 44q28 14 45 36.5t19 50.5q-24 -1 -40 14.5t-16 47.5t15.5 47t42.5 15q30 0 46 -19t16 -61q0 -60 -25.5 -107.5 t-76.5 -67.5z" />
<glyph unicode="&#x201e;" horiz-adv-x="334" d="M54 -132l-26 44q27 14 43.5 35.5t19.5 49.5q-24 -1 -39.5 14.5t-15.5 46.5t15.5 46t41.5 15q29 0 44.5 -18.5t15.5 -59.5q0 -60 -25 -106.5t-74 -66.5zM204 -132l-26 44q27 14 43.5 35.5t19.5 49.5q-24 -1 -39.5 14.5t-15.5 46.5t15.5 46t41.5 15q29 0 44.5 -18.5 t15.5 -59.5q0 -60 -25 -106.5t-74 -66.5z" />
<glyph unicode="&#x2020;" horiz-adv-x="240" d="M210 518h-49l-2 -229h-80v229h-50v74h49l-1 118h86l-2 -118h49v-74z" />
<glyph unicode="&#x2021;" horiz-adv-x="240" d="M29 473h51v59h-51v73h50l-2 105h86l-3 -105h50v-73h-50v-59h50v-74h-50l3 -110h-86l1 110h-49v74z" />
<glyph unicode="&#x2022;" horiz-adv-x="328" d="M37 327q0 60 33.5 98.5t93.5 38.5t94 -38.5t34 -98.5q0 -61 -34 -99t-94 -38t-93.5 38t-33.5 99z" />
<glyph unicode="&#x2026;" horiz-adv-x="568" d="M472 -6q-29 0 -44.5 17.5t-15.5 47.5q0 32 15.5 48t44.5 16q60 0 60 -64q0 -30 -15.5 -47.5t-44.5 -17.5zM285 -6q-29 0 -45 17.5t-16 47.5q0 64 61 64q59 0 59 -64q0 -30 -15 -47.5t-44 -17.5zM96 -6q-29 0 -44.5 17.5t-15.5 47.5q0 64 60 64q61 0 61 -64 q0 -30 -16 -47.5t-45 -17.5z" />
<glyph unicode="&#x202f;" horiz-adv-x="190" />
<glyph unicode="&#x2030;" horiz-adv-x="1134" d="M28 0zM498 205q0 112 33 163t106 51q72 0 104.5 -51t32.5 -163q0 -111 -32.5 -162t-104.5 -51q-73 0 -106 52t-33 161zM698 205q0 84 -16.5 116.5t-44.5 32.5q-30 0 -46 -33t-16 -115q0 -85 16 -117.5t46 -32.5q28 0 44.5 32.5t16.5 116.5zM28 498q0 112 33 163t106 51 q72 0 104.5 -51t32.5 -163q0 -111 -32.5 -162t-104.5 -51q-73 0 -106 52t-33 161zM228 498q0 84 -16.5 116.5t-44.5 32.5q-30 0 -46 -33t-16 -115q0 -85 16 -117.5t46 -32.5q28 0 44.5 32.5t16.5 116.5zM825 205q0 112 33 163t106 51q72 0 104.5 -51t32.5 -163 q0 -111 -32.5 -162t-104.5 -51q-73 0 -106 52t-33 161zM1025 205q0 84 -16.5 116.5t-44.5 32.5q-30 0 -46 -33t-16 -115q0 -85 16 -117.5t46 -32.5q28 0 44.5 32.5t16.5 116.5zM574 700l-258 -700h-89l259 700h88z" />
<glyph unicode="&#x2039;" horiz-adv-x="325" d="M181 0l-145 243v3l145 244h104l-146 -243l149 -247h-107z" />
<glyph unicode="&#x203a;" horiz-adv-x="325" d="M140 489l145 -243v-3l-145 -244h-104l146 243l-149 247h107z" />
<glyph unicode="&#x2044;" horiz-adv-x="411" d="M374 700l-258 -700h-89l259 700h88z" />
<glyph unicode="&#x205f;" horiz-adv-x="238" />
<glyph unicode="&#x2070;" horiz-adv-x="333" d="M28 286zM28 499q0 112 33 163t106 51q72 0 104.5 -51t32.5 -163q0 -111 -32.5 -162t-104.5 -51q-73 0 -106 52t-33 161zM228 499q0 84 -16.5 116.5t-44.5 32.5q-30 0 -46 -33t-16 -115q0 -85 16 -117.5t46 -32.5q28 0 44.5 32.5t16.5 116.5z" />
<glyph unicode="&#x2074;" horiz-adv-x="313" d="M16 294zM16 388v56l93 261h76l-92 -248h95v146h73v-146h40v-69h-40v-94h-73v94h-172z" />
<glyph unicode="&#x2075;" horiz-adv-x="289" d="M7 286zM102 639l-6 -99q12 10 28 14t33 4q46 0 77.5 -31t31.5 -99q0 -66 -34.5 -104t-97.5 -38q-44 0 -77 19t-50 67l59 30q10 -29 26.5 -40.5t39.5 -11.5q29 0 43 21t14 56q0 37 -15 54t-41 17q-34 0 -55 -29l-53 24l14 212h211v-66h-148z" />
<glyph unicode="&#x2076;" horiz-adv-x="314" d="M28 286zM169 286q-68 0 -104.5 50.5t-36.5 161.5q0 215 142 215q46 0 74 -18t43 -58l-56 -31q-9 22 -22 33t-33 11q-35 0 -53.5 -33t-18.5 -118v-12q9 30 30.5 47.5t53.5 17.5q45 0 73 -32.5t28 -95.5q0 -62 -29 -100t-91 -38zM114 420q0 -33 13.5 -52.5t37.5 -19.5 q23 0 36.5 18t13.5 55q0 35 -12.5 53t-35.5 18q-24 0 -38.5 -19.5t-14.5 -52.5z" />
<glyph unicode="&#x2077;" horiz-adv-x="255" d="M12 294zM150 294h-84q0 56 8 107t22.5 95t33.5 79.5t42 61.5l-160 -2v70h236v-61q-48 -57 -73 -139t-25 -211z" />
<glyph unicode="&#x2078;" horiz-adv-x="309" d="M28 286zM155 286q-62 0 -94.5 32.5t-32.5 88.5q0 38 15.5 64.5t41.5 37.5q-20 14 -33 37.5t-13 52.5q0 54 30.5 84t85.5 30t85 -30t30 -84q0 -29 -13 -52.5t-33 -37.5q25 -12 41 -38t16 -64q0 -56 -32.5 -88.5t-93.5 -32.5zM200 595q0 23 -11.5 39t-32.5 16 q-24 0 -35.5 -16t-11.5 -39t11.5 -39.5t34.5 -16.5q22 0 33.5 16.5t11.5 39.5zM207 410q0 26 -14 44.5t-38 18.5q-26 0 -39.5 -18.5t-13.5 -44.5q0 -28 13.5 -46t39.5 -18q25 0 38.5 17.5t13.5 46.5z" />
<glyph unicode="&#x2079;" horiz-adv-x="312" d="M23 286zM198 577q0 32 -14 52.5t-37 20.5t-36.5 -18.5t-13.5 -54.5q0 -35 13 -54.5t36 -19.5t37.5 20t14.5 54zM144 713q69 0 104.5 -50.5t35.5 -162.5q0 -214 -144 -214q-41 0 -71 15t-45 51l50 39q11 -23 25.5 -33.5t35.5 -10.5q36 0 54.5 33.5t18.5 117.5v11 q-9 -32 -30.5 -49.5t-51.5 -17.5q-47 0 -75 33.5t-28 97.5q0 62 30 101t91 39z" />
<glyph unicode="&#x207a;" horiz-adv-x="240" d="M24 356zM150 356h-59v92h-67v57h67v93h59v-93h66v-57h-66v-92z" />
<glyph unicode="&#x207b;" horiz-adv-x="240" d="M24 447zM216 507v-60h-192v60h192z" />
<glyph unicode="&#x207c;" horiz-adv-x="240" d="M24 400zM216 553v-62h-192v62h192zM216 461v-61h-192v61h192z" />
<glyph unicode="&#x207d;" horiz-adv-x="171" d="M18 221zM158 287l-14 -66q-126 21 -126 250q0 231 124 250l16 -65q-19 -5 -33.5 -16.5t-24 -33t-14.5 -54.5t-5 -81t5 -80.5t14.5 -54t24 -33t33.5 -16.5z" />
<glyph unicode="&#x207e;" horiz-adv-x="171" d="M13 221zM27 221l-14 66q19 5 33.5 16.5t24 33t14.5 54t5 80.5t-5 81t-14.5 54.5t-24 33t-33.5 16.5l16 65q124 -19 124 -250q0 -229 -126 -250z" />
<glyph unicode="&#x2080;" horiz-adv-x="333" d="M28 205q0 112 33 163t106 51q72 0 104.5 -51t32.5 -163q0 -111 -32.5 -162t-104.5 -51q-73 0 -106 52t-33 161zM228 205q0 84 -16.5 116.5t-44.5 32.5q-30 0 -46 -33t-16 -115q0 -85 16 -117.5t46 -32.5q28 0 44.5 32.5t16.5 116.5z" />
<glyph unicode="&#x2081;" horiz-adv-x="192" d="M149 0h-76v312l-37 -28l-30 63l92 67h51v-414z" />
<glyph unicode="&#x2082;" horiz-adv-x="274" d="M20 0v57l116 161q36 52 36 85q0 48 -42 48q-23 0 -38 -12.5t-27 -42.5l-59 25q17 54 51 76t79 22q54 0 84 -27.5t30 -78.5q0 -32 -15 -64t-47 -78l-74 -105l145 3v-69h-239z" />
<glyph unicode="&#x2083;" horiz-adv-x="286" d="M136 -8q-45 0 -77.5 20t-48.5 68l59 30q11 -31 27 -43t36 -12q26 0 40 16.5t14 47.5q0 30 -14.5 45t-40.5 15h-29v63h29q20 0 33.5 15t13.5 42q0 25 -12.5 39.5t-35.5 14.5q-45 0 -57 -51l-60 25q14 48 46 70t80 22q58 0 87.5 -29t29.5 -77q0 -33 -13.5 -58t-37.5 -42 q26 -12 41.5 -37t15.5 -61q0 -55 -32 -89t-94 -34z" />
<glyph unicode="&#x2084;" horiz-adv-x="313" d="M16 94v56l93 261h76l-92 -248h95v146h73v-146h40v-69h-40v-94h-73v94h-172z" />
<glyph unicode="&#x2085;" horiz-adv-x="289" d="M102 345l-6 -99q12 10 28 14t33 4q46 0 77.5 -31t31.5 -99q0 -66 -34.5 -104t-97.5 -38q-44 0 -77 19t-50 67l59 30q10 -29 26.5 -40.5t39.5 -11.5q29 0 43 21t14 56q0 37 -15 54t-41 17q-34 0 -55 -29l-53 24l14 212h211v-66h-148z" />
<glyph unicode="&#x2086;" horiz-adv-x="314" d="M169 -8q-68 0 -104.5 50.5t-36.5 161.5q0 215 142 215q46 0 74 -18t43 -58l-56 -31q-9 22 -22 33t-33 11q-35 0 -53.5 -33t-18.5 -118v-12q9 30 30.5 47.5t53.5 17.5q45 0 73 -32.5t28 -95.5q0 -62 -29 -100t-91 -38zM114 126q0 -33 13.5 -52.5t37.5 -19.5q23 0 36.5 18 t13.5 55q0 35 -12.5 53t-35.5 18q-24 0 -38.5 -19.5t-14.5 -52.5z" />
<glyph unicode="&#x2087;" horiz-adv-x="255" d="M150 0h-84q0 56 8 107t22.5 95t33.5 79.5t42 61.5l-160 -2v70h236v-61q-48 -57 -73 -139t-25 -211z" />
<glyph unicode="&#x2088;" horiz-adv-x="309" d="M155 -8q-62 0 -94.5 32.5t-32.5 88.5q0 38 15.5 64.5t41.5 37.5q-20 14 -33 37.5t-13 52.5q0 54 30.5 84t85.5 30t85 -30t30 -84q0 -29 -13 -52.5t-33 -37.5q25 -12 41 -38t16 -64q0 -56 -32.5 -88.5t-93.5 -32.5zM200 301q0 23 -11.5 39t-32.5 16q-24 0 -35.5 -16 t-11.5 -39t11.5 -39.5t34.5 -16.5q22 0 33.5 16.5t11.5 39.5zM207 116q0 26 -14 44.5t-38 18.5q-26 0 -39.5 -18.5t-13.5 -44.5q0 -28 13.5 -46t39.5 -18q25 0 38.5 17.5t13.5 46.5z" />
<glyph unicode="&#x2089;" horiz-adv-x="312" d="M198 283q0 32 -14 52.5t-37 20.5t-36.5 -18.5t-13.5 -54.5q0 -35 13 -54.5t36 -19.5t37.5 20t14.5 54zM144 419q69 0 104.5 -50.5t35.5 -162.5q0 -214 -144 -214q-41 0 -71 15t-45 51l50 39q11 -23 25.5 -33.5t35.5 -10.5q36 0 54.5 33.5t18.5 117.5v11 q-9 -32 -30.5 -49.5t-51.5 -17.5q-47 0 -75 33.5t-28 97.5q0 62 30 101t91 39z" />
<glyph unicode="&#x208a;" horiz-adv-x="240" d="M150 60h-59v92h-67v57h67v93h59v-93h66v-57h-66v-92z" />
<glyph unicode="&#x208b;" horiz-adv-x="240" d="M216 211v-60h-192v60h192z" />
<glyph unicode="&#x208c;" horiz-adv-x="240" d="M216 257v-62h-192v62h192zM216 165v-61h-192v61h192z" />
<glyph unicode="&#x208d;" horiz-adv-x="171" d="M158 -9l-14 -66q-126 21 -126 250q0 231 124 250l16 -65q-19 -5 -33.5 -16.5t-24 -33t-14.5 -54.5t-5 -81t5 -80.5t14.5 -54t24 -33t33.5 -16.5z" />
<glyph unicode="&#x208e;" horiz-adv-x="171" d="M27 -75l-14 66q19 5 33.5 16.5t24 33t14.5 54t5 80.5t-5 81t-14.5 54.5t-24 33t-33.5 16.5l16 65q124 -19 124 -250q0 -229 -126 -250z" />
<glyph unicode="&#x20ac;" horiz-adv-x="535" d="M519 158q-25 -91 -80 -131t-140 -40q-100 0 -156 60.5t-72 190.5h-65v72h59q-1 12 -1 27v25h-58v72h61q13 145 74 212t167 67q39 0 71.5 -8.5t58.5 -29t45 -54.5t31 -84l-93 -33q-15 66 -44 92t-74 26q-27 0 -49.5 -9.5t-39 -31.5t-28 -58t-15.5 -89h202l-15 -72h-190 v-23q0 -15 1 -29h180l-16 -72h-157q6 -44 17 -75t27 -50t36.5 -27.5t45.5 -8.5q45 0 78 28t47 92z" />
<glyph unicode="&#x2122;" horiz-adv-x="542" d="M15 700h203v-56h-70v-238h-60v238h-73v56zM244 406v294h65l70 -222l71 222h63v-294h-55l2 180l-58 -180h-48l-56 176l1 -176h-55z" />
<glyph unicode="&#x2153;" horiz-adv-x="667" d="M6 0zM511 -8q-45 0 -77.5 20t-48.5 68l59 30q11 -31 27 -43t36 -12q26 0 40 16.5t14 47.5q0 30 -14.5 45t-40.5 15h-29v63h29q20 0 33.5 15t13.5 42q0 25 -12.5 39.5t-35.5 14.5q-45 0 -57 -51l-60 25q14 48 46 70t80 22q58 0 87.5 -29t29.5 -77q0 -33 -13.5 -58 t-37.5 -42q26 -12 41.5 -37t15.5 -61q0 -55 -32 -89t-94 -34zM149 293h-76v312l-37 -28l-30 63l92 67h51v-414zM460 700l-258 -700h-89l259 700h88z" />
<glyph unicode="&#x2154;" horiz-adv-x="759" d="M6 0zM603 -8q-45 0 -77.5 20t-48.5 68l59 30q11 -31 27 -43t36 -12q26 0 40 16.5t14 47.5q0 30 -14.5 45t-40.5 15h-29v63h29q20 0 33.5 15t13.5 42q0 25 -12.5 39.5t-35.5 14.5q-45 0 -57 -51l-60 25q14 48 46 70t80 22q58 0 87.5 -29t29.5 -77q0 -33 -13.5 -58 t-37.5 -42q26 -12 41.5 -37t15.5 -61q0 -55 -32 -89t-94 -34zM20 293v57l116 161q36 52 36 85q0 48 -42 48q-23 0 -38 -12.5t-27 -42.5l-59 25q17 54 51 76t79 22q54 0 84 -27.5t30 -78.5q0 -32 -15 -64t-47 -78l-74 -105l145 3v-69h-239zM552 700l-258 -700h-89l259 700h88 z" />
<glyph unicode="&#x2155;" horiz-adv-x="665" d="M6 0zM149 293h-76v312l-37 -28l-30 63l92 67h51v-414zM482 345l-6 -99q12 10 28 14t33 4q46 0 77.5 -31t31.5 -99q0 -66 -34.5 -104t-97.5 -38q-44 0 -77 19t-50 67l59 30q10 -29 26.5 -40.5t39.5 -11.5q29 0 43 21t14 56q0 37 -15 54t-41 17q-34 0 -55 -29l-53 24 l14 212h211v-66h-148zM460 700l-258 -700h-89l259 700h88z" />
<glyph unicode="&#x2156;" horiz-adv-x="757" d="M6 0zM20 293v57l116 161q36 52 36 85q0 48 -42 48q-23 0 -38 -12.5t-27 -42.5l-59 25q17 54 51 76t79 22q54 0 84 -27.5t30 -78.5q0 -32 -15 -64t-47 -78l-74 -105l145 3v-69h-239zM573 345l-6 -99q12 10 28 14t33 4q46 0 77.5 -31t31.5 -99q0 -66 -34.5 -104t-97.5 -38 q-44 0 -77 19t-50 67l59 30q10 -29 26.5 -40.5t39.5 -11.5q29 0 43 21t14 56q0 37 -15 54t-41 17q-34 0 -55 -29l-53 24l14 212h211v-66h-148zM552 700l-258 -700h-89l259 700h88z" />
<glyph unicode="&#x2157;" horiz-adv-x="747" d="M10 0zM136 285q-45 0 -77.5 20t-48.5 68l59 30q11 -31 27 -43t36 -12q26 0 40 16.5t14 47.5q0 30 -14.5 45t-40.5 15h-29v63h29q20 0 33.5 15t13.5 42q0 25 -12.5 39.5t-35.5 14.5q-45 0 -57 -51l-60 25q14 48 46 70t80 22q58 0 87.5 -29t29.5 -77q0 -33 -13.5 -58 t-37.5 -42q26 -12 41.5 -37t15.5 -61q0 -55 -32 -89t-94 -34zM563 345l-6 -99q12 10 28 14t33 4q46 0 77.5 -31t31.5 -99q0 -66 -34.5 -104t-97.5 -38q-44 0 -77 19t-50 67l59 30q10 -29 26.5 -40.5t39.5 -11.5q29 0 43 21t14 56q0 37 -15 54t-41 17q-34 0 -55 -29l-53 24 l14 212h211v-66h-148zM542 700l-258 -700h-89l259 700h88z" />
<glyph unicode="&#x2158;" horiz-adv-x="775" d="M16 0zM592 345l-6 -99q12 10 28 14t33 4q46 0 77.5 -31t31.5 -99q0 -66 -34.5 -104t-97.5 -38q-44 0 -77 19t-50 67l59 30q10 -29 26.5 -40.5t39.5 -11.5q29 0 43 21t14 56q0 37 -15 54t-41 17q-34 0 -55 -29l-53 24l14 212h211v-66h-148zM570 700l-258 -700h-89l259 700 h88zM16 387v56l93 261h76l-92 -248h95v146h73v-146h40v-69h-40v-94h-73v94h-172z" />
<glyph unicode="&#x2159;" horiz-adv-x="685" d="M6 0zM149 293h-76v312l-37 -28l-30 63l92 67h51v-414zM536 -8q-68 0 -104.5 50.5t-36.5 161.5q0 215 142 215q46 0 74 -18t43 -58l-56 -31q-9 22 -22 33t-33 11q-35 0 -53.5 -33t-18.5 -118v-12q9 30 30.5 47.5t53.5 17.5q45 0 73 -32.5t28 -95.5q0 -62 -29 -100t-91 -38 zM481 126q0 -33 13.5 -52.5t37.5 -19.5q23 0 36.5 18t13.5 55q0 35 -12.5 53t-35.5 18q-24 0 -38.5 -19.5t-14.5 -52.5zM460 700l-258 -700h-89l259 700h88z" />
<glyph unicode="&#x215a;" horiz-adv-x="767" d="M7 0zM102 638l-6 -99q12 10 28 14t33 4q46 0 77.5 -31t31.5 -99q0 -66 -34.5 -104t-97.5 -38q-44 0 -77 19t-50 67l59 30q10 -29 26.5 -40.5t39.5 -11.5q29 0 43 21t14 56q0 37 -15 54t-41 17q-34 0 -55 -29l-53 24l14 212h211v-66h-148zM619 -8q-68 0 -104.5 50.5 t-36.5 161.5q0 215 142 215q46 0 74 -18t43 -58l-56 -31q-9 22 -22 33t-33 11q-35 0 -53.5 -33t-18.5 -118v-12q9 30 30.5 47.5t53.5 17.5q45 0 73 -32.5t28 -95.5q0 -62 -29 -100t-91 -38zM564 126q0 -33 13.5 -52.5t37.5 -19.5q23 0 36.5 18t13.5 55q0 35 -12.5 53 t-35.5 18q-24 0 -38.5 -19.5t-14.5 -52.5zM542 700l-258 -700h-89l259 700h88z" />
<glyph unicode="&#x215b;" horiz-adv-x="680" d="M6 0zM149 293h-76v312l-37 -28l-30 63l92 67h51v-414zM527 -8q-62 0 -94.5 32.5t-32.5 88.5q0 38 15.5 64.5t41.5 37.5q-20 14 -33 37.5t-13 52.5q0 54 30.5 84t85.5 30t85 -30t30 -84q0 -29 -13 -52.5t-33 -37.5q25 -12 41 -38t16 -64q0 -56 -32.5 -88.5t-93.5 -32.5z M572 301q0 23 -11.5 39t-32.5 16q-24 0 -35.5 -16t-11.5 -39t11.5 -39.5t34.5 -16.5q22 0 33.5 16.5t11.5 39.5zM579 116q0 26 -14 44.5t-38 18.5q-26 0 -39.5 -18.5t-13.5 -44.5q0 -28 13.5 -46t39.5 -18q25 0 38.5 17.5t13.5 46.5zM460 700l-258 -700h-89l259 700h88z" />
<glyph unicode="&#x215c;" horiz-adv-x="761" d="M10 0zM136 285q-45 0 -77.5 20t-48.5 68l59 30q11 -31 27 -43t36 -12q26 0 40 16.5t14 47.5q0 30 -14.5 45t-40.5 15h-29v63h29q20 0 33.5 15t13.5 42q0 25 -12.5 39.5t-35.5 14.5q-45 0 -57 -51l-60 25q14 48 46 70t80 22q58 0 87.5 -29t29.5 -77q0 -33 -13.5 -58 t-37.5 -42q26 -12 41.5 -37t15.5 -61q0 -55 -32 -89t-94 -34zM608 -8q-62 0 -94.5 32.5t-32.5 88.5q0 38 15.5 64.5t41.5 37.5q-20 14 -33 37.5t-13 52.5q0 54 30.5 84t85.5 30t85 -30t30 -84q0 -29 -13 -52.5t-33 -37.5q25 -12 41 -38t16 -64q0 -56 -32.5 -88.5 t-93.5 -32.5zM653 301q0 23 -11.5 39t-32.5 16q-24 0 -35.5 -16t-11.5 -39t11.5 -39.5t34.5 -16.5q22 0 33.5 16.5t11.5 39.5zM660 116q0 26 -14 44.5t-38 18.5q-26 0 -39.5 -18.5t-13.5 -44.5q0 -28 13.5 -46t39.5 -18q25 0 38.5 17.5t13.5 46.5zM542 700l-258 -700h-89 l259 700h88z" />
<glyph unicode="&#x215d;" horiz-adv-x="761" d="M7 0zM608 -8q-62 0 -94.5 32.5t-32.5 88.5q0 38 15.5 64.5t41.5 37.5q-20 14 -33 37.5t-13 52.5q0 54 30.5 84t85.5 30t85 -30t30 -84q0 -29 -13 -52.5t-33 -37.5q25 -12 41 -38t16 -64q0 -56 -32.5 -88.5t-93.5 -32.5zM653 301q0 23 -11.5 39t-32.5 16q-24 0 -35.5 -16 t-11.5 -39t11.5 -39.5t34.5 -16.5q22 0 33.5 16.5t11.5 39.5zM660 116q0 26 -14 44.5t-38 18.5q-26 0 -39.5 -18.5t-13.5 -44.5q0 -28 13.5 -46t39.5 -18q25 0 38.5 17.5t13.5 46.5zM102 638l-6 -99q12 10 28 14t33 4q46 0 77.5 -31t31.5 -99q0 -66 -34.5 -104t-97.5 -38 q-44 0 -77 19t-50 67l59 30q10 -29 26.5 -40.5t39.5 -11.5q29 0 43 21t14 56q0 37 -15 54t-41 17q-34 0 -55 -29l-53 24l14 212h211v-66h-148zM542 700l-258 -700h-89l259 700h88z" />
<glyph unicode="&#x215e;" horiz-adv-x="708" d="M12 0zM554 -8q-62 0 -94.5 32.5t-32.5 88.5q0 38 15.5 64.5t41.5 37.5q-20 14 -33 37.5t-13 52.5q0 54 30.5 84t85.5 30t85 -30t30 -84q0 -29 -13 -52.5t-33 -37.5q25 -12 41 -38t16 -64q0 -56 -32.5 -88.5t-93.5 -32.5zM599 301q0 23 -11.5 39t-32.5 16q-24 0 -35.5 -16 t-11.5 -39t11.5 -39.5t34.5 -16.5q22 0 33.5 16.5t11.5 39.5zM606 116q0 26 -14 44.5t-38 18.5q-26 0 -39.5 -18.5t-13.5 -44.5q0 -28 13.5 -46t39.5 -18q25 0 38.5 17.5t13.5 46.5zM150 293h-84q0 56 8 107t22.5 95t33.5 79.5t42 61.5l-160 -2v70h236v-61q-48 -57 -73 -139 t-25 -211zM489 700l-258 -700h-89l259 700h88z" />
<glyph unicode="&#x215f;" horiz-adv-x="630" d="M6 0zM149 293h-76v312l-37 -28l-30 63l92 67h51v-414zM460 700l-258 -700h-89l259 700h88z" />
<glyph unicode="&#x2212;" horiz-adv-x="387" d="M348 348v-75h-308v75h308z" />
<glyph unicode="&#x2248;" horiz-adv-x="387" d="M265 401q15 0 39 6t44 23v-78q-17 -13 -42 -19.5t-47 -6.5q-20 0 -36.5 5.5t-32 11.5t-31.5 11.5t-34 5.5q-17 0 -41 -5.5t-44 -22.5v78q17 13 40.5 19t45.5 6q21 0 38 -5.5t33 -11.5t32.5 -11.5t35.5 -5.5zM265 251q15 0 39 6t44 23v-79q-17 -13 -42 -19.5t-47 -6.5 q-20 0 -36.5 5.5t-32 11.5t-31.5 11.5t-34 5.5q-17 0 -41 -5.5t-44 -22.5v79q17 13 40.5 19t45.5 6q21 0 38 -5.5t33 -11.5t32.5 -11.5t35.5 -5.5z" />
<glyph unicode="&#x2260;" horiz-adv-x="387" d="M40 343v78h180l43 81h67l-43 -81h61v-78h-102l-37 -67h139v-78h-180l-43 -80h-68l44 80h-61v78h102l36 67h-138z" />
<glyph unicode="&#x2264;" horiz-adv-x="449" d="M323 528l42 -64l-172 -127l172 -127l-42 -68l-235 170v46zM78 0v78h293v-78h-293z" />
<glyph unicode="&#x2265;" horiz-adv-x="449" d="M131 142l-42 65l172 128l-173 126l43 67l235 -169v-45zM371 78v-78h-293v78h293z" />
<glyph unicode="&#x25fc;" horiz-adv-x="490" d="M0 490h490v-490h-490v490z" />
<glyph unicode="&#xf6c3;" d="M286 -138q0 -61 -26.5 -104t-71.5 -60l-26 39q26 14 44 36t21 50q-26 -2 -42 12.5t-16 44.5q0 29 15.5 43.5t43.5 14.5q58 0 58 -76z" />
<glyph horiz-adv-x="380" d="M216 -65v831h92v-831h-92zM72 -65v831h92v-831h-92z" />
<glyph horiz-adv-x="185" d="M129 473q-51 20 -76.5 67.5t-25.5 107.5q0 42 16 61.5t46 19.5q27 0 42.5 -15.5t15.5 -47.5t-16 -47.5t-40 -14.5q3 -29 19.5 -51t44.5 -36z" />
<glyph horiz-adv-x="335" d="M128 472q-51 20 -76.5 67.5t-25.5 107.5q0 42 16 61.5t46 19.5q27 0 42.5 -15.5t15.5 -47.5t-16 -47.5t-40 -14.5q3 -29 19.5 -51t44.5 -36zM279 472q-51 20 -76.5 67.5t-25.5 107.5q0 42 16 61.5t46 19.5q27 0 42.5 -15.5t15.5 -47.5t-16 -47.5t-40 -14.5 q3 -29 19.5 -51t44.5 -36z" />
<glyph horiz-adv-x="475" d="M37 0zM314 243q0 93 -25 134.5t-67 41.5q-43 0 -64.5 -42t-21.5 -132t21 -132t65 -42q41 0 66.5 41t25.5 131zM192 -13q-73 0 -114 65.5t-41 191.5q0 129 43.5 194t118.5 65q87 0 125 -90l8 77h82v-490h-83l-8 78q-42 -91 -131 -91zM377 -218q-20 0 -39 5.5t-34 19 t-24.5 35.5t-9.5 55q0 36 12 63t31.5 45.5t43.5 27t48 7.5l2 -40q-19 -2 -33 -10.5t-23 -21.5t-13.5 -28.5t-4.5 -31.5q0 -32 15.5 -44t35.5 -12q26 0 46 17l28 -57q-18 -14 -37.5 -22t-43.5 -8z" />
<glyph horiz-adv-x="474" d="M314 243q0 93 -25 134.5t-67 41.5q-43 0 -64.5 -42t-21.5 -132t21 -132t65 -42q41 0 66.5 41t25.5 131zM192 -13q-73 0 -114 65.5t-41 191.5q0 129 43.5 194t118.5 65q87 0 125 -90l8 77h82v-490h-83l-8 78q-42 -91 -131 -91z" />
<glyph horiz-adv-x="474" d="M37 0zM314 243q0 93 -25 134.5t-67 41.5q-43 0 -64.5 -42t-21.5 -132t21 -132t65 -42q41 0 66.5 41t25.5 131zM192 -13q-73 0 -114 65.5t-41 191.5q0 129 43.5 194t118.5 65q87 0 125 -90l8 77h82v-490h-83l-8 78q-42 -91 -131 -91zM190 575l-95 115v7h116l60 -118v-4 h-81z" />
<glyph horiz-adv-x="474" d="M37 0zM314 243q0 93 -25 134.5t-67 41.5q-43 0 -64.5 -42t-21.5 -132t21 -132t65 -42q41 0 66.5 41t25.5 131zM192 -13q-73 0 -114 65.5t-41 191.5q0 129 43.5 194t118.5 65q87 0 125 -90l8 77h82v-490h-83l-8 78q-42 -91 -131 -91zM347 688l-93 -115h-80v4l60 118h113 v-7z" />
<glyph horiz-adv-x="474" d="M37 0zM220 639l-47 -66h-87v3l93 119h87l94 -119v-3h-91zM314 243q0 93 -25 134.5t-67 41.5q-43 0 -64.5 -42t-21.5 -132t21 -132t65 -42q41 0 66.5 41t25.5 131zM192 -13q-73 0 -114 65.5t-41 191.5q0 129 43.5 194t118.5 65q87 0 125 -90l8 77h82v-490h-83l-8 78 q-42 -91 -131 -91z" />
<glyph horiz-adv-x="474" d="M37 0zM242 641q0 60 56 60q59 0 59 -60q0 -62 -59 -62q-56 0 -56 62zM85 641q0 30 15.5 45t42.5 15q58 0 58 -60q0 -62 -58 -62q-27 0 -42.5 15.5t-15.5 46.5zM314 243q0 93 -25 134.5t-67 41.5q-43 0 -64.5 -42t-21.5 -132t21 -132t65 -42q41 0 66.5 41t25.5 131z M192 -13q-73 0 -114 65.5t-41 191.5q0 129 43.5 194t118.5 65q87 0 125 -90l8 77h82v-490h-83l-8 78q-42 -91 -131 -91z" />
<glyph horiz-adv-x="474" d="M37 0zM314 243q0 93 -25 134.5t-67 41.5q-43 0 -64.5 -42t-21.5 -132t21 -132t65 -42q41 0 66.5 41t25.5 131zM192 -13q-73 0 -114 65.5t-41 191.5q0 129 43.5 194t118.5 65q87 0 125 -90l8 77h82v-490h-83l-8 78q-42 -91 -131 -91zM288 689h63q2 -31 -4 -51.5t-17 -33 t-25 -18t-28 -5.5q-17 0 -30.5 6t-26 13.5t-23.5 13.5t-21 6q-14 0 -18 -11t-4 -25h-65q-2 31 4.5 51.5t17 33t24 17.5t26.5 5q18 0 32.5 -6t27 -12.5t23.5 -12.5t22 -6q14 0 18 10.5t4 24.5z" />
<glyph horiz-adv-x="474" d="M37 0zM314 243q0 93 -25 134.5t-67 41.5q-43 0 -64.5 -42t-21.5 -132t21 -132t65 -42q41 0 66.5 41t25.5 131zM192 -13q-73 0 -114 65.5t-41 191.5q0 129 43.5 194t118.5 65q87 0 125 -90l8 77h82v-490h-83l-8 78q-42 -91 -131 -91zM132 646q0 46 25 71t64 25 q38 0 62.5 -25t24.5 -71q0 -45 -24.5 -70t-62.5 -25q-39 0 -64 25t-25 70zM181 646q0 -23 11 -36.5t29 -13.5q17 0 28.5 13.5t11.5 36.5t-11.5 36.5t-28.5 13.5q-18 0 -29 -13.5t-11 -36.5z" />
<glyph horiz-adv-x="474" d="M37 0zM314 243q0 93 -25 134.5t-67 41.5q-43 0 -64.5 -42t-21.5 -132t21 -132t65 -42q41 0 66.5 41t25.5 131zM192 -13q-73 0 -114 65.5t-41 191.5q0 129 43.5 194t118.5 65q87 0 125 -90l8 77h82v-490h-83l-8 78q-42 -91 -131 -91zM327 666v-69h-210v69h210z" />
<glyph horiz-adv-x="474" d="M37 0zM314 243q0 93 -25 134.5t-67 41.5q-43 0 -64.5 -42t-21.5 -132t21 -132t65 -42q41 0 66.5 41t25.5 131zM192 -13q-73 0 -114 65.5t-41 191.5q0 129 43.5 194t118.5 65q87 0 125 -90l8 77h82v-490h-83l-8 78q-42 -91 -131 -91zM277 694h66q0 -73 -32 -100.5 t-90 -27.5t-90 27.5t-32 100.5h66q0 -37 13.5 -51t41.5 -14q29 0 43 14t14 51z" />
<glyph horiz-adv-x="473" d="M213 -217q-75 0 -119 32t-67 93l82 43q28 -85 97 -85q104 0 104 144v71q-21 -43 -52 -61t-67 -18q-72 0 -104 49t-32 135v304h101v-287q0 -115 67 -115q39 0 62.5 41t24.5 122v239h103v-477q0 -116 -55 -173t-145 -57z" />
<glyph horiz-adv-x="473" d="M27 0zM213 -217q-75 0 -119 32t-67 93l82 43q28 -85 97 -85q104 0 104 144v71q-21 -43 -52 -61t-67 -18q-72 0 -104 49t-32 135v304h101v-287q0 -115 67 -115q39 0 62.5 41t24.5 122v239h103v-477q0 -116 -55 -173t-145 -57zM344 688l-93 -115h-80v4l60 118h113v-7z" />
<glyph horiz-adv-x="473" d="M27 0zM235 639l-47 -66h-87v3l93 119h87l94 -119v-3h-91zM213 -217q-75 0 -119 32t-67 93l82 43q28 -85 97 -85q104 0 104 144v71q-21 -43 -52 -61t-67 -18q-72 0 -104 49t-32 135v304h101v-287q0 -115 67 -115q39 0 62.5 41t24.5 122v239h103v-477q0 -116 -55 -173 t-145 -57z" />
<glyph horiz-adv-x="473" d="M27 0zM258 641q0 60 56 60q59 0 59 -60q0 -62 -59 -62q-56 0 -56 62zM101 641q0 30 15.5 45t42.5 15q58 0 58 -60q0 -62 -58 -62q-27 0 -42.5 15.5t-15.5 46.5zM213 -217q-75 0 -119 32t-67 93l82 43q28 -85 97 -85q104 0 104 144v71q-21 -43 -52 -61t-67 -18 q-72 0 -104 49t-32 135v304h101v-287q0 -115 67 -115q39 0 62.5 41t24.5 122v239h103v-477q0 -116 -55 -173t-145 -57z" />
<glyph horiz-adv-x="303" d="M160 345q-63 0 -98 43t-35 141q0 96 35.5 140t100.5 44q44 0 72.5 -19t43.5 -61l-57 -38q-19 53 -59 53q-32 0 -47.5 -26t-15.5 -93q0 -64 15.5 -91.5t48.5 -27.5q23 0 37.5 12.5t22.5 41.5l57 -31q-33 -88 -121 -88z" />
<glyph horiz-adv-x="343" d="M224 529q0 63 -17.5 91.5t-44.5 28.5q-31 0 -46 -29t-15 -91q0 -119 61 -119q28 0 45 28.5t17 90.5zM233 356l-6 57q-13 -34 -36 -51t-52 -17q-52 0 -82 46t-30 136q0 94 31.5 140t85.5 46q61 0 86 -64l6 53h61v-346h-64z" />
<glyph d="M264 468h-67l5 233h86z" />
<glyph horiz-adv-x="189" d="M38 0l16 499h75l15 -499h-106zM91 706q29 0 44.5 -17.5t15.5 -47.5q0 -32 -15.5 -48t-44.5 -16q-61 0 -61 64q0 30 16 47.5t45 17.5z" />
<glyph horiz-adv-x="395" d="M234 503l5 -161h-36q-50 0 -79 -34.5t-29 -103.5q0 -63 27 -94.5t77 -31.5q45 0 73 23.5t41 77.5l78 -34q-10 -44 -29 -73.5t-45 -48t-58 -26.5t-68 -8q-94 0 -142.5 56t-48.5 154q0 93 40 145t107 64l6 95h81zM196 710q28 0 43.5 -17.5t15.5 -47.5q0 -32 -15.5 -48 t-43.5 -16q-61 0 -61 64q0 30 15.5 47.5t45.5 17.5z" />
<glyph horiz-adv-x="290" d="M252 302v-88h-213v88h213z" />
<glyph horiz-adv-x="527" d="M489 302v-88h-450v88h450z" />
<glyph horiz-adv-x="570" d="M302 274v86h221v-71q0 -156 -60 -229t-166 -73q-121 0 -184 88.5t-63 275.5q0 97 15.5 165.5t47 112t78.5 64t110 20.5q39 0 72.5 -9t61 -29t47.5 -53.5t32 -82.5l-91 -36q-20 67 -50 91.5t-73 24.5q-35 0 -61.5 -12t-45 -42.5t-28 -82.5t-9.5 -131t9.5 -131.5t28 -84.5 t45 -45.5t60.5 -13.5q27 0 50 10.5t39 34t24.5 61.5t8.5 92h-119z" />
<glyph horiz-adv-x="522" d="M74 0v700h108v-700h-108zM391 0l-195 338v6l196 356h116l-200 -347l210 -353h-127z" />
<glyph horiz-adv-x="429" d="M59 0v700h102v-700h-102zM307 0l-136 232v14l136 244h108l-140 -239l149 -251h-117z" />
<glyph horiz-adv-x="619" d="M42 6zM315 6q-63 0 -113.5 24t-86 69t-54.5 108.5t-19 142.5q0 80 19 144t54 108.5t86 68t114 23.5q62 0 111 -22t82.5 -62.5t51 -98.5t17.5 -129q0 -91 -35 -142.5t-96 -51.5q-28 0 -47.5 12t-30.5 41q-32 -60 -93 -60q-38 0 -63 24.5t-25 69.5q0 51 36.5 83t98.5 32h35 q-1 47 -19 64.5t-40 17.5q-42 0 -59 -49l-50 33q11 31 39 52.5t79 21.5q57 0 87 -33.5t30 -103.5v-100q0 -30 9 -45.5t30 -15.5q29 0 49.5 37.5t20.5 110.5q0 68 -16.5 119.5t-45.5 85.5t-69 51t-87 17q-50 0 -92 -19t-72.5 -57.5t-48 -95t-17.5 -131.5q0 -76 18 -133 t49.5 -95t73.5 -57t90 -19q55 0 98 19t75 63l32 -25q-70 -97 -206 -97zM289 235q30 0 49 25t19 71v11h-28q-39 0 -59 -18.5t-20 -44.5q0 -20 11 -32t28 -12z" />
<glyph horiz-adv-x="546" d="M50 350q0 190 53.5 276.5t170.5 86.5q115 0 168.5 -86.5t53.5 -276.5t-53.5 -276.5t-168.5 -86.5q-117 0 -170.5 87.5t-53.5 275.5zM392 349q0 78 -8 130.5t-23 85t-37 46t-50 13.5q-29 0 -51.5 -14t-37.5 -46.5t-23 -84.5t-8 -128q0 -79 8 -132t23 -85t37.5 -45.5 t51.5 -13.5q28 0 50 13.5t37 45t23 84.5t8 131z" />
<glyph horiz-adv-x="293" d="M219 0h-105v562l-65 -54l-42 84l142 111h70v-703z" />
<glyph horiz-adv-x="442" d="M29 0v81l196 280q37 52 53.5 92.5t16.5 73.5q0 48 -22.5 72t-60.5 24q-44 0 -74 -24.5t-50 -81.5l-80 36q30 88 84 124t127 36q85 0 132.5 -45t47.5 -128q0 -51 -23 -104t-73 -128l-153 -219l269 4v-93h-390z" />
<glyph horiz-adv-x="466" d="M216 73q48 0 76 32.5t28 95.5q0 57 -27 86.5t-75 29.5h-51v89h49q38 0 65 30.5t27 83.5q0 49 -25.5 76t-70.5 27q-44 0 -69.5 -24.5t-38.5 -72.5l-83 36q22 78 74.5 114.5t128.5 36.5q93 0 139.5 -48t46.5 -129q0 -57 -22 -99.5t-63 -71.5q45 -17 71.5 -60t26.5 -109 q0 -45 -12.5 -83.5t-38 -66.5t-63.5 -44t-90 -16q-73 0 -126.5 34.5t-76.5 111.5l84 40q16 -55 47 -77t69 -22z" />
<glyph horiz-adv-x="501" d="M23 173v76l165 451h101l-161 -434h184v287h101v-287h72v-93h-72v-173h-101v173h-289z" />
<glyph horiz-adv-x="470" d="M217 -14q-72 0 -126.5 33.5t-77.5 113.5l83 39q15 -55 47 -77t71 -22q57 0 84.5 41.5t27.5 110.5q0 70 -28 103.5t-81 33.5q-32 0 -59 -14t-48 -39l-70 31l24 360h335v-91h-249l-12 -197q22 18 50.5 27t57.5 9q39 0 72 -12.5t58 -39t39 -68.5t14 -101q0 -52 -13.5 -96 t-40 -76.5t-66 -50.5t-92.5 -18z" />
<glyph horiz-adv-x="514" d="M274 -14q-53 0 -94.5 21t-70.5 65t-44 112.5t-15 163.5q0 189 59 277t174 88q69 0 115 -29.5t70 -95.5l-79 -45q-18 44 -43 64t-61 20q-30 0 -55 -13.5t-42 -46t-26.5 -87t-9.5 -136.5v-21q16 55 55 85.5t94 30.5q75 0 123 -55t48 -163q0 -52 -12.5 -95.5t-37 -74.5 t-62 -48t-86.5 -17zM271 73q45 0 72 34.5t27 107.5q0 69 -24.5 105t-71.5 36q-48 0 -76.5 -40t-28.5 -104q0 -63 27 -101t75 -38z" />
<glyph horiz-adv-x="404" d="M108 0q0 96 13 185.5t36 168.5t55.5 143.5t71.5 110.5l-268 -2v94h379v-88q-85 -88 -131 -243t-44 -369h-112z" />
<glyph horiz-adv-x="508" d="M254 -13q-97 0 -150.5 56t-53.5 149q0 66 27.5 111t69.5 65q-35 23 -56.5 63t-21.5 91q0 91 49 141t136 50t136 -50t49 -141q0 -51 -22 -91t-57 -63q43 -20 70.5 -65t27.5 -111q0 -93 -53.5 -149t-150.5 -56zM344 519q0 22 -6 42t-17 35t-27.5 23.5t-38.5 8.5t-39 -8.5 t-28.5 -23.5t-17.5 -35t-6 -42q0 -45 22.5 -77t67.5 -32q44 0 67 32t23 77zM255 72q49 0 75.5 34.5t26.5 90.5q0 52 -27 87t-75 35q-50 0 -77 -35t-27 -87q0 -55 26.5 -90t77.5 -35z" />
<glyph horiz-adv-x="511" d="M240 627q-45 0 -72 -35.5t-27 -108.5q0 -69 25 -106.5t72 -37.5q48 0 76 40.5t28 106.5q0 64 -28 102.5t-74 38.5zM239 713q53 0 94.5 -21t70 -65t43 -112.5t14.5 -162.5q0 -189 -58.5 -277t-173.5 -88q-69 0 -115 29t-71 95l80 45q18 -44 43 -63.5t61 -19.5 q30 0 54.5 13.5t42 46t26.5 87t9 135.5v20q-16 -57 -54.5 -88t-92.5 -31q-78 0 -125 56t-47 165q0 52 12.5 95.5t37.5 74.5t62 48.5t87 17.5z" />
<glyph horiz-adv-x="535" d="M267 613q100 0 152 -75t52 -239q0 -162 -52 -237t-152 -75q-97 0 -149.5 74.5t-52.5 238.5t52 238.5t150 74.5zM267 525q-24 0 -43 -11t-32 -37t-19.5 -69t-6.5 -108q0 -64 6.5 -107t19.5 -69.5t32 -37.5t43 -11q25 0 44.5 11t33 37t20 69t6.5 108q0 63 -6.5 106.5 t-20 69.5t-33 37.5t-44.5 11.5z" />
<glyph horiz-adv-x="535" d="M462 0h-388v89h143v373l-61 -54l-40 84l136 111h67v-514h143v-89z" />
<glyph horiz-adv-x="535" d="M89 0v71l167 217q25 32 42.5 57t29 45t17 37t5.5 34q0 33 -22 48t-56 15q-37 0 -65 -21.5t-42 -66.5l-79 37q25 75 76.5 107.5t120.5 32.5q79 0 124 -37t45 -104q0 -25 -7.5 -49t-22 -51t-36 -58t-50.5 -69l-122 -161l251 4v-88h-376z" />
<glyph horiz-adv-x="535" d="M264 -27q48 0 76 32.5t28 95.5q0 57 -27 86.5t-75 29.5h-51v89h49q38 0 65 30.5t27 83.5q0 49 -25.5 76t-70.5 27q-44 0 -69.5 -24.5t-38.5 -72.5l-83 36q22 78 74.5 114.5t128.5 36.5q93 0 139.5 -48t46.5 -129q0 -57 -22 -99.5t-63 -71.5q45 -17 71.5 -60t26.5 -109 q0 -45 -12.5 -83.5t-38 -66.5t-63.5 -44t-90 -16q-73 0 -126.5 34.5t-76.5 111.5l84 40q16 -55 47 -77t69 -22z" />
<glyph horiz-adv-x="535" d="M37 73v76l165 451h101l-161 -434h184v287h101v-287h72v-93h-72v-173h-101v173h-289z" />
<glyph horiz-adv-x="535" d="M264 -114q-72 0 -126.5 33.5t-77.5 113.5l83 39q15 -55 47 -77t71 -22q57 0 84.5 41.5t27.5 110.5q0 70 -28 103.5t-81 33.5q-32 0 -59 -14t-48 -39l-70 31l24 360h335v-91h-249l-12 -197q22 18 50.5 27t57.5 9q39 0 72 -12.5t58 -39t39 -68.5t14 -101q0 -52 -13.5 -96 t-40 -76.5t-66 -50.5t-92.5 -18z" />
<glyph horiz-adv-x="535" d="M281 -14q-53 0 -94.5 21t-70.5 65t-44 112.5t-15 163.5q0 189 59 277t174 88q69 0 115 -29.5t70 -95.5l-79 -45q-18 44 -43 64t-61 20q-30 0 -55 -13.5t-42 -46t-26.5 -87t-9.5 -136.5v-21q16 55 55 85.5t94 30.5q75 0 123 -55t48 -163q0 -52 -12.5 -95.5t-37 -74.5 t-62 -48t-86.5 -17zM278 73q45 0 72 34.5t27 107.5q0 69 -24.5 105t-71.5 36q-48 0 -76.5 -40t-28.5 -104q0 -63 27 -101t75 -38z" />
<glyph horiz-adv-x="535" d="M170 -100q0 96 13 185.5t36 168.5t55.5 143.5t71.5 110.5l-268 -2v94h379v-88q-85 -88 -131 -243t-44 -369h-112z" />
<glyph horiz-adv-x="535" d="M268 -13q-97 0 -150.5 56t-53.5 149q0 66 27.5 111t69.5 65q-35 23 -56.5 63t-21.5 91q0 91 49 141t136 50t136 -50t49 -141q0 -51 -22 -91t-57 -63q43 -20 70.5 -65t27.5 -111q0 -93 -53.5 -149t-150.5 -56zM358 519q0 22 -6 42t-17 35t-27.5 23.5t-38.5 8.5t-39 -8.5 t-28.5 -23.5t-17.5 -35t-6 -42q0 -45 22.5 -77t67.5 -32q44 0 67 32t23 77zM269 72q49 0 75.5 34.5t26.5 90.5q0 52 -27 87t-75 35q-50 0 -77 -35t-27 -87q0 -55 26.5 -90t77.5 -35z" />
<glyph horiz-adv-x="535" d="M257 527q-45 0 -72 -35.5t-27 -108.5q0 -69 25 -106.5t72 -37.5q48 0 76 40.5t28 106.5q0 64 -28 102.5t-74 38.5zM256 613q53 0 94.5 -21t70 -65t43 -112.5t14.5 -162.5q0 -189 -58.5 -277t-173.5 -88q-69 0 -115 29t-71 95l80 45q18 -44 43 -63.5t61 -19.5 q30 0 54.5 13.5t42 46t26.5 87t9 135.5v20q-16 -57 -54.5 -88t-92.5 -31q-78 0 -125 56t-47 165q0 52 12.5 95.5t37.5 74.5t62 48.5t87 17.5z" />
<glyph horiz-adv-x="481" d="M239 613q100 0 152 -75t52 -239q0 -162 -52 -237t-152 -75q-97 0 -149.5 74.5t-52.5 238.5t52 238.5t150 74.5zM239 525q-24 0 -43 -11t-32 -37t-19.5 -69t-6.5 -108q0 -64 6.5 -107t19.5 -69.5t32 -37.5t43 -11q25 0 44.5 11t33 37t20 69t6.5 108q0 63 -6.5 106.5 t-20 69.5t-33 37.5t-44.5 11.5z" />
<glyph horiz-adv-x="269" d="M209 0h-102v462l-61 -54l-40 84l136 111h67v-603z" />
<glyph horiz-adv-x="423" d="M28 0v71l162 217q23 31 39.5 54.5t27.5 42.5t16.5 35t5.5 31q0 38 -20.5 55.5t-52.5 17.5q-35 0 -61.5 -21.5t-40.5 -66.5l-79 37q25 75 74.5 107.5t117.5 32.5q77 0 120.5 -39t43.5 -109q0 -24 -7 -47.5t-21 -49.5t-34.5 -56t-48.5 -67l-122 -161l246 4v-88h-366z" />
<glyph horiz-adv-x="449" d="M206 -28q48 0 76 32.5t28 95.5q0 58 -27 87.5t-75 29.5h-51v89h49q39 0 65.5 30t26.5 84q0 51 -24.5 78t-69.5 27q-82 0 -108 -97l-82 34q21 74 71 112.5t129 38.5q89 0 137.5 -48t48.5 -132q0 -57 -22 -98.5t-62 -69.5q44 -17 70 -59.5t26 -109.5q0 -45 -12.5 -83.5 t-37.5 -66.5t-63 -44t-89 -16q-69 0 -123 33.5t-77 113.5l82 39q15 -54 44.5 -77t69.5 -23z" />
<glyph horiz-adv-x="486" d="M27 73v74l158 453h99l-156 -436h175v288h99v-288h66v-91h-66v-173h-99v173h-276z" />
<glyph horiz-adv-x="454" d="M209 -114q-72 0 -124.5 35t-74.5 111l84 40q15 -56 45.5 -78t68.5 -22q54 0 82 42t28 111q0 70 -27.5 103.5t-76.5 33.5q-31 0 -56.5 -14t-45.5 -39l-72 31l26 360h328v-91h-242l-13 -197q20 17 46.5 26.5t58.5 9.5q36 0 68 -12.5t56 -39t37.5 -68.5t13.5 -101 q0 -54 -13 -98t-39.5 -76t-66 -49.5t-91.5 -17.5z" />
<glyph horiz-adv-x="480" d="M255 -13q-53 0 -93.5 21t-68 65t-42 112t-14.5 163q0 189 57.5 277t171.5 88q133 0 179 -126l-80 -44q-18 45 -41.5 64.5t-59.5 19.5q-29 0 -52 -13.5t-39.5 -46t-25.5 -87t-9 -136.5v-18q14 54 51.5 83.5t90.5 29.5q76 0 122 -56t46 -162q0 -52 -12 -95t-36.5 -74 t-60.5 -48t-84 -17zM252 73q43 0 69 34.5t26 107.5q0 67 -23 104t-71 37q-45 0 -72 -40t-27 -104q0 -63 26 -101t72 -38z" />
<glyph horiz-adv-x="393" d="M108 -100q0 85 10.5 169.5t32 163.5t53.5 149t75 126l-261 -2v94h369v-88q-39 -40 -70.5 -100t-53.5 -138t-34 -172t-12 -202h-109z" />
<glyph horiz-adv-x="472" d="M236 -13q-48 0 -85 14.5t-62.5 41.5t-38.5 65t-13 84q0 66 27 111t69 65q-35 23 -56 63t-21 92q0 89 47.5 139.5t132.5 50.5t132.5 -50.5t47.5 -139.5q0 -52 -21.5 -92t-56.5 -63q43 -20 69.5 -65t26.5 -111q0 -46 -13 -84t-38.5 -65t-62.5 -41.5t-84 -14.5zM322 520 q0 47 -22 78t-64 31t-65 -31t-23 -78q0 -48 23 -79t65 -31t64 31t22 79zM236 72q48 0 73.5 34.5t25.5 89.5q0 53 -26 88t-73 35q-48 0 -73.5 -35t-25.5 -88q0 -55 25.5 -89.5t73.5 -34.5z" />
<glyph horiz-adv-x="480" d="M229 526q-45 0 -70.5 -35t-25.5 -107q0 -67 24 -104t70 -37q45 0 72 40t27 104q0 63 -26 101t-71 38zM227 612q105 0 160.5 -85.5t55.5 -275.5q0 -189 -57.5 -277t-171.5 -88q-69 0 -112.5 32t-66.5 93l80 45q18 -45 41.5 -64.5t60.5 -19.5q28 0 51.5 13.5t39.5 46t25 87 t9 136.5v18q-14 -54 -52 -83.5t-90 -29.5q-35 0 -66 14t-53.5 41.5t-35.5 68t-13 94.5q0 52 12.5 95t37 74t61 48t84.5 17z" />
<glyph horiz-adv-x="333" d="M28 0zM28 5q0 112 33 163t106 51q72 0 104.5 -51t32.5 -163q0 -111 -32.5 -162t-104.5 -51q-73 0 -106 52t-33 161zM228 5q0 84 -16.5 116.5t-44.5 32.5q-30 0 -46 -33t-16 -115q0 -85 16 -117.5t46 -32.5q28 0 44.5 32.5t16.5 116.5z" />
<glyph horiz-adv-x="192" d="M6 0zM149 -200h-76v312l-37 -28l-30 63l92 67h51v-414z" />
<glyph horiz-adv-x="274" d="M6 0zM20 -200v57l116 161q36 52 36 85q0 48 -42 48q-23 0 -38 -12.5t-27 -42.5l-59 25q17 54 51 76t79 22q54 0 84 -27.5t30 -78.5q0 -32 -15 -64t-47 -78l-74 -105l145 3v-69h-239z" />
<glyph horiz-adv-x="286" d="M10 0zM136 -208q-45 0 -77.5 20t-48.5 68l59 30q11 -31 27 -43t36 -12q26 0 40 16.5t14 47.5q0 30 -14.5 45t-40.5 15h-29v63h29q20 0 33.5 15t13.5 42q0 25 -12.5 39.5t-35.5 14.5q-45 0 -57 -51l-60 25q14 48 46 70t80 22q58 0 87.5 -29t29.5 -77q0 -33 -13.5 -58 t-37.5 -42q26 -12 41.5 -37t15.5 -61q0 -55 -32 -89t-94 -34z" />
<glyph horiz-adv-x="313" d="M16 0zM16 -106v56l93 261h76l-92 -248h95v146h73v-146h40v-69h-40v-94h-73v94h-172z" />
<glyph horiz-adv-x="289" d="M7 0zM102 145l-6 -99q12 10 28 14t33 4q46 0 77.5 -31t31.5 -99q0 -66 -34.5 -104t-97.5 -38q-44 0 -77 19t-50 67l59 30q10 -29 26.5 -40.5t39.5 -11.5q29 0 43 21t14 56q0 37 -15 54t-41 17q-34 0 -55 -29l-53 24l14 212h211v-66h-148z" />
<glyph horiz-adv-x="314" d="M28 0zM169 -208q-68 0 -104.5 50.5t-36.5 161.5q0 215 142 215q46 0 74 -18t43 -58l-56 -31q-9 22 -22 33t-33 11q-35 0 -53.5 -33t-18.5 -118v-12q9 30 30.5 47.5t53.5 17.5q45 0 73 -32.5t28 -95.5q0 -62 -29 -100t-91 -38zM114 -74q0 -33 13.5 -52.5t37.5 -19.5 q23 0 36.5 18t13.5 55q0 35 -12.5 53t-35.5 18q-24 0 -38.5 -19.5t-14.5 -52.5z" />
<glyph horiz-adv-x="255" d="M12 0zM150 -200h-84q0 56 8 107t22.5 95t33.5 79.5t42 61.5l-160 -2v70h236v-61q-48 -57 -73 -139t-25 -211z" />
<glyph horiz-adv-x="309" d="M28 0zM155 -208q-62 0 -94.5 32.5t-32.5 88.5q0 38 15.5 64.5t41.5 37.5q-20 14 -33 37.5t-13 52.5q0 54 30.5 84t85.5 30t85 -30t30 -84q0 -29 -13 -52.5t-33 -37.5q25 -12 41 -38t16 -64q0 -56 -32.5 -88.5t-93.5 -32.5zM200 101q0 23 -11.5 39t-32.5 16 q-24 0 -35.5 -16t-11.5 -39t11.5 -39.5t34.5 -16.5q22 0 33.5 16.5t11.5 39.5zM207 -84q0 26 -14 44.5t-38 18.5q-26 0 -39.5 -18.5t-13.5 -44.5q0 -28 13.5 -46t39.5 -18q25 0 38.5 17.5t13.5 46.5z" />
<glyph horiz-adv-x="312" d="M23 0zM198 83q0 32 -14 52.5t-37 20.5t-36.5 -18.5t-13.5 -54.5q0 -35 13 -54.5t36 -19.5t37.5 20t14.5 54zM144 219q69 0 104.5 -50.5t35.5 -162.5q0 -214 -144 -214q-41 0 -71 15t-45 51l50 39q11 -23 25.5 -33.5t35.5 -10.5q36 0 54.5 33.5t18.5 117.5v11 q-9 -32 -30.5 -49.5t-51.5 -17.5q-47 0 -75 33.5t-28 97.5q0 62 30 101t91 39z" />
<glyph horiz-adv-x="240" d="M24 0zM150 -140h-59v92h-67v57h67v93h59v-93h66v-57h-66v-92z" />
<glyph horiz-adv-x="240" d="M24 0zM216 11v-60h-192v60h192z" />
<glyph horiz-adv-x="240" d="M24 0zM216 57v-62h-192v62h192zM216 -35v-61h-192v61h192z" />
<glyph horiz-adv-x="171" d="M18 0zM158 -209l-14 -66q-126 21 -126 250q0 231 124 250l16 -65q-19 -5 -33.5 -16.5t-24 -33t-14.5 -54.5t-5 -81t5 -80.5t14.5 -54t24 -33t33.5 -16.5z" />
<glyph horiz-adv-x="171" d="M13 0zM27 -275l-14 66q19 5 33.5 16.5t24 33t14.5 54t5 80.5t-5 81t-14.5 54.5t-24 33t-33.5 16.5l16 65q124 -19 124 -250q0 -229 -126 -250z" />
<glyph horiz-adv-x="223" d="M49 641q0 32 16.5 48.5t45.5 16.5t46 -16.5t17 -48.5t-17 -48.5t-46 -16.5t-45.5 16.5t-16.5 48.5zM60 490h102v-490h-102v490z" />
<glyph horiz-adv-x="429" d="M59 0zM290 -138q0 -61 -26.5 -104t-71.5 -60l-26 39q26 14 44 36t21 50q-26 -2 -42 12.5t-16 44.5q0 29 15.5 43.5t43.5 14.5q58 0 58 -76zM59 0v700h102v-700h-102zM307 0l-136 232v14l136 244h108l-140 -239l149 -251h-117z" />
<glyph horiz-adv-x="571" d="M50 0zM302 274v86h221v-71q0 -156 -60 -229t-166 -73q-121 0 -184 88.5t-63 275.5q0 97 15.5 165.5t47 112t78.5 64t110 20.5q39 0 72.5 -9t61 -29t47.5 -53.5t32 -82.5l-91 -36q-20 67 -50 91.5t-73 24.5q-35 0 -61.5 -12t-45 -42.5t-28 -82.5t-9.5 -131t9.5 -131.5 t28 -84.5t45 -45.5t60.5 -13.5q27 0 50 10.5t39 34t24.5 61.5t8.5 92h-119zM354 905h66q0 -73 -32 -100.5t-90 -27.5t-90 27.5t-32 100.5h66q0 -37 13.5 -51t41.5 -14q29 0 43 14t14 51z" />
<glyph horiz-adv-x="571" d="M50 0zM302 274v86h221v-71q0 -156 -60 -229t-166 -73q-121 0 -184 88.5t-63 275.5q0 97 15.5 165.5t47 112t78.5 64t110 20.5q39 0 72.5 -9t61 -29t47.5 -53.5t32 -82.5l-91 -36q-20 67 -50 91.5t-73 24.5q-35 0 -61.5 -12t-45 -42.5t-28 -82.5t-9.5 -131t9.5 -131.5 t28 -84.5t45 -45.5t60.5 -13.5q27 0 50 10.5t39 34t24.5 61.5t8.5 92h-119zM297 850l-47 -66h-87v3l93 119h87l94 -119v-3h-91z" />
<glyph horiz-adv-x="570" d="M50 0zM302 274v86h221v-71q0 -156 -60 -229t-166 -73q-121 0 -184 88.5t-63 275.5q0 97 15.5 165.5t47 112t78.5 64t110 20.5q39 0 72.5 -9t61 -29t47.5 -53.5t32 -82.5l-91 -36q-20 67 -50 91.5t-73 24.5q-35 0 -61.5 -12t-45 -42.5t-28 -82.5t-9.5 -131t9.5 -131.5 t28 -84.5t45 -45.5t60.5 -13.5q27 0 50 10.5t39 34t24.5 61.5t8.5 92h-119zM357 -138q0 -61 -26.5 -104t-71.5 -60l-26 39q26 14 44 36t21 50q-26 -2 -42 12.5t-16 44.5q0 29 15.5 43.5t43.5 14.5q58 0 58 -76z" />
<glyph horiz-adv-x="571" d="M50 0zM302 274v86h221v-71q0 -156 -60 -229t-166 -73q-121 0 -184 88.5t-63 275.5q0 97 15.5 165.5t47 112t78.5 64t110 20.5q39 0 72.5 -9t61 -29t47.5 -53.5t32 -82.5l-91 -36q-20 67 -50 91.5t-73 24.5q-35 0 -61.5 -12t-45 -42.5t-28 -82.5t-9.5 -131t9.5 -131.5 t28 -84.5t45 -45.5t60.5 -13.5q27 0 50 10.5t39 34t24.5 61.5t8.5 92h-119zM237 851q0 31 15.5 46t44.5 15q59 0 59 -61q0 -62 -59 -62q-29 0 -44.5 15.5t-15.5 46.5z" />
<glyph horiz-adv-x="522" d="M74 0zM336 -138q0 -61 -26.5 -104t-71.5 -60l-26 39q26 14 44 36t21 50q-26 -2 -42 12.5t-16 44.5q0 29 15.5 43.5t43.5 14.5q58 0 58 -76zM74 0v700h108v-700h-108zM391 0l-195 338v6l196 356h116l-200 -347l210 -353h-127z" />
<glyph horiz-adv-x="352" d="M39 309zM313 397v-88h-274v88h274z" />
<glyph horiz-adv-x="447" d="M38 309zM409 397v-88h-371v88h371z" />
<glyph horiz-adv-x="597" d="M38 309zM559 397v-88h-521v88h521z" />
<glyph horiz-adv-x="447" d="M38 309zM409 397v-88h-371v88h371z" />
<glyph horiz-adv-x="223" d="M162 700v-700h-101v700h101z" />
<glyph horiz-adv-x="504" d="M281 407h-100v-407h-101v407h-64v83h64v63q0 44 11 76t30 53t45.5 31t56.5 10q45 0 76 -22l-25 -82q-20 11 -42 11t-36.5 -17t-14.5 -63v-60h100v-83zM449 700v-700h-101v700h101z" />
<glyph horiz-adv-x="504" d="M0 0z" />
</font>
</defs>
</svg>
