<?xml version="1.0" standalone="no"?>
<!DOCTYPE svg PUBLIC "-//W3C//DTD SVG 1.1//EN" "http://www.w3.org/Graphics/SVG/1.1/DTD/svg11.dtd" >
<svg xmlns="http://www.w3.org/2000/svg">
<metadata></metadata>
<defs>
<font id="glyphicons_filetypesregular" horiz-adv-x="2400" >
<font-face units-per-em="2400" ascent="1920" descent="-480" />
<missing-glyph horiz-adv-x="500" />
<glyph />
<glyph />
<glyph unicode="&#xd;" />
<glyph unicode=" " />
<glyph unicode="&#x3c;" d="M1500 2400v-550q0 -21 14.5 -35.5t35.5 -14.5h550v-700h-1400q-20 0 -38.5 -8t-32 -21.5t-21.5 -32t-8 -38.5v-500q0 -27 13.5 -50t36.5 -36.5t50 -13.5h1400v-350q0 -21 -14.5 -35.5t-35.5 -14.5h-1800q-21 0 -35.5 14.5t-14.5 35.5v2300q0 21 14.5 35.5t35.5 14.5h1250 zM2100 1900h-450q-21 0 -35.5 14.5t-14.5 35.5v450zM820 2088l-340 -197v-79l340 -205v155l-151 88l151 84v154zM1220 1891l-340 197v-154l151 -84l-151 -88v-155l340 205v79zM1100 600v-100h-200l-100 100v400h100v-400h200zM1300 1000h200v-100h-200v-100h200v-100h-200 v-100h200v-100h-200l-100 100v300zM1700 1000h200v-100h-200v-100h-100v100zM2100 1000h200v-100h-200v-100h-100v100zM1700 700v100h100v-100h-100zM2100 700v100h100v-100h-100zM1800 600v100h100v-100l-100 -100h-200v100h200zM2200 600v100h100v-100l-100 -100h-200v100 h200z" />
<glyph unicode="&#xa0;" />
<glyph unicode="&#x2000;" horiz-adv-x="1200" />
<glyph unicode="&#x2001;" />
<glyph unicode="&#x2002;" horiz-adv-x="1200" />
<glyph unicode="&#x2003;" />
<glyph unicode="&#x2004;" horiz-adv-x="800" />
<glyph unicode="&#x2005;" horiz-adv-x="600" />
<glyph unicode="&#x2006;" horiz-adv-x="400" />
<glyph unicode="&#x2007;" horiz-adv-x="400" />
<glyph unicode="&#x2008;" horiz-adv-x="300" />
<glyph unicode="&#x2009;" horiz-adv-x="480" />
<glyph unicode="&#x200a;" horiz-adv-x="133" />
<glyph unicode="&#x202f;" horiz-adv-x="480" />
<glyph unicode="&#x205f;" horiz-adv-x="600" />
<glyph unicode="&#xe001;" d="M1500 2400v-550q0 -21 14.5 -35.5t35.5 -14.5h550v-700h-1400q-41 0 -70.5 -29.5t-29.5 -70.5v-500q0 -27 13.5 -50t36.5 -36.5t50 -13.5h1400v-350q0 -21 -14.5 -35.5t-35.5 -14.5h-1800q-21 0 -35.5 14.5t-14.5 35.5v2300q0 21 14.5 35.5t35.5 14.5h1250zM2100 1900 h-450q-21 0 -35.5 14.5t-14.5 35.5v450zM1200 2100h-700v-100h700v100zM1200 1900h-700v-100h700v100zM1200 1700h-700v-100h700v100zM1200 1500h-700v-100h700v100zM800 1000v-100h100v-400h100v400h100v100h-300zM1300 1000h-100v-200h100v200zM1400 800h100v200h-100 v-200zM1600 1000v-100h100v-400h100v400h100v100h-300zM1400 700h-100v100h100v-100zM1200 500h100v200h-100v-200zM1400 500h100v200h-100v-200z" />
<glyph unicode="&#xe002;" d="M1500 2400v-550q0 -21 14.5 -35.5t35.5 -14.5h550v-700h-1400q-41 0 -70.5 -29.5t-29.5 -70.5v-500q0 -27 13.5 -50t36.5 -36.5t50 -13.5h1400v-350q0 -21 -14.5 -35.5t-35.5 -14.5h-1800q-21 0 -35.5 14.5t-14.5 35.5v2300q0 21 14.5 35.5t35.5 14.5h1250zM2100 1900 h-450q-21 0 -35.5 14.5t-14.5 35.5v450zM1200 2100h-700v-100h700v100zM1200 1900h-700v-100h700v100zM1200 1700h-700v-100h700v100zM1200 1500h-700v-100h700v100zM800 1000h200l100 -100v-300l-100 -100h-200v500zM1300 1000h100l100 -100v-300l-100 -100h-100l-100 100 v300zM1700 900v-300h200v-100h-200l-100 100v300l100 100h200v-100h-200zM900 600h100v300h-100v-300zM1300 900v-300h100v300h-100z" />
<glyph unicode="&#xe003;" d="M1500 2400v-550q0 -21 14.5 -35.5t35.5 -14.5h550v-700h-1400q-41 0 -70.5 -29.5t-29.5 -70.5v-500q0 -27 13.5 -50t36.5 -36.5t50 -13.5h1400v-350q0 -21 -14.5 -35.5t-35.5 -14.5h-1800q-21 0 -35.5 14.5t-14.5 35.5v2300q0 21 14.5 35.5t35.5 14.5h1250zM2100 1900 h-450q-21 0 -35.5 14.5t-14.5 35.5v450zM1200 2100h-700v-100h700v100zM1200 1900h-700v-100h700v100zM1200 1700h-700v-100h700v100zM1200 1500h-700v-100h700v100zM1000 700v200h-100v-200l100 -100h100v-100h-100v100h-100v-100h-100v500h200l100 -100v-200h-100z M1300 500v400h-100v100h300v-100h-100v-400h-100zM1700 900v-100h200v-100h-200v-200h-100v500h300v-100h-200z" />
<glyph unicode="&#xe004;" d="M1500 2400v-550q0 -21 14.5 -35.5t35.5 -14.5h550v-700h-1400q-41 0 -70.5 -29.5t-29.5 -70.5v-500q0 -27 13.5 -50t36.5 -36.5t50 -13.5h1400v-350q0 -21 -14.5 -35.5t-35.5 -14.5h-1800q-21 0 -35.5 14.5t-14.5 35.5v2300q0 21 14.5 35.5t35.5 14.5h1250zM2100 1900 h-450q-21 0 -35.5 14.5t-14.5 35.5v450zM1200 2100h-700v-100h700v100zM1200 1900h-700v-100h700v100zM1200 1700h-700v-100h700v100zM1200 1500h-700v-100h700v100zM900 600v400h-100v-500h300v100h-200zM1200 1000v-500h300v500h-300zM1600 1000v-500h300v300h-100v-200 h-100v300h200v100h-300zM1400 600h-100v300h100v-300z" />
<glyph unicode="&#xe005;" d="M2100 1800h-550q-21 0 -35.5 14.5t-14.5 35.5v550h-1250q-21 0 -35.5 -14.5t-14.5 -35.5v-2300q0 -21 14.5 -35.5t35.5 -14.5h1800q21 0 35.5 14.5t14.5 35.5v350h-1400q-41 0 -70.5 29.5t-29.5 70.5v500q0 20 8 38.5t21.5 32t32 21.5t38.5 8h1400v700zM1600 2400v-450 q0 -21 14.5 -35.5t35.5 -14.5h450zM1200 2000h-700v100h700v-100zM1200 1800h-700v100h700v-100zM1200 1600h-700v100h700v-100zM1200 1400h-700v100h700v-100zM800 1000h300v-100h-100v-400h-100v400h-100v100zM1200 900v-300l100 -100h200v100h-200v100h200v100h-200v100 h200v100h-200zM1600 1000v-200h100v200h-100zM1900 1000h-100v-200h100v200zM1700 800v-100h100v100h-100zM1600 500h100v200h-100v-200zM1900 500v200h-100v-200h100z" />
<glyph unicode="&#xe006;" d="M1500 2400v-550q0 -21 14.5 -35.5t35.5 -14.5h550v-700h-1400q-41 0 -70.5 -29.5t-29.5 -70.5v-500q0 -27 13.5 -50t36.5 -36.5t50 -13.5h1400v-350q0 -21 -14.5 -35.5t-35.5 -14.5h-1800q-21 0 -35.5 14.5t-14.5 35.5v2300q0 21 14.5 35.5t35.5 14.5h1250zM2100 1900 h-450q-21 0 -35.5 14.5t-14.5 35.5v450zM1200 2100h-700v-100h700v100zM1200 1900h-700v-100h700v100zM1200 1700h-700v-100h700v100zM1200 1500h-700v-100h700v100zM1000 1000h100v-500h-100v300h-100v-300h-100v500h100v-100h100v100zM1300 900v-100h-100v100l100 100h200 v-100h-200zM1700 900v-300h100v200h100v-300h-200l-100 100v300l100 100h200v-100h-200zM1300 700v100h100v-100h-100zM1400 600v100h100v-100l-100 -100h-200v100h200z" />
<glyph unicode="&#xe007;" d="M1500 2400v-550q0 -21 14.5 -35.5t35.5 -14.5h550v-700h-1400q-41 0 -70.5 -29.5t-29.5 -70.5v-500q0 -41 29.5 -70.5t70.5 -29.5h1400v-350q0 -21 -14.5 -35.5t-35.5 -14.5h-1800q-21 0 -35.5 14.5t-14.5 35.5v2300q0 21 14.5 35.5t35.5 14.5h1250zM2100 1900h-450 q-21 0 -35.5 14.5t-14.5 35.5v450zM1200 2100h-700v-100h700v100zM1200 1900h-700v-100h700v100zM1200 1700h-700v-100h700v100zM1200 1500h-700v-100h700v100zM800 1000h300v-100h-100v-400h-100v400h-100v100zM1200 900v-300l100 -100h200v100h-200v100h200v100h-200v100 h200v100h-200zM1600 1000v-200h100v200h-100zM1900 1000h-100v-200h100v200zM2000 1000v-100h100v-400h100v400h100v100h-300zM1700 800v-100h100v100h-100zM1600 500h100v200h-100v-200zM1900 500v200h-100v-200h100z" />
<glyph unicode="&#xe008;" d="M1500 2400v-550q0 -21 14.5 -35.5t35.5 -14.5h550v-700h-1400q-41 0 -70.5 -29.5t-29.5 -70.5v-500q0 -41 29.5 -70.5t70.5 -29.5h1400v-350q0 -21 -14.5 -35.5t-35.5 -14.5h-1800q-21 0 -35.5 14.5t-14.5 35.5v2300q0 21 14.5 35.5t35.5 14.5h1250zM2100 1900h-450 q-21 0 -35.5 14.5t-14.5 35.5v450zM1200 2100h-700v-100h700v100zM1200 1900h-700v-100h700v100zM1200 1700h-700v-100h700v100zM1200 1500h-700v-100h700v100zM1000 1000h100v-500h-100v100h-100v-100h-100v500h100v-300h100v300zM1400 1000l100 -100v-200l-100 -100h-100 v-100h-100v500h200zM1900 900v-300l-100 -100h-200v500h200zM1400 700v200h-100v-200h100zM1800 600v300h-100v-300h100z" />
<glyph unicode="&#xe009;" d="M1500 2400v-550q0 -21 14.5 -35.5t35.5 -14.5h550v-700h-1400q-41 0 -70.5 -29.5t-29.5 -70.5v-500q0 -41 29.5 -70.5t70.5 -29.5h1400v-350q0 -21 -14.5 -35.5t-35.5 -14.5h-1800q-21 0 -35.5 14.5t-14.5 35.5v2300q0 21 14.5 35.5t35.5 14.5h1250zM2100 1900h-450 q-21 0 -35.5 14.5t-14.5 35.5v450zM1200 2100h-700v-100h700v100zM1200 1900h-700v-100h700v100zM1200 1700h-700v-100h700v100zM1200 1500h-700v-100h700v100zM1000 1000h100v-500h-100v100h-100v-100h-100v500h100v-300h100v300zM1400 1000l100 -100v-200l-100 -100h-100 v-100h-100v500h200zM1700 900v-100h-100v100l100 100h200v-100h-200zM1400 700v200h-100v-200h100zM1700 700v100h100v-100h-100zM1800 600v100h100v-100l-100 -100h-200v100h200z" />
<glyph unicode="&#xe010;" d="M1500 2400v-550q0 -21 14.5 -35.5t35.5 -14.5h550v-700h-1400q-41 0 -70.5 -29.5t-29.5 -70.5v-500q0 -41 29.5 -70.5t70.5 -29.5h1400v-350q0 -21 -14.5 -35.5t-35.5 -14.5h-1800q-21 0 -35.5 14.5t-14.5 35.5v2300q0 21 14.5 35.5t35.5 14.5h1250zM2100 1900h-450 q-21 0 -35.5 14.5t-14.5 35.5v450zM1200 2100h-700v-100h700v100zM1200 1900h-700v-100h700v100zM1200 1700h-700v-100h700v100zM1200 1500h-700v-100h700v100zM1500 900v-300l-100 -100h-100l-100 100v300l100 100h100zM1700 900v-300h200v-100h-200l-100 100v300l100 100 h200v-100h-200zM1100 900v-300l-100 -100h-200v500h200zM2000 1000v-200h100v200h-100zM2300 1000h-100v-200h100v200zM1000 600v300h-100v-300h100zM1400 600v300h-100v-300h100zM2100 800v-100h100v100h-100zM2000 500h100v200h-100v-200zM2300 500v200h-100v-200h100z " />
<glyph unicode="&#xe011;" d="M1500 2400v-550q0 -21 14.5 -35.5t35.5 -14.5h550v-700h-1400q-41 0 -70.5 -29.5t-29.5 -70.5v-500q0 -41 29.5 -70.5t70.5 -29.5h1400v-350q0 -21 -14.5 -35.5t-35.5 -14.5h-1800q-21 0 -35.5 14.5t-14.5 35.5v2300q0 21 14.5 35.5t35.5 14.5h1250zM2100 1900h-450 q-21 0 -35.5 14.5t-14.5 35.5v450zM1200 2100h-700v-100h700v100zM1200 1900h-700v-100h700v100zM1200 1700h-700v-100h700v100zM1200 1500h-700v-100h700v100zM1000 1000l100 -100v-200l-100 -100h-100v-100h-100v500h200zM1400 1000l100 -100v-400h-100v100h-100v-100 h-100v400l100 100h100zM1600 1000h300v-100h-200v-300h100v200h100v-300h-300v500zM2100 900v-100h200v-100h-200v-100h200v-100h-200l-100 100v300l100 100h200v-100h-200zM1000 700v200h-100v-200h100zM1400 900h-100v-200h100v200z" />
<glyph unicode="&#xe012;" d="M1500 2400v-550q0 -21 14.5 -35.5t35.5 -14.5h550v-700h-1400q-41 0 -70.5 -29.5t-29.5 -70.5v-500q0 -41 29.5 -70.5t70.5 -29.5h1400v-350q0 -21 -14.5 -35.5t-35.5 -14.5h-1800q-21 0 -35.5 14.5t-14.5 35.5v2300q0 21 14.5 35.5t35.5 14.5h1250zM2100 1900h-450 q-21 0 -35.5 14.5t-14.5 35.5v450zM800 2100h-300v-100h300v100zM1200 2100h-300v-100h300v100zM800 1900h-300v-100h300v100zM1200 1900h-300v-100h300v100zM800 1700h-300v-100h300v100zM1200 1700h-300v-100h300v100zM900 1000h200v-100h-200v-300h200v-100h-200 l-100 100v300zM1300 1000h200v-100h-200v-100h-100v100zM1700 600h100v-100h-200v500h100v-400zM1900 1000v-400h-100v400h100zM1300 700v100h100v-100h-100zM1400 600v100h100v-100l-100 -100h-200v100h200z" />
<glyph unicode="&#xe013;" d="M1500 2400v-550q0 -21 14.5 -35.5t35.5 -14.5h550v-700h-1400q-41 0 -70.5 -29.5t-29.5 -70.5v-500q0 -41 29.5 -70.5t70.5 -29.5h1400v-350q0 -21 -14.5 -35.5t-35.5 -14.5h-1800q-21 0 -35.5 14.5t-14.5 35.5v2300q0 21 14.5 35.5t35.5 14.5h1250zM2100 1900h-450 q-21 0 -35.5 14.5t-14.5 35.5v450zM800 2100h-300v-100h300v100zM1200 2100h-300v-100h300v100zM800 1900h-300v-100h300v100zM1200 1900h-300v-100h300v100zM800 1700h-300v-100h300v100zM1200 1700h-300v-100h300v100zM1100 900v-300l-100 -100h-200v500h200zM1400 1000 l100 -100v-400h-100v100h-100v-100h-100v400l100 100h100zM1600 1000v-100h100v-400h100v400h100v100h-300zM1000 900h-100v-300h100v300zM1400 900h-100v-200h100v200z" />
<glyph unicode="&#xe014;" d="M1500 2400v-550q0 -21 14.5 -35.5t35.5 -14.5h550v-700h-1400q-41 0 -70.5 -29.5t-29.5 -70.5v-500q0 -41 29.5 -70.5t70.5 -29.5h1400v-350q0 -21 -14.5 -35.5t-35.5 -14.5h-1800q-21 0 -35.5 14.5t-14.5 35.5v2300q0 21 14.5 35.5t35.5 14.5h1250zM2100 1900h-450 q-21 0 -35.5 14.5t-14.5 35.5v450zM800 2100h-300v-100h300v100zM1200 2100h-300v-100h300v100zM800 1900h-300v-100h300v100zM1200 1900h-300v-100h300v100zM800 1700h-300v-100h300v100zM1200 1700h-300v-100h300v100zM800 1000v-100h100v-400h100v400h100v100h-300z M1400 1000l100 -100v-400h-100v100h-100v-100h-100v400l100 100h100zM1800 700v200h-100v-200l100 -100h-100v-100h-100v500h200l100 -100v-200h-100zM1400 900h-100v-200h100v200zM1800 500v100h100v-100h-100z" />
<glyph unicode="&#xe015;" d="M1500 2400v-550q0 -21 14.5 -35.5t35.5 -14.5h550v-700h-1400q-41 0 -70.5 -29.5t-29.5 -70.5v-500q0 -41 29.5 -70.5t70.5 -29.5h1400v-350q0 -21 -14.5 -35.5t-35.5 -14.5h-1800q-21 0 -35.5 14.5t-14.5 35.5v2300q0 21 14.5 35.5t35.5 14.5h1250zM2100 1900h-450 q-21 0 -35.5 14.5t-14.5 35.5v450zM800 2100h-300v-100h300v100zM1200 2100h-300v-100h300v100zM800 1900h-300v-100h300v100zM1200 1900h-300v-100h300v100zM800 1700h-300v-100h300v100zM1200 1700h-300v-100h300v100zM900 1000v-200h-100v200h100zM1000 1000h100v-200 h-100v200zM1400 900h-100v100h-100v-500h100v300h100v-300h100v500h-100v-100zM1900 600v-100h-200l-100 100v400h100v-400h200zM900 800h100v-100h-100v100zM800 700h100v-200h-100v200zM1000 500v200h100v-200h-100z" />
<glyph unicode="&#xe016;" d="M1500 2400v-550q0 -21 14.5 -35.5t35.5 -14.5h550v-700h-1400q-41 0 -70.5 -29.5t-29.5 -70.5v-500q0 -41 29.5 -70.5t70.5 -29.5h1400v-350q0 -21 -14.5 -35.5t-35.5 -14.5h-1800q-21 0 -35.5 14.5t-14.5 35.5v2300q0 21 14.5 35.5t35.5 14.5h1250zM2100 1900h-450 q-21 0 -35.5 14.5t-14.5 35.5v450zM800 2100h-300v-100h300v100zM1200 2100h-300v-100h300v100zM800 1900h-300v-100h300v100zM1200 1900h-300v-100h300v100zM800 1700h-300v-100h300v100zM1200 1700h-300v-100h300v100zM900 1000h-100v-500h200v100h-100v400zM1000 1000 h100v-400h-100v400zM1300 1000h200v-100h-200v-300h200v-100h-200l-100 100v300zM1700 900v-100h200v-100h-200v-200h-100v400l100 100h200v-100h-200z" />
<glyph unicode="&#xe017;" d="M1500 2400v-550q0 -21 14.5 -35.5t35.5 -14.5h550v-700h-1400q-41 0 -70.5 -29.5t-29.5 -70.5v-500q0 -41 29.5 -70.5t70.5 -29.5h1400v-350q0 -21 -14.5 -35.5t-35.5 -14.5h-1800q-21 0 -35.5 14.5t-14.5 35.5v2300q0 21 14.5 35.5t35.5 14.5h1250zM2100 1900h-450 q-21 0 -35.5 14.5t-14.5 35.5v450zM800 2100h-300v-100h300v100zM1200 2100h-300v-100h300v100zM800 1900h-300v-100h300v100zM1200 1900h-300v-100h300v100zM800 1700h-300v-100h300v100zM1200 1700h-300v-100h300v100zM1000 1000l100 -100v-200l-100 -100h-100v-100h-100 v500h200zM1400 1000l100 -100v-200l-100 -100h-100v-100h-100v500h200zM1700 1000h200v-100h-200v-100h-100v100zM1000 700v200h-100v-200h100zM1400 700v200h-100v-200h100zM1700 700v100h100v-100h-100zM1800 600v100h100v-100l-100 -100h-200v100h200z" />
<glyph unicode="&#xe018;" d="M1500 2400v-550q0 -21 14.5 -35.5t35.5 -14.5h550v-700h-1400q-41 0 -70.5 -29.5t-29.5 -70.5v-500q0 -41 29.5 -70.5t70.5 -29.5h1400v-350q0 -21 -14.5 -35.5t-35.5 -14.5h-1800q-21 0 -35.5 14.5t-14.5 35.5v2300q0 21 14.5 35.5t35.5 14.5h1250zM2100 1900h-450 q-21 0 -35.5 14.5t-14.5 35.5v450zM800 2100h-300v-100h300v100zM1200 2100h-300v-100h300v100zM800 1900h-300v-100h300v100zM1200 1900h-300v-100h300v100zM800 1700h-300v-100h300v100zM1200 1700h-300v-100h300v100zM900 800h100v-100h-100v-200h-100v500h100v-200z M1100 1000h-100v-200h100v200zM1300 1000h200v-100h-200v-100h200v-100h-200v-100h200v-100h-200l-100 100v300zM1900 1000v-200l-100 -100v-200h-100v200l-100 100v200h100v-200h100v200h100zM1100 700h-100v-200h100v200z" />
<glyph unicode="&#xe019;" d="M1500 2400v-550q0 -21 14.5 -35.5t35.5 -14.5h550v-700h-1400q-41 0 -70.5 -29.5t-29.5 -70.5v-500q0 -41 29.5 -70.5t70.5 -29.5h1400v-350q0 -21 -14.5 -35.5t-35.5 -14.5h-1800q-21 0 -35.5 14.5t-14.5 35.5v2300q0 21 14.5 35.5t35.5 14.5h1250zM2100 1900h-450 q-21 0 -35.5 14.5t-14.5 35.5v450zM800 2100h-300v-100h300v100zM1200 2100h-300v-100h300v100zM800 1900h-300v-100h300v100zM1200 1900h-300v-100h300v100zM800 1700h-300v-100h300v100zM1200 1700h-300v-100h300v100zM1000 1000l100 -100v-200l-100 -100h-100v-100h-100 v500h200zM1400 1000l100 -100v-200l-100 -100h-100v-100h-100v500h200zM1600 1000v-100h100v-400h100v400h100v100h-300zM1000 700v200h-100v-200h100zM1400 700v200h-100v-200h100z" />
<glyph unicode="&#xe020;" d="M1500 2400v-550q0 -21 14.5 -35.5t35.5 -14.5h550v-700h-1400q-41 0 -70.5 -29.5t-29.5 -70.5v-500q0 -41 29.5 -70.5t70.5 -29.5h1400v-350q0 -21 -14.5 -35.5t-35.5 -14.5h-1800q-21 0 -35.5 14.5t-14.5 35.5v2300q0 21 14.5 35.5t35.5 14.5h1250zM2100 1900h-450 q-21 0 -35.5 14.5t-14.5 35.5v450zM800 2100h-300v-100h300v100zM1200 2100h-300v-100h300v100zM800 1900h-300v-100h300v100zM1200 1900h-300v-100h300v100zM800 1700h-300v-100h300v100zM1200 1700h-300v-100h300v100zM1000 1000l100 -100v-200l-100 -100h-100v-100h-100 v500h200zM1400 1000l100 -100v-200l-100 -100h-100v-100h-100v500h200zM1600 1000v-100h100v-400h100v400h100v100h-300zM2000 1000v-200h100v200h-100zM2300 1000h-100v-200h100v200zM1000 700v200h-100v-200h100zM1400 700v200h-100v-200h100zM2100 800v-100h100v100h-100 zM2000 500h100v200h-100v-200zM2300 500v200h-100v-200h100z" />
<glyph unicode="&#xe021;" d="M1500 2400v-550q0 -21 14.5 -35.5t35.5 -14.5h550v-700h-1400q-41 0 -70.5 -29.5t-29.5 -70.5v-500q0 -41 29.5 -70.5t70.5 -29.5h1400v-350q0 -21 -14.5 -35.5t-35.5 -14.5h-1800q-21 0 -35.5 14.5t-14.5 35.5v2300q0 21 14.5 35.5t35.5 14.5h1250zM2100 1900h-450 q-21 0 -35.5 14.5t-14.5 35.5v450zM800 2100h-300v-100h300v100zM1200 2100h-300v-100h300v100zM800 1900h-300v-100h300v100zM1200 1900h-300v-100h300v100zM800 1700h-300v-100h300v100zM1200 1700h-300v-100h300v100zM1200 1000h200l100 -100v-300l-100 -100h-200v500z M900 1000h200v-100h-200v-100h-100v100zM1700 900v-100h200v-100h-200v-200h-100v400l100 100h200v-100h-200zM1300 600h100v300h-100v-300zM900 700v100h100v-100h-100zM1000 600v100h100v-100l-100 -100h-200v100h200z" />
<glyph unicode="&#xe022;" d="M1500 2400v-550q0 -21 14.5 -35.5t35.5 -14.5h550v-700h-1400q-41 0 -70.5 -29.5t-29.5 -70.5v-500q0 -41 29.5 -70.5t70.5 -29.5h1400v-350q0 -21 -14.5 -35.5t-35.5 -14.5h-1800q-21 0 -35.5 14.5t-14.5 35.5v2300q0 21 14.5 35.5t35.5 14.5h1250zM2100 1900h-450 q-21 0 -35.5 14.5t-14.5 35.5v450zM800 2100h-300v-100h300v100zM1200 2100h-300v-100h300v100zM800 1900h-300v-100h300v100zM1200 1900h-300v-100h300v100zM800 1700h-300v-100h300v100zM1200 1700h-300v-100h300v100zM800 1000h300v-100h-200v-300h100v200h100v-300h-300 v500zM1500 800l-50 -50l50 -50v-100l-100 -100h-200v500h200l100 -100v-100zM1600 1000v-500h100v100h100l-100 100v200h100v-200h100v200l-100 100h-200zM1400 800v100h-100v-100h100zM1400 600v100h-100v-100h100zM1800 500v100h100v-100h-100z" />
<glyph unicode="&#xe023;" d="M1500 2400v-550q0 -21 14.5 -35.5t35.5 -14.5h550v-700h-1400q-41 0 -70.5 -29.5t-29.5 -70.5v-500q0 -41 29.5 -70.5t70.5 -29.5h1400v-350q0 -21 -14.5 -35.5t-35.5 -14.5h-1800q-21 0 -35.5 14.5t-14.5 35.5v2300q0 21 14.5 35.5t35.5 14.5h1250zM2100 1900h-450 q-21 0 -35.5 14.5t-14.5 35.5v450zM800 2100h-300v-100h300v100zM1200 2100h-300v-100h300v100zM800 1900h-300v-100h300v100zM1200 1900h-300v-100h300v100zM800 1700h-300v-100h300v100zM1200 1700h-300v-100h300v100zM800 1000h300v-100h-200v-300h100v200h100v-300h-300 v500zM1300 1000h200v-100h-200v-100h200v-100h-200v-100h200v-100h-200l-100 100v300zM1900 900v-300l-100 -100h-200v500h200zM1800 900h-100v-300h100v300z" />
<glyph unicode="&#xe024;" d="M1500 2400v-550q0 -21 14.5 -35.5t35.5 -14.5h550v-700h-1400q-41 0 -70.5 -29.5t-29.5 -70.5v-500q0 -41 29.5 -70.5t70.5 -29.5h1400v-350q0 -21 -14.5 -35.5t-35.5 -14.5h-1800q-21 0 -35.5 14.5t-14.5 35.5v2300q0 21 14.5 35.5t35.5 14.5h1250zM2100 1900h-450 q-21 0 -35.5 14.5t-14.5 35.5v450zM1100 2100l-350 -200h-250v-300h250l350 -200v700zM1000 1000h100v-500h-100v300h-100v-300h-100v500h100v-100h100v100zM1400 1000l100 -100v-200l-100 -100h-100v-100h-100v500h200zM1900 1000v-500h-300v100h200v100h-200v100h200v100 h-200v100h300zM1400 700v200h-100v-200h100z" />
<glyph unicode="&#xe025;" d="M1500 2400v-550q0 -21 14.5 -35.5t35.5 -14.5h550v-700h-1400q-41 0 -70.5 -29.5t-29.5 -70.5v-500q0 -41 29.5 -70.5t70.5 -29.5h1400v-350q0 -21 -14.5 -35.5t-35.5 -14.5h-1800q-21 0 -35.5 14.5t-14.5 35.5v2300q0 21 14.5 35.5t35.5 14.5h1250zM2100 1900h-450 q-21 0 -35.5 14.5t-14.5 35.5v450zM1100 2100l-350 -200h-250v-300h250l350 -200v700zM1000 1000h100v-500h-100v300h-100v-300h-100v500h100v-100h100v100zM1400 700h-100v300h-100v-400h200v-100h100v500h-100v-300zM1800 1000l100 -100v-400h-100v100h-100v-100h-100v400 l100 100h100zM1800 900h-100v-200h100v200z" />
<glyph unicode="&#xe026;" d="M1500 2400v-550q0 -21 14.5 -35.5t35.5 -14.5h550v-700h-1400q-41 0 -70.5 -29.5t-29.5 -70.5v-500q0 -41 29.5 -70.5t70.5 -29.5h1400v-350q0 -21 -14.5 -35.5t-35.5 -14.5h-1800q-21 0 -35.5 14.5t-14.5 35.5v2300q0 21 14.5 35.5t35.5 14.5h1250zM2100 1900h-450 q-21 0 -35.5 14.5t-14.5 35.5v450zM1100 2100l-350 -200h-250v-300h250l350 -200v700zM1000 1000h100v-500h-100v100h-100v-100h-100v500h100v-300h100v300zM1400 1000l100 -100v-400h-100v100h-100v-100h-100v400l100 100h100zM1800 1000h100v-500h-100v100h-100v-100h-100 v500h100v-300h100v300zM1400 900h-100v-200h100v200z" />
<glyph unicode="&#xe027;" d="M1500 2400v-550q0 -21 14.5 -35.5t35.5 -14.5h550v-700h-1400q-41 0 -70.5 -29.5t-29.5 -70.5v-500q0 -41 29.5 -70.5t70.5 -29.5h1400v-350q0 -21 -14.5 -35.5t-35.5 -14.5h-1800q-21 0 -35.5 14.5t-14.5 35.5v2300q0 21 14.5 35.5t35.5 14.5h1250zM2100 1900h-450 q-21 0 -35.5 14.5t-14.5 35.5v450zM1100 2100l-350 -200h-250v-300h250l350 -200v700zM1000 1000h100v-500h-100v100h-100v-100h-100v500h100v-300h100v300zM1400 500h100v500h-100v-100h-100v100h-100v-500h100v300h100v-300zM1800 1000l100 -100v-400h-100v100h-100v-100 h-100v400l100 100h100zM1800 900h-100v-200h100v200z" />
<glyph unicode="&#xe028;" d="M1500 2400v-550q0 -21 14.5 -35.5t35.5 -14.5h550v-700h-1400q-41 0 -70.5 -29.5t-29.5 -70.5v-500q0 -41 29.5 -70.5t70.5 -29.5h1400v-350q0 -21 -14.5 -35.5t-35.5 -14.5h-1800q-21 0 -35.5 14.5t-14.5 35.5v2300q0 21 14.5 35.5t35.5 14.5h1250zM2100 1900h-450 q-21 0 -35.5 14.5t-14.5 35.5v450zM1100 2100l-350 -200h-250v-300h250l350 -200v700zM1000 900h-100v100h-100v-500h100v300h100v-300h100v500h-100v-100zM1400 1000l100 -100v-200l-100 -100h-100v-100h-100v500h200zM1800 1000l100 -100v-400h-100v100h-100v-100h-100 v400l100 100h100zM1400 700v200h-100v-200h100zM1800 900h-100v-200h100v200z" />
<glyph unicode="&#xe029;" d="M1500 2400v-550q0 -21 14.5 -35.5t35.5 -14.5h550v-700h-1400q-41 0 -70.5 -29.5t-29.5 -70.5v-500q0 -41 29.5 -70.5t70.5 -29.5h1400v-350q0 -21 -14.5 -35.5t-35.5 -14.5h-1800q-21 0 -35.5 14.5t-14.5 35.5v2300q0 21 14.5 35.5t35.5 14.5h1250zM2100 1900h-450 q-21 0 -35.5 14.5t-14.5 35.5v450zM1100 2100l-350 -200h-250v-300h250l350 -200v700zM800 1000h100v-500h-100v500zM1100 900v-100h200v-100h-200v-200h-100v400l100 100h200v-100h-200zM1500 900v-100h200v-100h-200v-200h-100v400l100 100h200v-100h-200z" />
<glyph unicode="&#xe030;" d="M1500 2400v-550q0 -21 14.5 -35.5t35.5 -14.5h550v-700h-1400q-41 0 -70.5 -29.5t-29.5 -70.5v-500q0 -41 29.5 -70.5t70.5 -29.5h1400v-350q0 -21 -14.5 -35.5t-35.5 -14.5h-1800q-21 0 -35.5 14.5t-14.5 35.5v2300q0 21 14.5 35.5t35.5 14.5h1250zM2100 1900h-450 q-21 0 -35.5 14.5t-14.5 35.5v450zM1100 2100l-350 -200h-250v-300h250l350 -200v700zM1000 1000l100 -100v-400h-100v100h-100v-100h-100v400l100 100h100zM1200 500h100v500h-100v-500zM1500 900v-100h200v-100h-200v-200h-100v400l100 100h200v-100h-200zM1000 900h-100 v-200h100v200z" />
<glyph unicode="&#xe031;" d="M1500 2400v-550q0 -21 14.5 -35.5t35.5 -14.5h550v-700h-1400q-41 0 -70.5 -29.5t-29.5 -70.5v-500q0 -41 29.5 -70.5t70.5 -29.5h1400v-350q0 -21 -14.5 -35.5t-35.5 -14.5h-1800q-21 0 -35.5 14.5t-14.5 35.5v2300q0 21 14.5 35.5t35.5 14.5h1250zM2100 1900h-450 q-21 0 -35.5 14.5t-14.5 35.5v450zM1100 2100l-350 -200h-250v-300h250l350 -200v700zM1000 700v200h-100v-200l100 -100h-100v-100h-100v500h200l100 -100v-200h-100zM1400 1000l100 -100v-400h-100v100h-100v-100h-100v400l100 100h100zM1400 900h-100v-200h100v200z M1000 500v100h100v-100h-100z" />
<glyph unicode="&#xe032;" d="M1500 2400v-550q0 -21 14.5 -35.5t35.5 -14.5h550v-700h-1400q-41 0 -70.5 -29.5t-29.5 -70.5v-500q0 -41 29.5 -70.5t70.5 -29.5h1400v-350q0 -21 -14.5 -35.5t-35.5 -14.5h-1800q-21 0 -35.5 14.5t-14.5 35.5v2300q0 21 14.5 35.5t35.5 14.5h1250zM2100 1900h-450 q-21 0 -35.5 14.5t-14.5 35.5v450zM1100 2100l-350 -200h-250v-300h250l350 -200v700zM1000 900h-100v100h-100v-500h100v300h100v-300h100v500h-100v-100zM1200 500h100v500h-100v-500zM1700 900v-300l-100 -100h-200v500h200zM1600 900h-100v-300h100v300z" />
<glyph unicode="&#xe033;" d="M1500 2400v-550q0 -21 14.5 -35.5t35.5 -14.5h550v-700h-1400q-41 0 -70.5 -29.5t-29.5 -70.5v-500q0 -41 29.5 -70.5t70.5 -29.5h1400v-350q0 -21 -14.5 -35.5t-35.5 -14.5h-1800q-21 0 -35.5 14.5t-14.5 35.5v2300q0 21 14.5 35.5t35.5 14.5h1250zM2100 1900h-450 q-21 0 -35.5 14.5t-14.5 35.5v450zM1100 2100l-350 -200h-250v-300h250l350 -200v700zM1000 900h-100v100h-100v-500h100v300h100v-300h100v500h-100v-100zM1200 1000v-100h200v-100h-200v-100h200v-100h-200v-100h300v500h-300zM1900 1000v-400l-100 -100h-100l-100 100 v400h100v-400h100v400h100z" />
<glyph unicode="&#xe034;" d="M2100 1100h-1400q-41 0 -70.5 -29.5t-29.5 -70.5v-500q0 -41 29.5 -70.5t70.5 -29.5h1400v-350q0 -21 -14.5 -35.5t-35.5 -14.5h-1800q-21 0 -35.5 14.5t-14.5 35.5v2300q0 21 14.5 35.5t35.5 14.5h1250v-550q0 -21 14.5 -35.5t35.5 -14.5h550v-700zM1600 2400v-450 q0 -21 14.5 -35.5t35.5 -14.5h450zM1000 1750l-500 305v-611zM800 1000v-100h200v-100h-200v-100h200v-100h-200v-100h300v500h-300zM1200 1000h300v-100h-200v-300h100v200h100v-300h-300v500zM1800 1000l100 -100v-200l-100 -100h-100v-100h-100v500h200zM1800 700v200 h-100v-200h100z" />
<glyph unicode="&#xe035;" d="M2100 1100h-1400q-41 0 -70.5 -29.5t-29.5 -70.5v-500q0 -41 29.5 -70.5t70.5 -29.5h1400v-350q0 -21 -14.5 -35.5t-35.5 -14.5h-1800q-21 0 -35.5 14.5t-14.5 35.5v2300q0 21 14.5 35.5t35.5 14.5h1250v-550q0 -21 14.5 -35.5t35.5 -14.5h550v-700zM1600 2400v-450 q0 -21 14.5 -35.5t35.5 -14.5h450zM1000 1750l-500 305v-611zM900 1000h200v-100h-200v-100h-100v100zM1400 1000h100v-500h-100v100h-100v-100h-100v500h100v-300h100v300zM1700 900v-100h200v-100h-200v-200h-100v400l100 100h200v-100h-200zM900 700v100h100v-100h-100z M1000 600v100h100v-100l-100 -100h-200v100h200z" />
<glyph unicode="&#xe036;" d="M2100 1100h-1400q-41 0 -70.5 -29.5t-29.5 -70.5v-500q0 -41 29.5 -70.5t70.5 -29.5h1400v-350q0 -21 -14.5 -35.5t-35.5 -14.5h-1800q-21 0 -35.5 14.5t-14.5 35.5v2300q0 21 14.5 35.5t35.5 14.5h1250v-550q0 -21 14.5 -35.5t35.5 -14.5h550v-700zM1600 2400v-450 q0 -21 14.5 -35.5t35.5 -14.5h450zM1000 1750l-500 305v-611zM1000 1000l100 -100v-400h-100v100h-100v-100h-100v400l100 100h100zM1300 600h100v-100h-200v500h100v-400zM1500 1000v-400h-100v400h100zM1700 1000v-500h-100v500h100zM1000 900h-100v-200h100v200z" />
<glyph unicode="&#xe037;" d="M2100 1100h-1400q-41 0 -70.5 -29.5t-29.5 -70.5v-500q0 -41 29.5 -70.5t70.5 -29.5h1400v-350q0 -21 -14.5 -35.5t-35.5 -14.5h-1800q-21 0 -35.5 14.5t-14.5 35.5v2300q0 21 14.5 35.5t35.5 14.5h1250v-550q0 -21 14.5 -35.5t35.5 -14.5h550v-700zM1600 2400v-450 q0 -21 14.5 -35.5t35.5 -14.5h450zM1000 1750l-500 305v-611zM1000 1000l100 -100v-400h-100v100h-100v-100h-100v400l100 100h100zM1300 1000h200v-100h-200v-100h-100v100zM1600 1000v-200h100v200h-100zM1900 1000h-100v-200h100v200zM1000 900h-100v-200h100v200z M1300 700v100h100v-100h-100zM1700 800v-100h100v100h-100zM1400 600v100h100v-100l-100 -100h-200v100h200zM1600 500h100v200h-100v-200zM1900 500v200h-100v-200h100z" />
<glyph unicode="&#xe038;" d="M2100 1100h-1400q-41 0 -70.5 -29.5t-29.5 -70.5v-500q0 -41 29.5 -70.5t70.5 -29.5h1400v-350q0 -21 -14.5 -35.5t-35.5 -14.5h-1800q-21 0 -35.5 14.5t-14.5 35.5v2300q0 21 14.5 35.5t35.5 14.5h1250v-550q0 -21 14.5 -35.5t35.5 -14.5h550v-700zM1600 2400v-450 q0 -21 14.5 -35.5t35.5 -14.5h450zM1000 1750l-500 305v-611zM1000 900h-100v100h-100v-500h100v300h100v-300h100v500h-100v-100zM1400 1000l100 -100v-200l-100 -100h-100v-100h-100v500h200zM1800 700h-100v300h-100v-400h200v-100h100v500h-100v-300zM1400 700v200h-100 v-200h100z" />
<glyph unicode="&#xe039;" d="M2100 1100h-1400q-41 0 -70.5 -29.5t-29.5 -70.5v-500q0 -41 29.5 -70.5t70.5 -29.5h1400v-350q0 -21 -14.5 -35.5t-35.5 -14.5h-1800q-21 0 -35.5 14.5t-14.5 35.5v2300q0 21 14.5 35.5t35.5 14.5h1250v-550q0 -21 14.5 -35.5t35.5 -14.5h550v-700zM1600 2400v-450 q0 -21 14.5 -35.5t35.5 -14.5h450zM1000 1750l-500 305v-611zM800 1000v-100h200v-100h-200v-100h200v-100h-200v-100h300v500h-300zM1200 1000h300v-100h-200v-300h100v200h100v-300h-300v500zM1600 1000v-100h200v-100h-200v-300h300v100h-200v100h200v300h-300z" />
<glyph unicode="&#xe040;" d="M2100 1100h-1400q-41 0 -70.5 -29.5t-29.5 -70.5v-500q0 -41 29.5 -70.5t70.5 -29.5h1400v-350q0 -21 -14.5 -35.5t-35.5 -14.5h-1800q-21 0 -35.5 14.5t-14.5 35.5v2300q0 21 14.5 35.5t35.5 14.5h1250v-550q0 -21 14.5 -35.5t35.5 -14.5h550v-700zM1600 2400v-450 q0 -21 14.5 -35.5t35.5 -14.5h450zM1000 1750l-500 305v-611zM1000 1000h100v-500h-100v300h-100v-300h-100v500h100v-100h100v100zM1400 1000l100 -100v-200l-100 -100h-100v-100h-100v500h200zM1600 1000h300v-100h-200v-300h100v200h100v-300h-300v500zM1400 700v200 h-100v-200h100z" />
<glyph unicode="&#xe041;" d="M2100 1100h-1400q-41 0 -70.5 -29.5t-29.5 -70.5v-500q0 -41 29.5 -70.5t70.5 -29.5h1400v-350q0 -21 -14.5 -35.5t-35.5 -14.5h-1800q-21 0 -35.5 14.5t-14.5 35.5v2300q0 21 14.5 35.5t35.5 14.5h1250v-550q0 -21 14.5 -35.5t35.5 -14.5h550v-700zM1600 2400v-450 q0 -21 14.5 -35.5t35.5 -14.5h450zM1000 1750l-500 305v-611zM1000 1000l100 -100v-400h-100v100h-100v-100h-100v400l100 100h100zM1300 1000h200v-100h-200v-100h-100v100zM1700 900v-100h200v-100h-200v-200h-100v500h300v-100h-200zM1000 900h-100v-200h100v200z M1300 700v100h100v-100h-100zM1400 600v100h100v-100l-100 -100h-200v100h200z" />
<glyph unicode="&#xe042;" d="M2100 1100h-1400q-41 0 -70.5 -29.5t-29.5 -70.5v-500q0 -41 29.5 -70.5t70.5 -29.5h1400v-350q0 -21 -14.5 -35.5t-35.5 -14.5h-1800q-21 0 -35.5 14.5t-14.5 35.5v2300q0 21 14.5 35.5t35.5 14.5h1250v-550q0 -21 14.5 -35.5t35.5 -14.5h550v-700zM1600 2400v-450 q0 -21 14.5 -35.5t35.5 -14.5h450zM1000 1750l-500 305v-611zM900 1000h-100v-500h200v100h-100v400zM1000 1000h100v-400h-100v400zM1500 900v-300l-100 -100h-100l-100 100v300l100 100h100zM1900 800l-50 -50l50 -50v-100l-100 -100h-200v500h200l100 -100v-100z M1400 600v300h-100v-300h100zM1800 800v100h-100v-100h100zM1800 600v100h-100v-100h100z" />
<glyph unicode="&#xe043;" d="M2100 1100h-1400q-41 0 -70.5 -29.5t-29.5 -70.5v-500q0 -41 29.5 -70.5t70.5 -29.5h1400v-350q0 -21 -14.5 -35.5t-35.5 -14.5h-1800q-21 0 -35.5 14.5t-14.5 35.5v2300q0 21 14.5 35.5t35.5 14.5h1250v-550q0 -21 14.5 -35.5t35.5 -14.5h550v-700zM1600 2400v-450 q0 -21 14.5 -35.5t35.5 -14.5h450zM1000 1750l-500 305v-611zM1000 1000h100v-500h-100v100h-100v-100h-100v500h100v-300h100v300zM1400 900h-100v100h-100v-500h100v300h100v-300h100v500h-100v-100zM1800 500h-200v500h100v-400h100v-100zM1900 600h-100v400h100v-400z " />
<glyph unicode="&#xe044;" d="M2100 1100h-1400q-41 0 -70.5 -29.5t-29.5 -70.5v-500q0 -41 29.5 -70.5t70.5 -29.5h1400v-350q0 -21 -14.5 -35.5t-35.5 -14.5h-1800q-21 0 -35.5 14.5t-14.5 35.5v2300q0 21 14.5 35.5t35.5 14.5h1250v-550q0 -21 14.5 -35.5t35.5 -14.5h550v-700zM1600 2400v-450 q0 -21 14.5 -35.5t35.5 -14.5h450zM1000 1750l-500 305v-611zM1000 900h-100v100h-100v-500h100v300h100v-300h100v500h-100v-100zM1500 900v-300l-100 -100h-100l-100 100v300l100 100h100zM1800 500h-200v500h100v-400h100v-100zM1900 600h-100v400h100v-400zM1400 600 v300h-100v-300h100z" />
<glyph unicode="&#xe045;" d="M2100 1100h-1400q-41 0 -70.5 -29.5t-29.5 -70.5v-500q0 -41 29.5 -70.5t70.5 -29.5h1400v-350q0 -21 -14.5 -35.5t-35.5 -14.5h-1800q-21 0 -35.5 14.5t-14.5 35.5v2300q0 21 14.5 35.5t35.5 14.5h1250v-550q0 -21 14.5 -35.5t35.5 -14.5h550v-700zM1600 2400v-450 q0 -21 14.5 -35.5t35.5 -14.5h450zM1000 1750l-500 305v-611zM900 1000h200v-100h-200v-100h-100v100zM1200 1000v-500h100v100h100l-100 100v200h100v-200h100v200l-100 100h-200zM1600 1000v-100h100v-400h100v400h100v100h-300zM900 700v100h100v-100h-100zM1000 600v100 h100v-100l-100 -100h-200v100h200zM1400 500v100h100v-100h-100z" />
<glyph unicode="&#xe046;" d="M2100 1100h-1400q-41 0 -70.5 -29.5t-29.5 -70.5v-500q0 -41 29.5 -70.5t70.5 -29.5h1400v-350q0 -21 -14.5 -35.5t-35.5 -14.5h-1800q-21 0 -35.5 14.5t-14.5 35.5v2300q0 21 14.5 35.5t35.5 14.5h1250v-550q0 -21 14.5 -35.5t35.5 -14.5h550v-700zM1600 2400v-450 q0 -21 14.5 -35.5t35.5 -14.5h450zM1000 1750l-500 305v-611zM1000 900h-100v100h-100v-500h100v300h100v-300h100v500h-100v-100zM1400 700h-100v300h-100v-400h200v-100h100v500h-100v-300zM1700 1000h-100v-500h200v100h-100v400zM1800 600h100v400h-100v-400z" />
<glyph unicode="&#xe047;" d="M2100 1100h-1400q-41 0 -70.5 -29.5t-29.5 -70.5v-500q0 -41 29.5 -70.5t70.5 -29.5h1400v-350q0 -21 -14.5 -35.5t-35.5 -14.5h-1800q-21 0 -35.5 14.5t-14.5 35.5v2300q0 21 14.5 35.5t35.5 14.5h1250v-550q0 -21 14.5 -35.5t35.5 -14.5h550v-700zM1600 2400v-450 q0 -21 14.5 -35.5t35.5 -14.5h450zM1000 1750l-500 305v-611zM900 900v-100h200v-100h-200v-200h-100v400l100 100h200v-100h-200zM1500 600v-100h-200l-100 100v400h100v-400h200zM1700 1000h-100v-500h200v100h-100v400zM1800 600h100v400h-100v-400z" />
<glyph unicode="&#xe048;" d="M2100 1100h-1400q-41 0 -70.5 -29.5t-29.5 -70.5v-500q0 -41 29.5 -70.5t70.5 -29.5h1400v-350q0 -21 -14.5 -35.5t-35.5 -14.5h-1800q-21 0 -35.5 14.5t-14.5 35.5v2300q0 21 14.5 35.5t35.5 14.5h1250v-550q0 -21 14.5 -35.5t35.5 -14.5h550v-700zM1600 2400v-450 q0 -21 14.5 -35.5t35.5 -14.5h450zM1000 1750l-500 305v-611zM800 1000v-500h100v100h100l-100 100v200h100v-200h100v200l-100 100h-200zM1400 900h-100v100h-100v-500h100v300h100v-300h100v500h-100v-100zM1000 500v100h100v-100h-100z" />
<glyph unicode="&#xe049;" d="M1500 2400v-550q0 -21 14.5 -35.5t35.5 -14.5h550v-700h-1400q-41 0 -70.5 -29.5t-29.5 -70.5v-500q0 -41 29.5 -70.5t70.5 -29.5h1400v-350q0 -21 -14.5 -35.5t-35.5 -14.5h-1800q-21 0 -35.5 14.5t-14.5 35.5v2300q0 21 14.5 35.5t35.5 14.5h1250zM2100 1900h-450 q-21 0 -35.5 14.5t-14.5 35.5v450zM1200 1544v512q0 12 -6 22t-16 16t-22 6h-612q-18 0 -31 -13t-13 -31v-512q0 -18 13 -31t31 -13h612q18 0 31 13t13 31zM600 2000h500v-360l-142 228l-100 -166l-258 -62v360zM749 1933q-35 0 -59.5 -24.5t-24.5 -59.5q0 -23 11 -42.5 t30.5 -30.5t42.5 -11q35 0 59.5 24.5t24.5 59.5q0 17 -6.5 33t-18 27t-27 17.5t-32.5 6.5zM1000 1000l100 -100v-200l-100 -100h-100v-100h-100v500h200zM1200 1000v-500h100v400h100v100h-200zM1600 1000h300v-100h-200v-300h100v200h100v-300h-300v500zM1000 700v200h-100 v-200h100zM1400 500h100v400h-100v-400z" />
<glyph unicode="&#xe050;" d="M1500 2400v-550q0 -21 14.5 -35.5t35.5 -14.5h550v-700h-1400q-41 0 -70.5 -29.5t-29.5 -70.5v-500q0 -41 29.5 -70.5t70.5 -29.5h1400v-350q0 -21 -14.5 -35.5t-35.5 -14.5h-1800q-21 0 -35.5 14.5t-14.5 35.5v2300q0 21 14.5 35.5t35.5 14.5h1250zM2100 1900h-450 q-21 0 -35.5 14.5t-14.5 35.5v450zM1200 1544v512q0 12 -6 22t-16 16t-22 6h-612q-18 0 -31 -13t-13 -31v-512q0 -18 13 -31t31 -13h612q18 0 31 13t13 31zM600 2000h500v-360l-142 228l-100 -166l-258 -62v360zM749 1933q-35 0 -59.5 -24.5t-24.5 -59.5q0 -23 11 -42.5 t30.5 -30.5t42.5 -11q35 0 59.5 24.5t24.5 59.5q0 17 -6.5 33t-18 27t-27 17.5t-32.5 6.5zM1000 1000l100 -100v-200l-100 -100h-100v-100h-100v500h200zM1300 1000h200v-100h-200v-100h-100v100zM1900 900v-300l-100 -100h-200v500h200zM1000 700v200h-100v-200h100z M1800 900h-100v-300h100v300zM1300 700v100h100v-100h-100zM1400 600v100h100v-100l-100 -100h-200v100h200z" />
<glyph unicode="&#xe051;" d="M1500 2400v-550q0 -21 14.5 -35.5t35.5 -14.5h550v-700h-1400q-41 0 -70.5 -29.5t-29.5 -70.5v-500q0 -41 29.5 -70.5t70.5 -29.5h1400v-350q0 -21 -14.5 -35.5t-35.5 -14.5h-1800q-21 0 -35.5 14.5t-14.5 35.5v2300q0 21 14.5 35.5t35.5 14.5h1250zM2100 1900h-450 q-21 0 -35.5 14.5t-14.5 35.5v450zM1200 1544v512q0 12 -6 22t-16 16t-22 6h-612q-18 0 -31 -13t-13 -31v-512q0 -18 13 -31t31 -13h612q18 0 31 13t13 31zM600 2000h500v-360l-142 228l-100 -166l-258 -62v360zM749 1933q-35 0 -59.5 -24.5t-24.5 -59.5q0 -23 11 -42.5 t30.5 -30.5t42.5 -11q35 0 59.5 24.5t24.5 59.5q0 17 -6.5 33t-18 27t-27 17.5t-32.5 6.5zM1000 1000l100 -100v-200l-100 -100h-100v-100h-100v500h200zM1300 1000h200v-100h-200v-100h-100v100zM1800 1000l100 -100v-200l-100 -100h-100v-100h-100v500h200zM1000 700v200 h-100v-200h100zM1800 700v200h-100v-200h100zM1300 700v100h100v-100h-100zM1400 600v100h100v-100l-100 -100h-200v100h200z" />
<glyph unicode="&#xe052;" d="M1500 2400v-550q0 -21 14.5 -35.5t35.5 -14.5h550v-700h-1400q-41 0 -70.5 -29.5t-29.5 -70.5v-500q0 -41 29.5 -70.5t70.5 -29.5h1400v-350q0 -21 -14.5 -35.5t-35.5 -14.5h-1800q-21 0 -35.5 14.5t-14.5 35.5v2300q0 21 14.5 35.5t35.5 14.5h1250zM2100 1900h-450 q-21 0 -35.5 14.5t-14.5 35.5v450zM1200 1544v512q0 12 -6 22t-16 16t-22 6h-612q-18 0 -31 -13t-13 -31v-512q0 -18 13 -31t31 -13h612q18 0 31 13t13 31zM600 2000h500v-360l-142 228l-100 -166l-258 -62v360zM749 1933q-35 0 -59.5 -24.5t-24.5 -59.5q0 -23 11 -42.5 t30.5 -30.5t42.5 -11q35 0 59.5 24.5t24.5 59.5q0 17 -6.5 33t-18 27t-27 17.5t-32.5 6.5zM1100 1000v-400l-100 -100h-100l-100 100v200h100v-200h100v400h100zM1400 1000l100 -100v-200l-100 -100h-100v-100h-100v500h200zM1600 1000h300v-100h-200v-300h100v200h100v-300 h-300v500zM1300 900v-200h100v200h-100z" />
<glyph unicode="&#xe053;" d="M1500 2400v-550q0 -21 14.5 -35.5t35.5 -14.5h550v-700h-1400q-41 0 -70.5 -29.5t-29.5 -70.5v-500q0 -41 29.5 -70.5t70.5 -29.5h1400v-350q0 -21 -14.5 -35.5t-35.5 -14.5h-1800q-21 0 -35.5 14.5t-14.5 35.5v2300q0 21 14.5 35.5t35.5 14.5h1250zM2100 1900h-450 q-21 0 -35.5 14.5t-14.5 35.5v450zM1200 1544v512q0 12 -6 22t-16 16t-22 6h-612q-18 0 -31 -13t-13 -31v-512q0 -18 13 -31t31 -13h612q18 0 31 13t13 31zM600 2000h500v-360l-142 228l-100 -166l-258 -62v360zM749 1933q-35 0 -59.5 -24.5t-24.5 -59.5q0 -23 11 -42.5 t30.5 -30.5t42.5 -11q35 0 59.5 24.5t24.5 59.5q0 17 -6.5 33t-18 27t-27 17.5t-32.5 6.5zM800 1000v-100h100v-400h100v400h100v100h-300zM1200 500h100v500h-100v-500zM1500 900v-100h200v-100h-200v-200h-100v400l100 100h200v-100h-200z" />
<glyph unicode="&#xe054;" d="M1500 2400v-550q0 -21 14.5 -35.5t35.5 -14.5h550v-700h-1400q-41 0 -70.5 -29.5t-29.5 -70.5v-500q0 -41 29.5 -70.5t70.5 -29.5h1400v-350q0 -21 -14.5 -35.5t-35.5 -14.5h-1800q-21 0 -35.5 14.5t-14.5 35.5v2300q0 21 14.5 35.5t35.5 14.5h1250zM2100 1900h-450 q-21 0 -35.5 14.5t-14.5 35.5v450zM1200 1544v512q0 12 -6 22t-16 16t-22 6h-612q-18 0 -31 -13t-13 -31v-512q0 -18 13 -31t31 -13h612q18 0 31 13t13 31zM600 2000h500v-360l-142 228l-100 -166l-258 -62v360zM749 1933q-35 0 -59.5 -24.5t-24.5 -59.5q0 -23 11 -42.5 t30.5 -30.5t42.5 -11q35 0 59.5 24.5t24.5 59.5q0 17 -6.5 33t-18 27t-27 17.5t-32.5 6.5zM800 1000v-100h100v-400h100v400h100v100h-300zM1200 500h100v500h-100v-500zM1500 900v-100h200v-100h-200v-200h-100v400l100 100h200v-100h-200zM1900 900v-100h200v-100h-200 v-200h-100v400l100 100h200v-100h-200z" />
<glyph unicode="&#xe055;" d="M1500 2400v-550q0 -21 14.5 -35.5t35.5 -14.5h550v-700h-1400q-41 0 -70.5 -29.5t-29.5 -70.5v-500q0 -41 29.5 -70.5t70.5 -29.5h1400v-350q0 -21 -14.5 -35.5t-35.5 -14.5h-1800q-21 0 -35.5 14.5t-14.5 35.5v2300q0 21 14.5 35.5t35.5 14.5h1250zM2100 1900h-450 q-21 0 -35.5 14.5t-14.5 35.5v450zM1200 1544v512q0 12 -6 22t-16 16t-22 6h-612q-18 0 -31 -13t-13 -31v-512q0 -18 13 -31t31 -13h612q18 0 31 13t13 31zM600 2000h500v-360l-142 228l-100 -166l-258 -62v360zM749 1933q-35 0 -59.5 -24.5t-24.5 -59.5q0 -23 11 -42.5 t30.5 -30.5t42.5 -11q35 0 59.5 24.5t24.5 59.5q0 17 -6.5 33t-18 27t-27 17.5t-32.5 6.5zM800 1000h300v-100h-200v-300h100v200h100v-300h-300v500zM1200 500h100v500h-100v-500zM1500 900v-100h200v-100h-200v-200h-100v400l100 100h200v-100h-200z" />
<glyph unicode="&#xe056;" d="M1500 2400v-550q0 -21 14.5 -35.5t35.5 -14.5h550v-700h-1400q-41 0 -70.5 -29.5t-29.5 -70.5v-500q0 -41 29.5 -70.5t70.5 -29.5h1400v-350q0 -21 -14.5 -35.5t-35.5 -14.5h-1800q-21 0 -35.5 14.5t-14.5 35.5v2300q0 21 14.5 35.5t35.5 14.5h1250zM2100 1900h-450 q-21 0 -35.5 14.5t-14.5 35.5v450zM1200 1544v512q0 12 -6 22t-16 16t-22 6h-612q-18 0 -31 -13t-13 -31v-512q0 -18 13 -31t31 -13h612q18 0 31 13t13 31zM600 2000h500v-360l-142 228l-100 -166l-258 -62v360zM749 1933q-35 0 -59.5 -24.5t-24.5 -59.5q0 -23 11 -42.5 t30.5 -30.5t42.5 -11q35 0 59.5 24.5t24.5 59.5q0 17 -6.5 33t-18 27t-27 17.5t-32.5 6.5zM1100 800l-50 -50l50 -50v-100l-100 -100h-200v500h200l100 -100v-100zM1400 900h-100v100h-100v-500h100v300h100v-300h100v500h-100v-100zM1800 1000l100 -100v-200l-100 -100 h-100v-100h-100v500h200zM1000 800v100h-100v-100h100zM1800 700v200h-100v-200h100zM1000 600v100h-100v-100h100z" />
<glyph unicode="&#xe057;" d="M1500 2400v-550q0 -21 14.5 -35.5t35.5 -14.5h550v-700h-1400q-41 0 -70.5 -29.5t-29.5 -70.5v-500q0 -41 29.5 -70.5t70.5 -29.5h1400v-350q0 -21 -14.5 -35.5t-35.5 -14.5h-1800q-21 0 -35.5 14.5t-14.5 35.5v2300q0 21 14.5 35.5t35.5 14.5h1250zM2100 1900h-450 q-21 0 -35.5 14.5t-14.5 35.5v450zM1200 1544v512q0 12 -6 22t-16 16t-22 6h-612q-18 0 -31 -13t-13 -31v-512q0 -18 13 -31t31 -13h612q18 0 31 13t13 31zM600 2000h500v-360l-142 228l-100 -166l-258 -62v360zM749 1933q-35 0 -59.5 -24.5t-24.5 -59.5q0 -23 11 -42.5 t30.5 -30.5t42.5 -11q35 0 59.5 24.5t24.5 59.5q0 17 -6.5 33t-18 27t-27 17.5t-32.5 6.5zM800 1000v-100h100v-400h100v400h100v100h-300zM1200 1000h300v-100h-200v-300h100v200h100v-300h-300v500zM1800 1000l100 -100v-400h-100v100h-100v-100h-100v400l100 100h100z M1800 900h-100v-200h100v200z" />
<glyph unicode="&#xe058;" d="M1500 2400v-550q0 -21 14.5 -35.5t35.5 -14.5h550v-700h-1400q-41 0 -70.5 -29.5t-29.5 -70.5v-500q0 -41 29.5 -70.5t70.5 -29.5h1400v-350q0 -21 -14.5 -35.5t-35.5 -14.5h-1800q-21 0 -35.5 14.5t-14.5 35.5v2300q0 21 14.5 35.5t35.5 14.5h1250zM2100 1900h-450 q-21 0 -35.5 14.5t-14.5 35.5v450zM1200 1544v512q0 12 -6 22t-16 16t-22 6h-612q-18 0 -31 -13t-13 -31v-512q0 -18 13 -31t31 -13h612q18 0 31 13t13 31zM600 2000h500v-360l-142 228l-100 -166l-258 -62v360zM749 1933q-35 0 -59.5 -24.5t-24.5 -59.5q0 -23 11 -42.5 t30.5 -30.5t42.5 -11q35 0 59.5 24.5t24.5 59.5q0 17 -6.5 33t-18 27t-27 17.5t-32.5 6.5zM800 1000v-100h100v-400h100v400h100v100h-300zM1400 800h-100v200h-100v-500h100v200h100v-200h100v500h-100v-200zM1800 900h-100v100h-100v-500h100v300h100v-300h100v500h-100 v-100z" />
<glyph unicode="&#xe059;" d="M1500 2400v-550q0 -21 14.5 -35.5t35.5 -14.5h550v-700h-1400q-41 0 -70.5 -29.5t-29.5 -70.5v-500q0 -41 29.5 -70.5t70.5 -29.5h1400v-350q0 -21 -14.5 -35.5t-35.5 -14.5h-1800q-21 0 -35.5 14.5t-14.5 35.5v2300q0 21 14.5 35.5t35.5 14.5h1250zM2100 1900h-450 q-21 0 -35.5 14.5t-14.5 35.5v450zM1200 1544v512q0 12 -6 22t-16 16t-22 6h-612q-18 0 -31 -13t-13 -31v-512q0 -18 13 -31t31 -13h612q18 0 31 13t13 31zM600 2000h500v-360l-142 228l-100 -166l-258 -62v360zM749 1933q-35 0 -59.5 -24.5t-24.5 -59.5q0 -23 11 -42.5 t30.5 -30.5t42.5 -11q35 0 59.5 24.5t24.5 59.5q0 17 -6.5 33t-18 27t-27 17.5t-32.5 6.5zM1100 1000v-200l-100 -100v-200h-100v200l-100 100v200h100v-200h100v200h100zM1500 1000v-400l-100 -100h-100l-100 100v400h100v-400h100v400h100zM1800 500h-200v500h100v-400 h100v-100zM1900 600h-100v400h100v-400z" />
<glyph unicode="&#xe060;" d="M1500 2400v-550q0 -21 14.5 -35.5t35.5 -14.5h550v-700h-1400q-41 0 -70.5 -29.5t-29.5 -70.5v-500q0 -41 29.5 -70.5t70.5 -29.5h1400v-350q0 -21 -14.5 -35.5t-35.5 -14.5h-1800q-21 0 -35.5 14.5t-14.5 35.5v2300q0 21 14.5 35.5t35.5 14.5h1250zM2100 1900h-450 q-21 0 -35.5 14.5t-14.5 35.5v450zM1200 1544v512q0 12 -6 22t-16 16t-22 6h-612q-18 0 -31 -13t-13 -31v-512q0 -18 13 -31t31 -13h612q18 0 31 13t13 31zM600 2000h500v-360l-142 228l-100 -166l-258 -62v360zM749 1933q-35 0 -59.5 -24.5t-24.5 -59.5q0 -23 11 -42.5 t30.5 -30.5t42.5 -11q35 0 59.5 24.5t24.5 59.5q0 17 -6.5 33t-18 27t-27 17.5t-32.5 6.5zM1100 900v-300l-100 -100h-200v500h200zM1500 900v-300l-100 -100h-200v500h200zM1700 1000h200v-100h-200v-100h-100v100zM1000 900h-100v-300h100v300zM1400 900h-100v-300h100 v300zM1700 700v100h100v-100h-100zM1800 600v100h100v-100l-100 -100h-200v100h200z" />
<glyph unicode="&#xe061;" d="M1500 2400v-550q0 -21 14.5 -35.5t35.5 -14.5h550v-700h-1400q-41 0 -70.5 -29.5t-29.5 -70.5v-500q0 -41 29.5 -70.5t70.5 -29.5h1400v-350q0 -21 -14.5 -35.5t-35.5 -14.5h-1800q-21 0 -35.5 14.5t-14.5 35.5v2300q0 21 14.5 35.5t35.5 14.5h1250zM2100 1900h-450 q-21 0 -35.5 14.5t-14.5 35.5v450zM1200 2100h-300v-200l-200 -200h-200v-300h300v200l200 200h200v300zM1100 1900h-100v100h100v-100zM600 1600h100v-100h-100v100zM1000 1000l100 -100v-400h-100v100h-100v-100h-100v400l100 100h100zM1200 500h100v500h-100v-500z M1000 900h-100v-200h100v200z" />
<glyph unicode="&#xe062;" d="M1500 2400v-550q0 -21 14.5 -35.5t35.5 -14.5h550v-700h-1400q-41 0 -70.5 -29.5t-29.5 -70.5v-500q0 -41 29.5 -70.5t70.5 -29.5h1400v-350q0 -21 -14.5 -35.5t-35.5 -14.5h-1800q-21 0 -35.5 14.5t-14.5 35.5v2300q0 21 14.5 35.5t35.5 14.5h1250zM2100 1900h-450 q-21 0 -35.5 14.5t-14.5 35.5v450zM1200 2100h-300v-200l-200 -200h-200v-300h300v200l200 200h200v300zM1100 1900h-100v100h100v-100zM600 1600h100v-100h-100v100zM900 1000h200v-100h-200v-100h200v-100h-200v-100h200v-100h-200l-100 100v300zM1400 1000l100 -100v-200 l-100 -100h-100v-100h-100v500h200zM1700 1000h200v-100h-200v-100h-100v100zM1400 700v200h-100v-200h100zM1700 700v100h100v-100h-100zM1800 600v100h100v-100l-100 -100h-200v100h200z" />
<glyph unicode="&#xe063;" d="M1500 2400v-550q0 -21 14.5 -35.5t35.5 -14.5h550v-700h-1400q-41 0 -70.5 -29.5t-29.5 -70.5v-500q0 -41 29.5 -70.5t70.5 -29.5h1400v-350q0 -21 -14.5 -35.5t-35.5 -14.5h-1800q-21 0 -35.5 14.5t-14.5 35.5v2300q0 21 14.5 35.5t35.5 14.5h1250zM2100 1900h-450 q-21 0 -35.5 14.5t-14.5 35.5v450zM1200 2100h-300v-200l-200 -200h-200v-300h300v200l200 200h200v300zM1100 1900h-100v100h100v-100zM600 1600h100v-100h-100v100zM1000 1000l100 -100v-200l-100 -100h-100v-100h-100v500h200zM1300 1000h200v-100h-200v-100h-100v100z M1000 700v200h-100v-200h100zM1300 700v100h100v-100h-100zM1400 600v100h100v-100l-100 -100h-200v100h200z" />
<glyph unicode="&#xe064;" d="M1500 2400v-550q0 -21 14.5 -35.5t35.5 -14.5h550v-700h-1400q-41 0 -70.5 -29.5t-29.5 -70.5v-500q0 -41 29.5 -70.5t70.5 -29.5h1400v-350q0 -21 -14.5 -35.5t-35.5 -14.5h-1800q-21 0 -35.5 14.5t-14.5 35.5v2300q0 21 14.5 35.5t35.5 14.5h1250zM2100 1900h-450 q-21 0 -35.5 14.5t-14.5 35.5v450zM1200 2100h-300v-200l-200 -200h-200v-300h300v200l200 200h200v300zM1100 1900h-100v100h100v-100zM600 1600h100v-100h-100v100zM900 1000h200v-100h-200v-100h-100v100zM1300 600h100v-100h-200v500h100v-400zM1500 1000v-400h-100v400 h100zM1600 1000h300v-100h-200v-300h100v200h100v-300h-300v500zM900 700v100h100v-100h-100zM1000 600v100h100v-100l-100 -100h-200v100h200z" />
<glyph unicode="&#xe065;" d="M1500 2400v-550q0 -21 14.5 -35.5t35.5 -14.5h550v-700h-1400q-41 0 -70.5 -29.5t-29.5 -70.5v-500q0 -41 29.5 -70.5t70.5 -29.5h1400v-350q0 -21 -14.5 -35.5t-35.5 -14.5h-1800q-21 0 -35.5 14.5t-14.5 35.5v2300q0 21 14.5 35.5t35.5 14.5h1250zM2100 1900h-450 q-21 0 -35.5 14.5t-14.5 35.5v450zM1200 2100h-500v-200h-200v-500h500v200h200v500zM1100 1700h-300v300h300v-300zM700 1600h200v-100h-300v300h100v-200zM1000 1000l100 -100v-200l-100 -100h-100v-100h-100v500h200zM1500 900v-300l-100 -100h-200v500h200zM1600 1000 v-500h100v200h200v100h-200v100h200v100h-300zM1000 700v200h-100v-200h100zM1400 900h-100v-300h100v300z" />
<glyph unicode="&#xe066;" d="M1500 2400v-550q0 -21 14.5 -35.5t35.5 -14.5h550v-700h-1400q-41 0 -70.5 -29.5t-29.5 -70.5v-500q0 -41 29.5 -70.5t70.5 -29.5h1400v-350q0 -21 -14.5 -35.5t-35.5 -14.5h-1800q-21 0 -35.5 14.5t-14.5 35.5v2300q0 21 14.5 35.5t35.5 14.5h1250zM2100 1900h-450 q-21 0 -35.5 14.5t-14.5 35.5v450zM1200 2100h-500v-200h-200v-500h500v200h200v500zM1100 1700h-300v300h300v-300zM700 1600h200v-100h-300v300h100v-200zM1000 1000l100 -100v-200l-100 -100h-100v-100h-100v500h200zM1300 900v-300h200v-100h-200l-100 100v300l100 100 h200v-100h-200zM1600 1000v-100h100v-400h100v400h100v100h-300zM1000 700v200h-100v-200h100z" />
<glyph unicode="&#xe067;" d="M1500 2400v-550q0 -21 14.5 -35.5t35.5 -14.5h550v-700h-1400q-41 0 -70.5 -29.5t-29.5 -70.5v-500q0 -41 29.5 -70.5t70.5 -29.5h1400v-350q0 -21 -14.5 -35.5t-35.5 -14.5h-1800q-21 0 -35.5 14.5t-14.5 35.5v2300q0 21 14.5 35.5t35.5 14.5h1250zM2100 1900h-450 q-21 0 -35.5 14.5t-14.5 35.5v450zM1200 2100h-500v-200h-200v-500h500v200h200v500zM1100 1700h-300v300h300v-300zM700 1600h200v-100h-300v300h100v-200zM800 500h100v500h-100v-500zM1000 1000v-500h100v400h100v100h-200zM1700 900v-300l-100 -100h-200v500h200z M2100 900v-300l-100 -100h-200v500h200zM1200 500h100v400h-100v-400zM1600 900h-100v-300h100v300zM2000 900h-100v-300h100v300z" />
<glyph unicode="&#xe068;" d="M1500 2400v-550q0 -21 14.5 -35.5t35.5 -14.5h550v-700h-1400q-41 0 -70.5 -29.5t-29.5 -70.5v-500q0 -41 29.5 -70.5t70.5 -29.5h1400v-350q0 -21 -14.5 -35.5t-35.5 -14.5h-1800q-21 0 -35.5 14.5t-14.5 35.5v2300q0 21 14.5 35.5t35.5 14.5h1250zM2100 1900h-450 q-21 0 -35.5 14.5t-14.5 35.5v450zM800 2100h-300v-300h300v300zM1200 2100h-300v-300h300v300zM700 1900h-100v100h100v-100zM1100 1900h-100v100h100v-100zM800 1700h-300v-300h300v300zM1200 1700h-300v-300h300v300zM700 1500h-100v100h100v-100zM1100 1500h-100v100 h100v-100zM800 1000v-200h100v200h-100zM1100 1000h-100v-200h100v200zM1500 600v-100h-200l-100 100v400h100v-400h200zM1800 700v200h-100v-200l100 -100h-100v-100h-100v500h200l100 -100v-200h-100zM900 800v-100h100v100h-100zM800 500h100v200h-100v-200zM1100 500 v200h-100v-200h100zM1800 500v100h100v-100h-100z" />
<glyph unicode="&#xe069;" d="M1500 2400v-550q0 -21 14.5 -35.5t35.5 -14.5h550v-700h-1400q-41 0 -70.5 -29.5t-29.5 -70.5v-500q0 -41 29.5 -70.5t70.5 -29.5h1400v-350q0 -21 -14.5 -35.5t-35.5 -14.5h-1800q-21 0 -35.5 14.5t-14.5 35.5v2300q0 21 14.5 35.5t35.5 14.5h1250zM2100 1900h-450 q-21 0 -35.5 14.5t-14.5 35.5v450zM800 2100h-300v-300h300v300zM1200 2100h-300v-300h300v300zM700 1900h-100v100h100v-100zM1100 1900h-100v100h100v-100zM800 1700h-300v-300h300v300zM1200 1700h-300v-300h300v300zM700 1500h-100v100h100v-100zM1100 1500h-100v100 h100v-100zM800 1000v-200h100v200h-100zM1100 1000h-100v-200h100v200zM1500 600v-100h-200l-100 100v400h100v-400h200zM1700 1000h200v-100h-200v-100h-100v100zM900 800v-100h100v100h-100zM1700 700v100h100v-100h-100zM800 500h100v200h-100v-200zM1100 500v200h-100 v-200h100zM1800 600v100h100v-100l-100 -100h-200v100h200z" />
<glyph unicode="&#xe070;" d="M1500 2400v-550q0 -21 14.5 -35.5t35.5 -14.5h550v-700h-1400q-41 0 -70.5 -29.5t-29.5 -70.5v-500q0 -41 29.5 -70.5t70.5 -29.5h1400v-350q0 -21 -14.5 -35.5t-35.5 -14.5h-1800q-21 0 -35.5 14.5t-14.5 35.5v2300q0 21 14.5 35.5t35.5 14.5h1250zM2100 1900h-450 q-21 0 -35.5 14.5t-14.5 35.5v450zM800 2100h-300v-300h300v300zM1200 2100h-300v-300h300v300zM700 1900h-100v100h100v-100zM1100 1900h-100v100h100v-100zM800 1700h-300v-300h300v300zM1200 1700h-300v-300h300v300zM700 1500h-100v100h100v-100zM1100 1500h-100v100 h100v-100zM800 1000v-200h100v200h-100zM1100 1000h-100v-200h100v200zM1500 600v-100h-200l-100 100v400h100v-400h200zM1700 1000h200v-100h-200v-100h-100v100zM2000 1000v-200h100v200h-100zM2300 1000h-100v-200h100v200zM900 800v-100h100v100h-100zM1700 700v100h100 v-100h-100zM2100 800v-100h100v100h-100zM800 500h100v200h-100v-200zM1100 500v200h-100v-200h100zM1800 600v100h100v-100l-100 -100h-200v100h200zM2000 500h100v200h-100v-200zM2300 500v200h-100v-200h100z" />
<glyph unicode="&#xe071;" d="M1500 2400v-550q0 -21 14.5 -35.5t35.5 -14.5h550v-700h-1400q-41 0 -70.5 -29.5t-29.5 -70.5v-500q0 -41 29.5 -70.5t70.5 -29.5h1400v-350q0 -21 -14.5 -35.5t-35.5 -14.5h-1800q-21 0 -35.5 14.5t-14.5 35.5v2300q0 21 14.5 35.5t35.5 14.5h1250zM2100 1900h-450 q-21 0 -35.5 14.5t-14.5 35.5v450zM500 2000h600q0 21 -3 37t-7 26.5t-12.5 17.5t-15 11t-19 5.5t-20 2t-23.5 0.5h-400q-15 0 -23 -0.5t-20.5 -2t-19 -5.5t-15 -11t-12.5 -17.5t-7 -26.5t-3 -37zM1100 1900h-600v-100h600v100zM1100 1700h-600v-100h600v100zM600 1400h400 q16 0 23.5 0.5t20 2t19 5t15 11t12.5 18t7 26.5t3 37h-600q0 -21 3 -37t7 -26.5t12.5 -18t15 -11t19 -5t20.5 -2t23 -0.5zM1100 900v-300l-100 -100h-200v500h200zM1500 800l-50 -50l50 -50v-100l-100 -100h-200v500h200l100 -100v-100zM1000 900h-100v-300h100v300z M1400 800v100h-100v-100h100zM1400 600v100h-100v-100h100z" />
<glyph unicode="&#xe072;" d="M1500 2400v-550q0 -21 14.5 -35.5t35.5 -14.5h550v-700h-1400q-41 0 -70.5 -29.5t-29.5 -70.5v-500q0 -41 29.5 -70.5t70.5 -29.5h1400v-350q0 -21 -14.5 -35.5t-35.5 -14.5h-1800q-21 0 -35.5 14.5t-14.5 35.5v2300q0 21 14.5 35.5t35.5 14.5h1250zM2100 1900h-450 q-21 0 -35.5 14.5t-14.5 35.5v450zM500 2000h600q0 21 -3 37t-7 26.5t-12.5 17.5t-15 11t-19 5.5t-20 2t-23.5 0.5h-400q-15 0 -23 -0.5t-20.5 -2t-19 -5.5t-15 -11t-12.5 -17.5t-7 -26.5t-3 -37zM1100 1900h-600v-100h600v100zM1100 1700h-600v-100h600v100zM600 1400h400 q16 0 23.5 0.5t20 2t19 5t15 11t12.5 18t7 26.5t3 37h-600q0 -21 3 -37t7 -26.5t12.5 -18t15 -11t19 -5t20.5 -2t23 -0.5zM1100 900v-300l-100 -100h-200v500h200zM1500 800l-50 -50l50 -50v-100l-100 -100h-200v500h200l100 -100v-100zM1600 1000v-500h100v200h200v100 h-200v100h200v100h-300zM1000 900h-100v-300h100v300zM1400 800v100h-100v-100h100zM1400 600v100h-100v-100h100z" />
<glyph unicode="&#xe073;" d="M1500 2400v-550q0 -21 14.5 -35.5t35.5 -14.5h550v-700h-1400q-41 0 -70.5 -29.5t-29.5 -70.5v-500q0 -41 29.5 -70.5t70.5 -29.5h1400v-350q0 -21 -14.5 -35.5t-35.5 -14.5h-1800q-21 0 -35.5 14.5t-14.5 35.5v2300q0 21 14.5 35.5t35.5 14.5h1250zM2100 1900h-450 q-21 0 -35.5 14.5t-14.5 35.5v450zM500 2000h600q0 21 -3 37t-7 26.5t-12.5 17.5t-15 11t-19 5.5t-20 2t-23.5 0.5h-400q-15 0 -23 -0.5t-20.5 -2t-19 -5.5t-15 -11t-12.5 -17.5t-7 -26.5t-3 -37zM1100 1900h-600v-100h600v100zM1100 1700h-600v-100h600v100zM600 1400h400 q16 0 23.5 0.5t20 2t19 5t15 11t12.5 18t7 26.5t3 37h-600q0 -21 3 -37t7 -26.5t12.5 -18t15 -11t19 -5t20.5 -2t23 -0.5zM1000 900h-100v100h-100v-500h100v300h100v-300h100v500h-100v-100zM1500 900v-300l-100 -100h-200v500h200zM1900 800l-50 -50l50 -50v-100 l-100 -100h-200v500h200l100 -100v-100zM1400 900h-100v-300h100v300zM1800 800v100h-100v-100h100zM1800 600v100h-100v-100h100z" />
<glyph unicode="&#xe074;" d="M1500 2400v-550q0 -21 14.5 -35.5t35.5 -14.5h550v-700h-1400q-41 0 -70.5 -29.5t-29.5 -70.5v-500q0 -41 29.5 -70.5t70.5 -29.5h1400v-350q0 -21 -14.5 -35.5t-35.5 -14.5h-1800q-21 0 -35.5 14.5t-14.5 35.5v2300q0 21 14.5 35.5t35.5 14.5h1250zM2100 1900h-450 q-21 0 -35.5 14.5t-14.5 35.5v450zM500 2000h600q0 21 -3 37t-7 26.5t-12.5 17.5t-15 11t-19 5.5t-20 2t-23.5 0.5h-400q-15 0 -23 -0.5t-20.5 -2t-19 -5.5t-15 -11t-12.5 -17.5t-7 -26.5t-3 -37zM1100 1900h-600v-100h600v100zM1100 1700h-600v-100h600v100zM600 1400h400 q16 0 23.5 0.5t20 2t19 5t15 11t12.5 18t7 26.5t3 37h-600q0 -21 3 -37t7 -26.5t12.5 -18t15 -11t19 -5t20.5 -2t23 -0.5zM1500 900v-300l-100 -100h-200v500h200zM1000 1000l100 -100v-200l-100 -100h-100v-100h-100v500h200zM1900 800l-50 -50l50 -50v-100l-100 -100h-200 v500h200l100 -100v-100zM1000 700v200h-100v-200h100zM1400 900h-100v-300h100v300zM1800 800v100h-100v-100h100zM1800 600v100h-100v-100h100z" />
<glyph unicode="&#xe075;" d="M1500 2400v-550q0 -21 14.5 -35.5t35.5 -14.5h550v-700h-1400q-41 0 -70.5 -29.5t-29.5 -70.5v-500q0 -41 29.5 -70.5t70.5 -29.5h1400v-350q0 -21 -14.5 -35.5t-35.5 -14.5h-1800q-21 0 -35.5 14.5t-14.5 35.5v2300q0 21 14.5 35.5t35.5 14.5h1250zM2100 1900h-450 q-21 0 -35.5 14.5t-14.5 35.5v450zM500 2000h600q0 21 -3 37t-7 26.5t-12.5 17.5t-15 11t-19 5.5t-20 2t-23.5 0.5h-400q-15 0 -23 -0.5t-20.5 -2t-19 -5.5t-15 -11t-12.5 -17.5t-7 -26.5t-3 -37zM1100 1900h-600v-100h600v100zM1100 1700h-600v-100h600v100zM600 1400h400 q16 0 23.5 0.5t20 2t19 5t15 11t12.5 18t7 26.5t3 37h-600q0 -21 3 -37t7 -26.5t12.5 -18t15 -11t19 -5t20.5 -2t23 -0.5zM900 1000h200v-100h-200v-100h-100v100zM1500 900v-300h-100v300h-100v-300h-100v300l100 100h100zM1900 600v-100h-200l-100 100v400h100v-400h200z M900 700v100h100v-100h-100zM1000 600v100h100v-100l-100 -100h-200v100h200zM1300 600h100v-200h-100v200z" />
<glyph unicode="&#xe076;" d="M1500 2400v-550q0 -21 14.5 -35.5t35.5 -14.5h550v-700h-1400q-41 0 -70.5 -29.5t-29.5 -70.5v-500q0 -41 29.5 -70.5t70.5 -29.5h1400v-350q0 -21 -14.5 -35.5t-35.5 -14.5h-1800q-21 0 -35.5 14.5t-14.5 35.5v2300q0 21 14.5 35.5t35.5 14.5h1250zM2100 1900h-450 q-21 0 -35.5 14.5t-14.5 35.5v450zM500 2000h600q0 21 -3 37t-7 26.5t-12.5 17.5t-15 11t-19 5.5t-20 2t-23.5 0.5h-400q-15 0 -23 -0.5t-20.5 -2t-19 -5.5t-15 -11t-12.5 -17.5t-7 -26.5t-3 -37zM1100 1900h-600v-100h600v100zM1100 1700h-600v-100h600v100zM600 1400h400 q16 0 23.5 0.5t20 2t19 5t15 11t12.5 18t7 26.5t3 37h-600q0 -21 3 -37t7 -26.5t12.5 -18t15 -11t19 -5t20.5 -2t23 -0.5zM1000 1000l100 -100v-400h-100v100h-100v-100h-100v400l100 100h100zM1400 1000l100 -100v-400h-100v100h-100v-100h-100v400l100 100h100zM1700 900 v-300h200v-100h-200l-100 100v300l100 100h200v-100h-200zM2000 1000h200l100 -100v-300l-100 -100h-200v500zM1000 900h-100v-200h100v200zM1400 900h-100v-200h100v200zM2100 600h100v300h-100v-300z" />
<glyph unicode="&#xe077;" d="M1500 2400v-550q0 -21 14.5 -35.5t35.5 -14.5h550v-700h-1400q-41 0 -70.5 -29.5t-29.5 -70.5v-500q0 -41 29.5 -70.5t70.5 -29.5h1400v-350q0 -21 -14.5 -35.5t-35.5 -14.5h-1800q-21 0 -35.5 14.5t-14.5 35.5v2300q0 21 14.5 35.5t35.5 14.5h1250zM2100 1900h-450 q-21 0 -35.5 14.5t-14.5 35.5v450zM1119 1678l97 25q3 26 3 48q0 20 -3 47l-97 24l-1 4q-9 31 -25 60l-2 3l51 86q-28 37 -67 68l-86 -52l-3 2q-28 16 -60 25l-4 1l-24 97q-25 4 -48 4q-22 0 -47 -4l-25 -97l-3 -1q-33 -9 -60 -25l-4 -2l-86 52q-37 -29 -67 -68l52 -86 l-2 -3q-17 -29 -25 -60l-1 -4l-98 -24q-3 -25 -3 -47t3 -48l98 -25l1 -3q8 -31 25 -60l1 -3l-51 -86q28 -37 67 -68l86 52l3 -2q29 -16 61 -25l3 -1l25 -98q25 -3 47 -3t48 3l24 98l4 1q30 9 60 25l3 2l86 -52q36 28 67 68l-51 86l2 3q16 29 25 60zM850 1899q30 0 58 -11.5 t47.5 -31.5t31.5 -47.5t12 -57.5q0 -62 -43.5 -106t-105 -44t-105.5 44t-44 105.5t44 105t105 43.5zM1000 1000l100 -100v-400h-100v100h-100v-100h-100v400l100 100h100zM1400 1000l100 -100v-200l-100 -100h-100v-100h-100v500h200zM1800 1000l100 -100v-200l-100 -100 h-100v-100h-100v500h200zM1000 900h-100v-200h100v200zM1400 700v200h-100v-200h100zM1800 700v200h-100v-200h100z" />
<glyph unicode="&#xe078;" d="M1500 2400v-550q0 -21 14.5 -35.5t35.5 -14.5h550v-700h-1400q-41 0 -70.5 -29.5t-29.5 -70.5v-500q0 -41 29.5 -70.5t70.5 -29.5h1400v-350q0 -21 -14.5 -35.5t-35.5 -14.5h-1800q-21 0 -35.5 14.5t-14.5 35.5v2300q0 21 14.5 35.5t35.5 14.5h1250zM2100 1900h-450 q-21 0 -35.5 14.5t-14.5 35.5v450zM1119 1678l97 25q3 26 3 48q0 20 -3 47l-97 24l-1 4q-9 30 -25 60l-2 3l51 86q-28 37 -67 68l-86 -52l-3 2q-28 16 -60 25l-4 1l-24 97q-25 4 -48 4q-22 0 -47 -4l-25 -97l-3 -1q-33 -9 -61 -25l-3 -2l-86 52q-37 -29 -67 -68l52 -86 l-2 -3q-17 -29 -25 -60l-1 -4l-98 -24q-3 -26 -3 -47q0 -22 3 -48l98 -25l1 -3q8 -31 25 -60l1 -3l-51 -86q28 -37 67 -68l86 52l3 -2q30 -16 61 -25l3 -1l25 -98q25 -3 47 -3t48 3l24 98l4 1q30 9 60 25l3 2l86 -52q36 28 67 68l-51 86l2 3q16 29 25 60zM850 1899 q62 0 105.5 -43.5t43.5 -104.5q0 -31 -12 -58.5t-32 -47.5t-47.5 -32t-57.5 -12q-61 0 -105 44t-44 105.5t43.5 105t105.5 43.5zM900 1000h200v-100h-200v-100h200v-100h-200v-100h200v-100h-200l-100 100v300zM1200 1000v-200h100v200h-100zM1500 1000h-100v-200h100v200z M1700 1000h200v-100h-200v-100h200v-100h-200v-100h200v-100h-200l-100 100v300zM1300 800v-100h100v100h-100zM1200 500h100v200h-100v-200zM1500 500v200h-100v-200h100z" />
<glyph unicode="&#xe079;" d="M1500 2400v-550q0 -21 14.5 -35.5t35.5 -14.5h550v-700h-1400q-41 0 -70.5 -29.5t-29.5 -70.5v-500q0 -41 29.5 -70.5t70.5 -29.5h1400v-350q0 -21 -14.5 -35.5t-35.5 -14.5h-1800q-21 0 -35.5 14.5t-14.5 35.5v2300q0 21 14.5 35.5t35.5 14.5h1250zM2100 1900h-450 q-21 0 -35.5 14.5t-14.5 35.5v450zM1119 1678l97 25q3 26 3 48q0 20 -3 47l-97 24l-1 4q-9 30 -25 60l-2 3l51 86q-28 37 -67 68l-86 -52l-3 2q-28 16 -60 25l-4 1l-24 97q-25 4 -48 4q-22 0 -47 -4l-25 -97l-3 -1q-33 -9 -61 -25l-3 -2l-86 52q-37 -29 -67 -68l52 -86 l-2 -3q-17 -29 -25 -60l-1 -4l-98 -24q-3 -26 -3 -47q0 -22 3 -48l98 -25l1 -3q8 -31 25 -60l1 -3l-51 -86q28 -37 67 -68l86 52l3 -2q30 -16 61 -25l3 -1l25 -98q25 -3 47 -3t48 3l24 98l4 1q30 9 60 25l3 2l86 -52q36 28 67 68l-51 86l2 3q16 29 25 60zM850 1899 q62 0 105.5 -43.5t43.5 -104.5q0 -31 -12 -58.5t-32 -47.5t-47.5 -32t-57.5 -12q-61 0 -105 44t-44 105.5t43.5 105t105.5 43.5zM900 900v-300h200v-100h-200l-100 100v300l100 100h200v-100h-200zM1300 1000h100l100 -100v-300l-100 -100h-100l-100 100v300zM1800 900h-100 v100h-100v-500h100v300h100v-300h100v500h-100v-100zM1300 900v-300h100v300h-100z" />
<glyph unicode="&#xe080;" d="M1500 2400v-550q0 -21 14.5 -35.5t35.5 -14.5h550v-700h-1400q-41 0 -70.5 -29.5t-29.5 -70.5v-500q0 -41 29.5 -70.5t70.5 -29.5h1400v-350q0 -21 -14.5 -35.5t-35.5 -14.5h-1800q-21 0 -35.5 14.5t-14.5 35.5v2300q0 21 14.5 35.5t35.5 14.5h1250zM2100 1900h-450 q-21 0 -35.5 14.5t-14.5 35.5v450zM1119 1678l97 25q3 26 3 48q0 20 -3 47l-97 24l-1 4q-9 30 -25 60l-2 3l51 86q-28 37 -67 68l-86 -52l-3 2q-28 16 -60 25l-4 1l-24 97q-25 4 -48 4q-22 0 -47 -4l-25 -97l-3 -1q-33 -9 -61 -25l-3 -2l-86 52q-37 -29 -67 -68l52 -86 l-2 -3q-17 -29 -25 -60l-1 -4l-98 -24q-3 -26 -3 -47q0 -22 3 -48l98 -25l1 -3q8 -31 25 -60l1 -3l-51 -86q28 -37 67 -68l86 52l3 -2q30 -16 61 -25l3 -1l25 -98q25 -3 47 -3t48 3l24 98l4 1q30 9 60 25l3 2l86 -52q36 28 67 68l-51 86l2 3q16 29 25 60zM850 1899 q62 0 105.5 -43.5t43.5 -104.5q0 -31 -12 -58.5t-32 -47.5t-47.5 -32t-57.5 -12q-61 0 -105 44t-44 105.5t43.5 105t105.5 43.5zM1100 800l-50 -50l50 -50v-100l-100 -100h-200v500h200l100 -100v-100zM1400 1000l100 -100v-400h-100v100h-100v-100h-100v400l100 100h100z M1600 1000v-100h100v-400h100v400h100v100h-300zM1000 800v100h-100v-100h100zM1400 900h-100v-200h100v200zM1000 600v100h-100v-100h100z" />
<glyph unicode="&#xe081;" d="M1500 2400v-550q0 -21 14.5 -35.5t35.5 -14.5h550v-700h-1400q-41 0 -70.5 -29.5t-29.5 -70.5v-500q0 -41 29.5 -70.5t70.5 -29.5h1400v-350q0 -21 -14.5 -35.5t-35.5 -14.5h-1800q-21 0 -35.5 14.5t-14.5 35.5v2300q0 21 14.5 35.5t35.5 14.5h1250zM2100 1900h-450 q-21 0 -35.5 14.5t-14.5 35.5v450zM1119 1678l97 25q3 26 3 48q0 20 -3 47l-97 24l-1 4q-9 31 -25 60l-2 3l51 86q-28 37 -67 68l-86 -52l-3 2q-28 16 -60 25l-4 1l-24 97q-25 4 -48 4q-22 0 -47 -4l-25 -97l-3 -1q-33 -9 -60 -25l-4 -2l-86 52q-37 -29 -67 -68l52 -86 l-2 -3q-17 -29 -25 -60l-1 -4l-98 -24q-3 -25 -3 -47t3 -48l98 -25l1 -3q8 -31 25 -60l1 -3l-51 -86q28 -37 67 -68l86 52l3 -2q29 -16 61 -25l3 -1l25 -98q25 -3 47 -3t48 3l24 98l4 1q30 9 60 25l3 2l86 -52q36 28 67 68l-51 86l2 3q16 29 25 60zM850 1899q30 0 58 -11.5 t47.5 -31.5t31.5 -47.5t12 -57.5q0 -62 -43.5 -106t-105 -44t-105.5 44t-44 105.5t44 105t105 43.5zM1000 500v100h-100v-100h-100v400l100 100h100l100 -100v-400h-100zM1200 1000h200l100 -100v-200l-100 -100h-100v-100h-100v500zM1900 800h-100v200h100v-200zM1800 500 v200h-100v-200h-100v500h100v-200h100v-100h100v-200h-100zM1000 700v200h-100v-200h100zM1300 700h100v200h-100v-200z" />
<glyph unicode="&#xe082;" d="M1500 2400v-550q0 -21 14.5 -35.5t35.5 -14.5h550v-700h-1400q-41 0 -70.5 -29.5t-29.5 -70.5v-500q0 -41 29.5 -70.5t70.5 -29.5h1400v-350q0 -21 -14.5 -35.5t-35.5 -14.5h-1800q-21 0 -35.5 14.5t-14.5 35.5v2300q0 21 14.5 35.5t35.5 14.5h1250zM2100 1900h-450 q-21 0 -35.5 14.5t-14.5 35.5v450zM1119 1678l97 25q3 26 3 48q0 20 -3 47l-97 24l-1 4q-9 31 -25 60l-2 3l51 86q-28 37 -67 68l-86 -52l-3 2q-28 16 -60 25l-4 1l-24 97q-25 4 -48 4q-22 0 -47 -4l-25 -97l-3 -1q-33 -9 -60 -25l-4 -2l-86 52q-37 -29 -67 -68l52 -86 l-2 -3q-17 -29 -25 -60l-1 -4l-98 -24q-3 -25 -3 -47t3 -48l98 -25l1 -3q8 -31 25 -60l1 -3l-51 -86q28 -37 67 -68l86 52l3 -2q29 -16 61 -25l3 -1l25 -98q25 -3 47 -3t48 3l24 98l4 1q30 9 60 25l3 2l86 -52q36 28 67 68l-51 86l2 3q16 29 25 60zM850 1899q30 0 58 -11.5 t47.5 -31.5t31.5 -47.5t12 -57.5q0 -62 -43.5 -106t-105 -44t-105.5 44t-44 105.5t44 105t105 43.5zM1100 1000v-400l-100 -100h-100l-100 100v200h100v-200h100v400h100zM1400 1000l100 -100v-400h-100v100h-100v-100h-100v400l100 100h100zM1800 700v200h-100v-200 l100 -100h-100v-100h-100v500h200l100 -100v-200h-100zM1400 900h-100v-200h100v200zM1800 500v100h100v-100h-100z" />
<glyph unicode="&#xe083;" d="M1500 2400v-550q0 -21 14.5 -35.5t35.5 -14.5h550v-700h-1400q-41 0 -70.5 -29.5t-29.5 -70.5v-500q0 -41 29.5 -70.5t70.5 -29.5h1400v-350q0 -21 -14.5 -35.5t-35.5 -14.5h-1800q-21 0 -35.5 14.5t-14.5 35.5v2300q0 21 14.5 35.5t35.5 14.5h1250zM2100 1900h-450 q-21 0 -35.5 14.5t-14.5 35.5v450zM1119 1678l97 25q3 26 3 48q0 20 -3 47l-97 24l-1 4q-9 31 -25 60l-2 3l51 86q-28 37 -67 68l-86 -52l-3 2q-28 16 -60 25l-4 1l-24 97q-25 4 -48 4q-22 0 -47 -4l-25 -97l-3 -1q-33 -9 -60 -25l-4 -2l-86 52q-37 -29 -67 -68l52 -86 l-2 -3q-17 -29 -25 -60l-1 -4l-98 -24q-3 -25 -3 -47t3 -48l98 -25l1 -3q8 -31 25 -60l1 -3l-51 -86q28 -37 67 -68l86 52l3 -2q29 -16 61 -25l3 -1l25 -98q25 -3 47 -3t48 3l24 98l4 1q30 9 60 25l3 2l86 -52q36 28 67 68l-51 86l2 3q16 29 25 60zM850 1899q30 0 58 -11.5 t47.5 -31.5t31.5 -47.5t12 -57.5q0 -62 -43.5 -106t-105 -44t-105.5 44t-44 105.5t44 105t105 43.5zM1000 1000h100v-500h-100v100h-100v-100h-100v500h100v-300h100v300zM1300 1000h200v-100h-200v-100h-100v100zM1700 900v-100h200v-100h-200v-200h-100v400l100 100h200 v-100h-200zM1300 700v100h100v-100h-100zM1400 600v100h100v-100l-100 -100h-200v100h200z" />
<glyph unicode="&#xe084;" d="M1500 2400v-550q0 -21 14.5 -35.5t35.5 -14.5h550v-700h-1400q-41 0 -70.5 -29.5t-29.5 -70.5v-500q0 -41 29.5 -70.5t70.5 -29.5h1400v-350q0 -21 -14.5 -35.5t-35.5 -14.5h-1800q-21 0 -35.5 14.5t-14.5 35.5v2300q0 21 14.5 35.5t35.5 14.5h1250zM2100 1900h-450 q-21 0 -35.5 14.5t-14.5 35.5v450zM1119 1678l97 25q3 26 3 48q0 20 -3 47l-97 24l-1 4q-9 31 -25 60l-2 3l51 86q-28 37 -67 68l-86 -52l-3 2q-28 16 -60 25l-4 1l-24 97q-25 4 -48 4q-22 0 -47 -4l-25 -97l-3 -1q-33 -9 -60 -25l-4 -2l-86 52q-37 -29 -67 -68l52 -86 l-2 -3q-17 -29 -25 -60l-1 -4l-98 -24q-3 -25 -3 -47t3 -48l98 -25l1 -3q8 -31 25 -60l1 -3l-51 -86q28 -37 67 -68l86 52l3 -2q29 -16 61 -25l3 -1l25 -98q25 -3 47 -3t48 3l24 98l4 1q30 9 60 25l3 2l86 -52q36 28 67 68l-51 86l2 3q16 29 25 60zM850 1899q30 0 58 -11.5 t47.5 -31.5t31.5 -47.5t12 -57.5q0 -62 -43.5 -106t-105 -44t-105.5 44t-44 105.5t44 105t105 43.5zM1000 1000l100 -100v-200l-100 -100h-100v-100h-100v500h200zM1200 500h100v500h-100v-500zM1500 900v-100h200v-100h-200v-200h-100v400l100 100h200v-100h-200zM1000 700 v200h-100v-200h100z" />
<glyph unicode="&#xe085;" d="M1500 2400v-550q0 -21 14.5 -35.5t35.5 -14.5h550v-700h-1400q-41 0 -70.5 -29.5t-29.5 -70.5v-500q0 -41 29.5 -70.5t70.5 -29.5h1400v-350q0 -21 -14.5 -35.5t-35.5 -14.5h-1800q-21 0 -35.5 14.5t-14.5 35.5v2300q0 21 14.5 35.5t35.5 14.5h1250zM2100 1900h-450 q-21 0 -35.5 14.5t-14.5 35.5v450zM1119 1678l97 25q3 26 3 48q0 20 -3 47l-97 24l-1 4q-9 31 -25 60l-2 3l51 86q-28 37 -67 68l-86 -52l-3 2q-28 16 -60 25l-4 1l-24 97q-25 4 -48 4q-22 0 -47 -4l-25 -97l-3 -1q-33 -9 -60 -25l-4 -2l-86 52q-37 -29 -67 -68l52 -86 l-2 -3q-17 -29 -25 -60l-1 -4l-98 -24q-3 -25 -3 -47t3 -48l98 -25l1 -3q8 -31 25 -60l1 -3l-51 -86q28 -37 67 -68l86 52l3 -2q29 -16 61 -25l3 -1l25 -98q25 -3 47 -3t48 3l24 98l4 1q30 9 60 25l3 2l86 -52q36 28 67 68l-51 86l2 3q16 29 25 60zM850 1899q30 0 58 -11.5 t47.5 -31.5t31.5 -47.5t12 -57.5q0 -62 -43.5 -106t-105 -44t-105.5 44t-44 105.5t44 105t105 43.5zM900 600h100v-100h-200v500h100v-400zM1100 1000v-400h-100v400h100zM1500 800l-50 -50l50 -50v-100l-100 -100h-200v500h200l100 -100v-100zM1400 800v100h-100v-100h100z M1400 600v100h-100v-100h100z" />
<glyph unicode="&#xe086;" d="M1500 2400v-550q0 -21 14.5 -35.5t35.5 -14.5h550v-700h-1400q-41 0 -70.5 -29.5t-29.5 -70.5v-500q0 -41 29.5 -70.5t70.5 -29.5h1400v-350q0 -21 -14.5 -35.5t-35.5 -14.5h-1800q-21 0 -35.5 14.5t-14.5 35.5v2300q0 21 14.5 35.5t35.5 14.5h1250zM2100 1900h-450 q-21 0 -35.5 14.5t-14.5 35.5v450zM1119 1678l97 25q3 26 3 48q0 20 -3 47l-97 24l-1 4q-9 31 -25 60l-2 3l51 86q-28 37 -67 68l-86 -52l-3 2q-28 16 -60 25l-4 1l-24 97q-25 4 -48 4q-22 0 -47 -4l-25 -97l-3 -1q-33 -9 -60 -25l-4 -2l-86 52q-37 -29 -67 -68l52 -86 l-2 -3q-17 -29 -25 -60l-1 -4l-98 -24q-3 -25 -3 -47t3 -48l98 -25l1 -3q8 -31 25 -60l1 -3l-51 -86q28 -37 67 -68l86 52l3 -2q29 -16 61 -25l3 -1l25 -98q25 -3 47 -3t48 3l24 98l4 1q30 9 60 25l3 2l86 -52q36 28 67 68l-51 86l2 3q16 29 25 60zM850 1899q30 0 58 -11.5 t47.5 -31.5t31.5 -47.5t12 -57.5q0 -62 -43.5 -106t-105 -44t-105.5 44t-44 105.5t44 105t105 43.5zM1600 500h100v500h-100v-500zM900 1000h200v-100h-200v-300h200v-100h-200l-100 100v300zM1300 900v-300h100v200h100v-300h-200l-100 100v300l100 100h200v-100h-200z" />
<glyph unicode="&#xe087;" d="M1500 2400v-550q0 -21 14.5 -35.5t35.5 -14.5h550v-700h-1400q-20 0 -38.5 -8t-32 -21.5t-21.5 -32t-8 -38.5v-500q0 -27 13.5 -50t36.5 -36.5t50 -13.5h1400v-350q0 -21 -14.5 -35.5t-35.5 -14.5h-1800q-21 0 -35.5 14.5t-14.5 35.5v2300q0 21 14.5 35.5t35.5 14.5h1250 zM2100 1900h-450q-21 0 -35.5 14.5t-14.5 35.5v450zM820 2088l-340 -197v-79l340 -205v155l-151 88l151 84v154zM1220 1891l-340 197v-154l151 -84l-151 -88v-155l340 205v79zM900 1000h200v-100h-200v-300h200v-100h-200l-100 100v300zM1300 1000h200v-100h-200v-100h-100 v100zM1700 1000h200v-100h-200v-100h-100v100zM1300 700v100h100v-100h-100zM1700 700v100h100v-100h-100zM1400 600v100h100v-100l-100 -100h-200v100h200zM1800 600v100h100v-100l-100 -100h-200v100h200z" />
<glyph unicode="&#xe088;" d="M1500 2400v-550q0 -21 14.5 -35.5t35.5 -14.5h550v-700h-1400q-20 0 -38.5 -8t-32 -21.5t-21.5 -32t-8 -38.5v-500q0 -27 13.5 -50t36.5 -36.5t50 -13.5h1400v-350q0 -21 -14.5 -35.5t-35.5 -14.5h-1800q-21 0 -35.5 14.5t-14.5 35.5v2300q0 21 14.5 35.5t35.5 14.5h1250 zM2100 1900h-450q-21 0 -35.5 14.5t-14.5 35.5v450zM820 2088l-340 -197v-79l340 -205v155l-151 88l151 84v154zM1220 1891l-340 197v-154l151 -84l-151 -88v-155l340 205v79zM1000 1000h100v-400l-99 -100h-100l-101 100v200h100v-200h100v400zM1300 900v-100h-100v100 l100 100h200v-100h-200zM1300 700v100h100v-100h-100zM1400 600v100h100v-100l-100 -100h-200v100h200z" />
<glyph unicode="&#xe089;" d="M1500 2400v-550q0 -21 14.5 -35.5t35.5 -14.5h550v-700h-1400q-20 0 -38.5 -8t-32 -21.5t-21.5 -32t-8 -38.5v-500q0 -27 13.5 -50t36.5 -36.5t50 -13.5h1400v-350q0 -21 -14.5 -35.5t-35.5 -14.5h-1800q-21 0 -35.5 14.5t-14.5 35.5v2300q0 21 14.5 35.5t35.5 14.5h1250 zM2100 1900h-450q-21 0 -35.5 14.5t-14.5 35.5v450zM820 2088l-340 -197v-79l340 -205v155l-151 88l151 84v154zM1220 1891l-340 197v-154l151 -84l-151 -88v-155l340 205v79zM1000 1000l100 -100v-200l-100 -100h-100v-100h-100v500h200zM1400 1000h100v-500h-100v200h-100 v-200h-100v500h100v-200h100v200zM1800 1000l100 -100v-200l-100 -100h-100v-100h-100v500h200zM1000 700v200h-100v-200h100zM1800 700v200h-100v-200h100z" />
<glyph unicode="&#xe090;" d="M600 1000v-500q0 -27 13.5 -50t36.5 -36.5t50 -13.5h1400v-350q0 -21 -14.5 -35.5t-35.5 -14.5h-1800q-21 0 -35.5 14.5t-14.5 35.5v2300q0 21 14.5 35.5t35.5 14.5h1250v-550q0 -21 14.5 -35.5t35.5 -14.5h550v-700h-1400q-20 0 -38.5 -8t-32 -21.5t-21.5 -32t-8 -38.5z M2100 1900h-450q-21 0 -35.5 14.5t-14.5 35.5v450zM480 1812l340 -205v155l-151 88l151 84v154l-340 -197v-79zM880 1607l340 205v79l-340 197v-154l151 -84l-151 -88v-155zM1400 500v200h-100v-200h-100v500h100v-200h100v200h100v-500h-100zM900 800h-100v200h100v-200z M1100 800h-100v200h100v-200zM1700 500v400h-100v100h300v-100h-100v-400h-100zM2300 1000v-500h-100v300h-100v-300h-100v500h100v-100h100v100h100zM1000 800v-100h100v-200h-100v200h-100v100h100zM800 700h100v-200h-100v200z" />
<glyph unicode="&#xe091;" d="M1500 2400v-550q0 -21 14.5 -35.5t35.5 -14.5h550v-700h-1400q-20 0 -38.5 -8t-32 -21.5t-21.5 -32t-8 -38.5v-500q0 -27 13.5 -50t36.5 -36.5t50 -13.5h1400v-350q0 -21 -14.5 -35.5t-35.5 -14.5h-1800q-21 0 -35.5 14.5t-14.5 35.5v2300q0 21 14.5 35.5t35.5 14.5h1250 zM2100 1900h-450q-21 0 -35.5 14.5t-14.5 35.5v450zM820 2088l-340 -197v-79l340 -205v155l-151 88l151 84v154zM1220 1891l-340 197v-154l151 -84l-151 -88v-155l340 205v79zM1000 800h-100v200h-100v-500h100v200h100v-200h100v500h-100v-200zM1200 1000v-100h100v-400 h100v400h100v100h-300zM1800 900h-100v100h-100v-500h100v300h100v-300h100v500h-100v-100z" />
<glyph unicode="&#xe092;" d="M1500 2400v-550q0 -21 14.5 -35.5t35.5 -14.5h550v-700h-1400q-20 0 -38.5 -8t-32 -21.5t-21.5 -32t-8 -38.5v-500q0 -27 13.5 -50t36.5 -36.5t50 -13.5h1400v-350q0 -21 -14.5 -35.5t-35.5 -14.5h-1800q-21 0 -35.5 14.5t-14.5 35.5v2300q0 21 14.5 35.5t35.5 14.5h1250 zM2100 1900h-450q-21 0 -35.5 14.5t-14.5 35.5v450zM820 2088l-340 -197v-79l340 -205v155l-151 88l151 84v154zM1220 1891l-340 197v-154l151 -84l-151 -88v-155l340 205v79zM1000 800h-100v200h-100v-500h100v200h100v-200h100v500h-100v-200zM1200 1000v-100h100v-400 h100v400h100v100h-300zM1800 900h-100v100h-100v-500h100v300h100v-300h100v500h-100v-100zM2300 600v-100h-200l-100 100v400h100v-400h200z" />
<glyph unicode="&#xe093;" d="M1500 2400v-550q0 -21 14.5 -35.5t35.5 -14.5h550v-700h-1400q-20 0 -38.5 -8t-32 -21.5t-21.5 -32t-8 -38.5v-500q0 -27 13.5 -50t36.5 -36.5t50 -13.5h1400v-350q0 -21 -14.5 -35.5t-35.5 -14.5h-1800q-21 0 -35.5 14.5t-14.5 35.5v2300q0 21 14.5 35.5t35.5 14.5h1250 zM2100 1900h-450q-21 0 -35.5 14.5t-14.5 35.5v450zM820 2088l-340 -197v-79l340 -205v155l-151 88l151 84v154zM1220 1891l-340 197v-154l151 -84l-151 -88v-155l340 205v79zM1000 1000l100 -100v-400h-100v100h-100v-100h-100v400l100 100h100zM1300 1000h200v-100h-200 v-100h-100v100zM1800 1000l100 -100v-200l-100 -100h-100v-100h-100v500h200zM1000 900h-100v-200h100v200zM1800 700v200h-100v-200h100zM1300 700v100h100v-100h-100zM1400 600v100h100v-100l-100 -100h-200v100h200z" />
<glyph unicode="&#xe094;" d="M1500 2400v-550q0 -21 14.5 -35.5t35.5 -14.5h550v-700h-1400q-20 0 -38.5 -8t-32 -21.5t-21.5 -32t-8 -38.5v-500q0 -27 13.5 -50t36.5 -36.5t50 -13.5h1400v-350q0 -21 -14.5 -35.5t-35.5 -14.5h-1800q-21 0 -35.5 14.5t-14.5 35.5v2300q0 21 14.5 35.5t35.5 14.5h1250 zM2100 1900h-450q-21 0 -35.5 14.5t-14.5 35.5v450zM820 2088l-340 -197v-79l340 -205v155l-151 88l151 84v154zM1220 1891l-340 197v-154l151 -84l-151 -88v-155l340 205v79zM900 900v-300h200v-100h-200l-100 100v300l100 100h200v-100h-200zM1300 1000h200v-100h-200 v-100h200v-100h-200v-100h200v-100h-200l-100 100v300zM1800 700v200h-100v-200l100 -100h-100v-100h-100v500h200l100 -100v-200h-100zM1800 500v100h100v-100h-100z" />
<glyph unicode="&#xe095;" d="M1500 2400v-550q0 -21 14.5 -35.5t35.5 -14.5h550v-700h-1400q-20 0 -38.5 -8t-32 -21.5t-21.5 -32t-8 -38.5v-500q0 -27 13.5 -50t36.5 -36.5t50 -13.5h1400v-350q0 -21 -14.5 -35.5t-35.5 -14.5h-1800q-21 0 -35.5 14.5t-14.5 35.5v2300q0 21 14.5 35.5t35.5 14.5h1250 zM2100 1900h-450q-21 0 -35.5 14.5t-14.5 35.5v450zM820 2088l-340 -197v-79l340 -205v155l-151 88l151 84v154zM1220 1891l-340 197v-154l151 -84l-151 -88v-155l340 205v79zM1100 1000v-400l-100 -100h-100l-100 100v200h100v-200h100v400h100zM1300 1000h200v-100h-200 v-100h-100v100zM1800 1000l100 -100v-200l-100 -100h-100v-100h-100v500h200zM1800 700v200h-100v-200h100zM1300 700v100h100v-100h-100zM1400 600v100h100v-100l-100 -100h-200v100h200z" />
<glyph unicode="&#xe096;" d="M1500 2400v-550q0 -21 14.5 -35.5t35.5 -14.5h550v-700h-1400q-20 0 -38.5 -8t-32 -21.5t-21.5 -32t-8 -38.5v-500q0 -27 13.5 -50t36.5 -36.5t50 -13.5h1400v-350q0 -21 -14.5 -35.5t-35.5 -14.5h-1800q-21 0 -35.5 14.5t-14.5 35.5v2300q0 21 14.5 35.5t35.5 14.5h1250 zM2100 1900h-450q-21 0 -35.5 14.5t-14.5 35.5v450zM820 2088l-340 -197v-79l340 -205v155l-151 88l151 84v154zM1220 1891l-340 197v-154l151 -84l-151 -88v-155l340 205v79zM900 900v-300h200v-100h-200l-100 100v300l100 100h200v-100h-200zM1300 900v-100h200v-100h-200 v-200h-100v400l101 100h199v-100h-200zM1800 900h-100v100h-100v-500h100v300h100v-300h100v500h-100v-100z" />
<glyph unicode="&#xe097;" d="M1500 2400v-550q0 -21 14.5 -35.5t35.5 -14.5h550v-700h-1400q-20 0 -38.5 -8t-32 -21.5t-21.5 -32t-8 -38.5v-500q0 -27 13.5 -50t36.5 -36.5t50 -13.5h1400v-350q0 -21 -14.5 -35.5t-35.5 -14.5h-1800q-21 0 -35.5 14.5t-14.5 35.5v2300q0 21 14.5 35.5t35.5 14.5h1250 zM2100 1900h-450q-21 0 -35.5 14.5t-14.5 35.5v450zM820 2088l-340 -197v-79l340 -205v155l-151 88l151 84v154zM1220 1891l-340 197v-154l151 -84l-151 -88v-155l340 205v79zM1000 1000l100 -100v-400h-100v100h-100v-100h-100v400l100 100h100zM1300 1000h200v-100h-200 v-100h-100v100zM1800 1000l100 -100v-200l-100 -100h-100v-100h-100v500h200zM2000 1000v-200h100v200h-100zM2300 1000h-100v-200h100v200zM1000 900h-100v-200h100v200zM1800 700v200h-100v-200h100zM1300 700v100h100v-100h-100zM2100 800v-100h100v100h-100zM1400 600 v100h100v-100l-100 -100h-200v100h200zM2000 500h100v200h-100v-200zM2300 500v200h-100v-200h100z" />
<glyph unicode="&#xe098;" d="M1500 2400v-550q0 -21 14.5 -35.5t35.5 -14.5h550v-700h-1400q-20 0 -38.5 -8t-32 -21.5t-21.5 -32t-8 -38.5v-500q0 -27 13.5 -50t36.5 -36.5t50 -13.5h1400v-350q0 -21 -14.5 -35.5t-35.5 -14.5h-1800q-21 0 -35.5 14.5t-14.5 35.5v2300q0 21 14.5 35.5t35.5 14.5h1250 zM2100 1900h-450q-21 0 -35.5 14.5t-14.5 35.5v450zM820 2088l-340 -197v-79l340 -205v155l-151 88l151 84v154zM1220 1891l-340 197v-154l151 -84l-151 -88v-155l340 205v79zM1000 700v200h-100v-200l100 -100h-100v-100h-100v500h200l100 -100v-200h-100zM1300 1000h200 v-100h-200v-100h-100v100zM1700 1000h200v-100h-200v-100h-100v100zM1300 700v100h100v-100h-100zM1700 700v100h100v-100h-100zM1400 600v100h100v-100l-100 -100h-200v100h200zM1800 600v100h100v-100l-100 -100h-200v100h200zM1000 500v100h100v-100h-100z" />
<glyph unicode="&#xe099;" d="M1500 2400v-550q0 -21 14.5 -35.5t35.5 -14.5h550v-700h-1400q-20 0 -38.5 -8t-32 -21.5t-21.5 -32t-8 -38.5v-500q0 -27 13.5 -50t36.5 -36.5t50 -13.5h1400v-350q0 -21 -14.5 -35.5t-35.5 -14.5h-1800q-21 0 -35.5 14.5t-14.5 35.5v2300q0 21 14.5 35.5t35.5 14.5h1250 zM2100 1900h-450q-21 0 -35.5 14.5t-14.5 35.5v450zM820 2088l-340 -197v-79l340 -205v155l-151 88l151 84v154zM1220 1891l-340 197v-154l151 -84l-151 -88v-155l340 205v79zM900 1000h200v-100h-200v-300h200v-100h-200l-100 100v300zM1300 1000h200v-100h-200v-100h-100 v100zM1800 700v200h-100v-200l100 -100h-100v-100h-100v500h200l100 -100v-200h-100zM1300 700v100h100v-100h-100zM1400 600v100h100v-100l-100 -100h-200v100h200zM1800 500v100h100v-100h-100z" />
<glyph unicode="&#xe101;" d="M1500 2400v-550q0 -21 14.5 -35.5t35.5 -14.5h550v-700h-1400q-20 0 -38.5 -8t-32 -21.5t-21.5 -32t-8 -38.5v-500q0 -27 13.5 -50t36.5 -36.5t50 -13.5h1400v-350q0 -21 -14.5 -35.5t-35.5 -14.5h-1800q-21 0 -35.5 14.5t-14.5 35.5v2300q0 21 14.5 35.5t35.5 14.5h1250 zM2100 1900h-450q-21 0 -35.5 14.5t-14.5 35.5v450zM1000 2100h-75h-350h-75v-150h25q0 15 4 24.5t9 14.5t17 7.5t20 3t25 0.5h100v-425l-50 -25v-50h200v50l-50 25v425h100q17 0 25 -0.5t20 -3t17 -7.5t9 -14.5t4 -24.5h25v150zM900 1000h100l100 -100v-300l-100 -100h-100 l-100 100v300zM1200 1000v-100h100v-400h100v400h100v100h-300zM1700 900v-100h200v-100h-200v-200h-100v400l101 100h199v-100h-200zM900 900v-300h100v300h-100z" />
<glyph unicode="&#xe102;" d="M1500 2400v-550q0 -21 14.5 -35.5t35.5 -14.5h550v-700h-1400q-20 0 -38.5 -8t-32 -21.5t-21.5 -32t-8 -38.5v-500q0 -27 13.5 -50t36.5 -36.5t50 -13.5h1400v-350q0 -21 -14.5 -35.5t-35.5 -14.5h-1800q-21 0 -35.5 14.5t-14.5 35.5v2300q0 21 14.5 35.5t35.5 14.5h1250 zM2100 1900h-450q-21 0 -35.5 14.5t-14.5 35.5v450zM1000 2100h-75h-350h-75v-150h25q0 15 4 24.5t9 14.5t17 7.5t20 3t25 0.5h100v-425l-50 -25v-50h200v50l-50 25v425h100q17 0 25 -0.5t20 -3t17 -7.5t9 -14.5t4 -24.5h25v150zM800 1000v-100h100v-400h100v400h100v100 h-300zM1200 1000v-100h100v-400h100v400h100v100h-300zM1700 900v-100h200v-100h-200v-200h-100v400l101 100h199v-100h-200z" />
<glyph unicode="&#xe103;" d="M1500 2400v-550q0 -21 14.5 -35.5t35.5 -14.5h550v-700h-1400q-20 0 -38.5 -8t-32 -21.5t-21.5 -32t-8 -38.5v-500q0 -27 13.5 -50t36.5 -36.5t50 -13.5h1400v-350q0 -21 -14.5 -35.5t-35.5 -14.5h-1800q-21 0 -35.5 14.5t-14.5 35.5v2300q0 21 14.5 35.5t35.5 14.5h1250 zM2100 1900h-450q-21 0 -35.5 14.5t-14.5 35.5v450zM1000 2100h-75h-350h-75v-150h25q0 15 4 24.5t9 14.5t17 7.5t20 3t25 0.5h100v-425l-50 -25v-50h200v50l-50 25v425h100q17 0 25 -0.5t20 -3t17 -7.5t9 -14.5t4 -24.5h25v150zM900 900v-100h200v-100h-200v-200h-100v400 l101 100h199v-100h-200zM1600 1000v-500h100v400h100v100h-200zM1500 900v-300l-100 -100h-100l-100 100v300l100 100h100zM1800 500h100v400h-100v-400zM1400 600v300h-100v-300h100z" />
<glyph unicode="&#xe104;" d="M1500 2400v-550q0 -21 14.5 -35.5t35.5 -14.5h550v-700h-1400q-20 0 -38.5 -8t-32 -21.5t-21.5 -32t-8 -38.5v-500q0 -27 13.5 -50t36.5 -36.5t50 -13.5h1400v-350q0 -21 -14.5 -35.5t-35.5 -14.5h-1800q-21 0 -35.5 14.5t-14.5 35.5v2300q0 21 14.5 35.5t35.5 14.5h1250 zM2100 1900h-450q-21 0 -35.5 14.5t-14.5 35.5v450zM1000 2100h-75h-350h-75v-150h25q0 15 4 24.5t9 14.5t17 7.5t20 3t25 0.5h100v-425l-50 -25v-50h200v50l-50 25v425h100q17 0 25 -0.5t20 -3t17 -7.5t9 -14.5t4 -24.5h25v150zM1600 1000v-100h100v-400h100v400h100v100 h-300zM900 900v-100h200v-100h-200v-200h-100v400l101 100h199v-100h-200zM1200 1000v-500h100v400h100v100h-200zM1400 500h100v400h-100v-400z" />
<glyph unicode="&#xe105;" d="M1500 2400v-550q0 -21 14.5 -35.5t35.5 -14.5h550v-700h-1400q-20 0 -38.5 -8t-32 -21.5t-21.5 -32t-8 -38.5v-500q0 -27 13.5 -50t36.5 -36.5t50 -13.5h1400v-350q0 -21 -14.5 -35.5t-35.5 -14.5h-1800q-21 0 -35.5 14.5t-14.5 35.5v2300q0 21 14.5 35.5t35.5 14.5h1250 zM2100 1900h-450q-21 0 -35.5 14.5t-14.5 35.5v450zM1000 2100h-75h-350h-75v-150h25q0 15 4 24.5t9 14.5t17 7.5t20 3t25 0.5h100v-425l-50 -25v-50h200v50l-50 25v425h100q17 0 25 -0.5t20 -3t17 -7.5t9 -14.5t4 -24.5h25v150zM1600 1000v-100h100v-400h100v400h100v100 h-300zM900 1000h200v-100h-200v-100h200v-100h-200v-100h200v-100h-200l-100 100v300zM1500 900v-300l-100 -100h-100l-100 100v300l100 100h100zM1400 600v300h-100v-300h100z" />
<glyph unicode="&#xe106;" d="M1500 2400v-550q0 -21 14.5 -35.5t35.5 -14.5h550v-700h-1400q-20 0 -38.5 -8t-32 -21.5t-21.5 -32t-8 -38.5v-500q0 -27 13.5 -50t36.5 -36.5t50 -13.5h1400v-350q0 -21 -14.5 -35.5t-35.5 -14.5h-1800q-21 0 -35.5 14.5t-14.5 35.5v2300q0 21 14.5 35.5t35.5 14.5h1250 zM2100 1900h-450q-21 0 -35.5 14.5t-14.5 35.5v450zM1000 2100h-75h-350h-75v-150h25q0 15 4 24.5t9 14.5t17 7.5t20 3t25 0.5h100v-425l-50 -25v-50h200v50l-50 25v425h100q17 0 25 -0.5t20 -3t17 -7.5t9 -14.5t4 -24.5h25v150zM1000 700h-100v300h-100v-500h100v100h100 v-100h100v500h-100v-300zM1500 900v-300l-100 -100h-100l-100 100v300l100 100h100zM1700 900v-100h200v-100h-200v-200h-100v400l101 100h199v-100h-200zM2100 900v-100h200v-100h-200v-200h-100v400l101 100h199v-100h-200zM1400 600v300h-100v-300h100z" />
<glyph unicode="&#xe107;" d="M1500 2400v-550q0 -21 14.5 -35.5t35.5 -14.5h550v-700h-1400q-20 0 -38.5 -8t-32 -21.5t-21.5 -32t-8 -38.5v-500q0 -27 13.5 -50t36.5 -36.5t50 -13.5h1400v-350q0 -21 -14.5 -35.5t-35.5 -14.5h-1800q-21 0 -35.5 14.5t-14.5 35.5v2300q0 21 14.5 35.5t35.5 14.5h1250 zM2100 1900h-450q-21 0 -35.5 14.5t-14.5 35.5v450zM1350 2350h-200v-50h-150v-100h200v100h150v50zM1350 2150h-200v-50h-150v-100h200v100h150v50zM1350 1950h-200v-50h-150v-100h200v100h150v50zM1350 1750h-200v-50h-150v-100h200v100h150v50zM1350 1550h-200v-50h-150 v-100h200v100h150v50zM1350 1350h-200v-50h-150v-100h200v100h150v50zM1000 900v-100h100v100l-100 100h-200v-100h200zM1200 500h100v500h-100v-500zM1600 1000l100 -100v-200l-100 -100h-100v-100h-100v500h200zM1600 700v200h-100v-200h100zM900 800v-100h100v100h-100z M900 500h200v100h-200v100h-100v-100z" />
<glyph unicode="&#xe108;" d="M1500 2400v-550q0 -21 14.5 -35.5t35.5 -14.5h550v-700h-1400q-20 0 -38.5 -8t-32 -21.5t-21.5 -32t-8 -38.5v-500q0 -27 13.5 -50t36.5 -36.5t50 -13.5h1400v-350q0 -21 -14.5 -35.5t-35.5 -14.5h-1800q-21 0 -35.5 14.5t-14.5 35.5v2300q0 21 14.5 35.5t35.5 14.5h1250 zM2100 1900h-450q-21 0 -35.5 14.5t-14.5 35.5v450zM1350 2350h-200v-50h-150v-100h200v100h150v50zM1350 2150h-200v-50h-150v-100h200v100h150v50zM1350 1950h-200v-50h-150v-100h200v100h150v50zM1350 1750h-200v-50h-150v-100h200v100h150v50zM1350 1550h-200v-50h-150 v-100h200v100h150v50zM1350 1350h-200v-50h-150v-100h200v100h150v50zM1000 900v-100h100v100l-100 100h-200v-100h200zM1200 500h100v500h-100v-500zM1600 1000l100 -100v-200l-100 -100h-100v-100h-100v500h200zM1800 1000v-200h100v200h-100zM2100 1000h-100v-200h100 v200zM1600 700v200h-100v-200h100zM900 800v-100h100v100h-100zM1900 800v-100h100v100h-100zM900 500h200v100h-200v100h-100v-100zM1800 500h100v200h-100v-200zM2100 500v200h-100v-200h100z" />
<glyph unicode="&#xe109;" d="M1500 2400v-550q0 -21 14.5 -35.5t35.5 -14.5h550v-700h-1400q-20 0 -38.5 -8t-32 -21.5t-21.5 -32t-8 -38.5v-500q0 -27 13.5 -50t36.5 -36.5t50 -13.5h1400v-350q0 -21 -14.5 -35.5t-35.5 -14.5h-1800q-21 0 -35.5 14.5t-14.5 35.5v2300q0 21 14.5 35.5t35.5 14.5h1250 zM2100 1900h-450q-21 0 -35.5 14.5t-14.5 35.5v450zM1350 2350h-200v-50h-150v-100h200v100h150v50zM1350 2150h-200v-50h-150v-100h200v100h150v50zM1350 1950h-200v-50h-150v-100h200v100h150v50zM1350 1750h-200v-50h-150v-100h200v100h150v50zM1350 1550h-200v-50h-150 v-100h200v100h150v50zM1350 1350h-200v-50h-150v-100h200v100h150v50zM1000 700v200h-100v-200l100 -100h-100v-100h-100v500h200l100 -100v-200h-100zM1400 1000l100 -100v-400h-100v100h-100v-100h-100v400l100 100h100zM1800 700v200h-100v-200l100 -100h-100v-100h-100 v500h200l100 -100v-200h-100zM1400 900h-100v-200h100v200zM1000 500v100h100v-100h-100zM1800 500v100h100v-100h-100z" />
<glyph unicode="&#xe110;" d="M1500 2400v-550q0 -21 14.5 -35.5t35.5 -14.5h550v-700h-1400q-20 0 -38.5 -8t-32 -21.5t-21.5 -32t-8 -38.5v-500q0 -27 13.5 -50t36.5 -36.5t50 -13.5h1400v-350q0 -21 -14.5 -35.5t-35.5 -14.5h-1800q-21 0 -35.5 14.5t-14.5 35.5v2300q0 21 14.5 35.5t35.5 14.5h1250 zM2100 1900h-450q-21 0 -35.5 14.5t-14.5 35.5v450zM1350 2350h-200v-50h-150v-100h200v100h150v50zM1350 2150h-200v-50h-150v-100h200v100h150v50zM1350 1950h-200v-50h-150v-100h200v100h150v50zM1350 1750h-200v-50h-150v-100h200v100h150v50zM1350 1550h-200v-50h-150 v-100h200v100h150v50zM1350 1350h-200v-50h-150v-100h200v100h150v50zM800 1000v-100h100v-400h100v400h100v100h-300zM1400 1000l100 -100v-400h-100v100h-100v-100h-100v400l100 100h100zM1800 700v200h-100v-200l100 -100h-100v-100h-100v500h200l100 -100v-200h-100z M2000 1000h300v-100h-200v-300h100v200h100v-300h-300v500zM1400 900h-100v-200h100v200zM1800 500v100h100v-100h-100z" />
<glyph unicode="&#xe111;" d="M1500 2400v-550q0 -21 14.5 -35.5t35.5 -14.5h550v-700h-1400q-20 0 -38.5 -8t-32 -21.5t-21.5 -32t-8 -38.5v-500q0 -27 13.5 -50t36.5 -36.5t50 -13.5h1400v-350q0 -21 -14.5 -35.5t-35.5 -14.5h-1800q-21 0 -35.5 14.5t-14.5 35.5v2300q0 21 14.5 35.5t35.5 14.5h1250 zM2100 1900h-450q-21 0 -35.5 14.5t-14.5 35.5v450zM1350 2350h-200v-50h-150v-100h200v100h150v50zM1350 2150h-200v-50h-150v-100h200v100h150v50zM1350 1950h-200v-50h-150v-100h200v100h150v50zM1350 1750h-200v-50h-150v-100h200v100h150v50zM1350 1550h-200v-50h-150 v-100h200v100h150v50zM1350 1350h-200v-50h-150v-100h200v100h150v50zM900 1000h200v-100h-200v-100h-100v100zM1200 500h100v500h-100v-500zM1400 1000v-100h100v-400h100v400h100v100h-300zM1800 1000v-200h100v200h-100zM2100 1000h-100v-200h100v200zM900 700v100h100 v-100h-100zM1900 800v-100h100v100h-100zM1000 600v100h100v-100l-100 -100h-200v100h200zM1800 500h100v200h-100v-200zM2100 500v200h-100v-200h100z" />
<glyph unicode="&#xe112;" d="M1500 2400v-550q0 -21 14.5 -35.5t35.5 -14.5h550v-700h-1400q-20 0 -38.5 -8t-32 -21.5t-21.5 -32t-8 -38.5v-500q0 -27 13.5 -50t36.5 -36.5t50 -13.5h1400v-350q0 -21 -14.5 -35.5t-35.5 -14.5h-1800q-21 0 -35.5 14.5t-14.5 35.5v2300q0 21 14.5 35.5t35.5 14.5h1250 zM2100 1900h-450q-21 0 -35.5 14.5t-14.5 35.5v450zM1350 2350h-200v-50h-150v-100h200v100h150v50zM1350 2150h-200v-50h-150v-100h200v100h150v50zM1350 1950h-200v-50h-150v-100h200v100h150v50zM1350 1750h-200v-50h-150v-100h200v100h150v50zM1350 1550h-200v-50h-150 v-100h200v100h150v50zM1350 1350h-200v-50h-150v-100h200v100h150v50zM1100 900v-300l-100 -100h-200v500h200zM1300 1000h200v-100h-200v-100h200v-100h-200v-100h200v-100h-200l-100 100v300zM1900 800l-50 -50l50 -50v-100l-100 -100h-200v500h200l100 -100v-100z M1000 900h-100v-300h100v300zM1800 800v100h-100v-100h100zM1800 600v100h-100v-100h100z" />
<glyph unicode="&#xe113;" d="M1500 2400v-550q0 -21 14.5 -35.5t35.5 -14.5h550v-700h-1400q-20 0 -38.5 -8t-32 -21.5t-21.5 -32t-8 -38.5v-500q0 -27 13.5 -50t36.5 -36.5t50 -13.5h1400v-350q0 -21 -14.5 -35.5t-35.5 -14.5h-1800q-21 0 -35.5 14.5t-14.5 35.5v2300q0 21 14.5 35.5t35.5 14.5h1250 zM2100 1900h-450q-21 0 -35.5 14.5t-14.5 35.5v450zM1350 2350h-200v-50h-150v-100h200v100h150v50zM1350 2150h-200v-50h-150v-100h200v100h150v50zM1350 1950h-200v-50h-150v-100h200v100h150v50zM1350 1750h-200v-50h-150v-100h200v100h150v50zM1350 1550h-200v-50h-150 v-100h200v100h150v50zM1350 1350h-200v-50h-150v-100h200v100h150v50zM1000 700v200h-200v100h300v-300h-99v-100h-100v100h99zM1500 800h-100v100h-200v100h200l100 -100v-100zM1400 700h-100v100h100v-100zM1300 700v-100h200v-100h-200l-100 100v100h100zM801 600h100 v-100h-100v100z" />
<glyph unicode="&#xe114;" d="M1500 2400v-550q0 -21 14.5 -35.5t35.5 -14.5h550v-700h-1400q-20 0 -38.5 -8t-32 -21.5t-21.5 -32t-8 -38.5v-500q0 -27 13.5 -50t36.5 -36.5t50 -13.5h1400v-350q0 -21 -14.5 -35.5t-35.5 -14.5h-1800q-21 0 -35.5 14.5t-14.5 35.5v2300q0 21 14.5 35.5t35.5 14.5h1250 zM2100 1900h-450q-21 0 -35.5 14.5t-14.5 35.5v450zM1350 2350h-200v-50h-150v-100h200v100h150v50zM1350 2150h-200v-50h-150v-100h200v100h150v50zM1350 1950h-200v-50h-150v-100h200v100h150v50zM1350 1750h-200v-50h-150v-100h200v100h150v50zM1350 1550h-200v-50h-150 v-100h200v100h150v50zM1350 1350h-200v-50h-150v-100h200v100h150v50zM1000 1000l100 -100v-200l-100 -100h-100v-100h-100v500h200zM1300 800h100v-100h-100v-200h-100v500h100v-200zM1500 1000h-100v-200h100v200zM1600 1000h300v-100h-200v-300h100v200h100v-300h-300 v500zM1000 700v200h-100v-200h100zM1500 700h-100v-200h100v200z" />
<glyph unicode="&#xe115;" d="M1500 2400v-550q0 -21 14.5 -35.5t35.5 -14.5h550v-700h-1400q-20 0 -38.5 -8t-32 -21.5t-21.5 -32t-8 -38.5v-500q0 -27 13.5 -50t36.5 -36.5t50 -13.5h1400v-350q0 -21 -14.5 -35.5t-35.5 -14.5h-1800q-21 0 -35.5 14.5t-14.5 35.5v2300q0 21 14.5 35.5t35.5 14.5h1250 zM2100 1900h-450q-21 0 -35.5 14.5t-14.5 35.5v450zM1350 2350h-200v-50h-150v-100h200v100h150v50zM1350 2150h-200v-50h-150v-100h200v100h150v50zM1350 1950h-200v-50h-150v-100h200v100h150v50zM1350 1750h-200v-50h-150v-100h200v100h150v50zM1350 1550h-200v-50h-150 v-100h200v100h150v50zM1350 1350h-200v-50h-150v-100h200v100h150v50zM1000 700v200h-100v-200l100 -100h-100v-100h-100v500h200l100 -100v-200h-100zM1400 1000l100 -100v-200l-100 -100h-100v-100h-100v500h200zM1800 900h-100v100h-100v-500h100v300h100v-300h100v500 h-100v-100zM1400 700v200h-100v-200h100zM1000 500v100h100v-100h-100z" />
<glyph unicode="&#xe116;" d="M1500 2400v-550q0 -21 14.5 -35.5t35.5 -14.5h550v-700h-1400q-20 0 -38.5 -8t-32 -21.5t-21.5 -32t-8 -38.5v-500q0 -27 13.5 -50t36.5 -36.5t50 -13.5h1400v-350q0 -21 -14.5 -35.5t-35.5 -14.5h-1800q-21 0 -35.5 14.5t-14.5 35.5v2300q0 21 14.5 35.5t35.5 14.5h1250 zM2100 1900h-450q-21 0 -35.5 14.5t-14.5 35.5v450zM1350 2350h-200v-50h-150v-100h200v100h150v50zM1350 2150h-200v-50h-150v-100h200v100h150v50zM1350 1950h-200v-50h-150v-100h200v100h150v50zM1350 1750h-200v-50h-150v-100h200v100h150v50zM1350 1550h-200v-50h-150 v-100h200v100h150v50zM1350 1350h-200v-50h-150v-100h200v100h150v50zM900 900v-300h200v-100h-200l-100 100v300l100 100h200v-100h-200zM1500 800l-50 -50l50 -50v-100l-100 -100h-200v500h200l100 -100v-100zM1800 700v200h-100v-200l100 -100h-100v-100h-100v500h200 l100 -100v-200h-100zM1400 800v100h-100v-100h100zM1400 600v100h-100v-100h100zM1800 500v100h100v-100h-100z" />
<glyph unicode="&#xe117;" d="M1500 2400v-550q0 -21 14.5 -35.5t35.5 -14.5h550v-700h-1400q-20 0 -38.5 -8t-32 -21.5t-21.5 -32t-8 -38.5v-500q0 -27 13.5 -50t36.5 -36.5t50 -13.5h1400v-350q0 -21 -14.5 -35.5t-35.5 -14.5h-1800q-21 0 -35.5 14.5t-14.5 35.5v2300q0 21 14.5 35.5t35.5 14.5h1250 zM2100 1900h-450q-21 0 -35.5 14.5t-14.5 35.5v450zM1350 2350h-200v-50h-150v-100h200v100h150v50zM1350 2150h-200v-50h-150v-100h200v100h150v50zM1350 1950h-200v-50h-150v-100h200v100h150v50zM1350 1750h-200v-50h-150v-100h200v100h150v50zM1350 1550h-200v-50h-150 v-100h200v100h150v50zM1350 1350h-200v-50h-150v-100h200v100h150v50zM1400 900v-100h100v100l-100 100h-200v-100h200zM800 1000h300v-100h-200v-300h100v200h100v-300h-300v500zM1300 800v-100h100v100h-100zM1300 500h200v100h-200v100h-100v-100z" />
<glyph unicode="&#xe118;" d="M1500 2400v-550q0 -21 14.5 -35.5t35.5 -14.5h550v-700h-1400q-41 0 -70.5 -29.5t-29.5 -70.5v-500q0 -41 29.5 -70.5t70.5 -29.5h1400v-350q0 -21 -14.5 -35.5t-35.5 -14.5h-1800q-21 0 -35.5 14.5t-14.5 35.5v2300q0 21 14.5 35.5t35.5 14.5h1250zM2100 1900h-450 q-21 0 -35.5 14.5t-14.5 35.5v450zM1200 2000h-700v-300h700v300zM1100 1800h-200v100h200v-100zM800 1000h200l100 -100v-300l-100 -100h-200v500zM1400 500v300h-100v-300h-100v500h100v-100h100v100h100v-500h-100zM1700 900v-300h100v200h100v-300h-200l-100 100v300 l100 100h200v-100h-200zM900 600h100v300h-100v-300z" />
<glyph unicode="&#xe119;" d="M1500 2400v-550q0 -21 14.5 -35.5t35.5 -14.5h550v-700h-1400q-41 0 -70.5 -29.5t-29.5 -70.5v-500q0 -41 29.5 -70.5t70.5 -29.5h1400v-350q0 -21 -14.5 -35.5t-35.5 -14.5h-1800q-21 0 -35.5 14.5t-14.5 35.5v2300q0 21 14.5 35.5t35.5 14.5h1250zM2100 1900h-450 q-21 0 -35.5 14.5t-14.5 35.5v450zM1200 2000h-700v-300h700v300zM1100 1800h-200v100h200v-100zM900 900v-300h200v-100h-200l-100 100v300l100 100h200v-100h-200zM1500 1000v-400l-100 -100h-100l-100 100v400h100v-400h100v400h100zM1700 900v-100h200v-100h-200v-100 h200v-100h-200l-100 100v300l100 100h200v-100h-200z" />
<glyph unicode="&#xe120;" d="M1500 2400v-550q0 -21 14.5 -35.5t35.5 -14.5h550v-700h-1400q-41 0 -70.5 -29.5t-29.5 -70.5v-500q0 -41 29.5 -70.5t70.5 -29.5h1400v-350q0 -21 -14.5 -35.5t-35.5 -14.5h-1800q-21 0 -35.5 14.5t-14.5 35.5v2300q0 21 14.5 35.5t35.5 14.5h1250zM2100 1900h-450 q-21 0 -35.5 14.5t-14.5 35.5v450zM1200 2000h-700v-300h700v300zM1100 1800h-200v100h200v-100zM1100 800l-50 -50l50 -50v-100l-100 -100h-200v500h200l100 -100v-100zM1200 500v500h100v-500h-100zM1600 1000v-100h-100v-400h-100v500h200zM1000 800v100h-100v-100h100z M1600 500v400h100v-400h-100zM1000 600v100h-100v-100h100z" />
<glyph unicode="&#xe121;" d="M1500 2400v-550q0 -21 14.5 -35.5t35.5 -14.5h550v-700h-1400q-41 0 -70.5 -29.5t-29.5 -70.5v-500q0 -41 29.5 -70.5t70.5 -29.5h1400v-350q0 -21 -14.5 -35.5t-35.5 -14.5h-1800q-21 0 -35.5 14.5t-14.5 35.5v2300q0 21 14.5 35.5t35.5 14.5h1250zM2100 1900h-450 q-21 0 -35.5 14.5t-14.5 35.5v450zM1200 2000h-700v-300h700v300zM1100 1800h-200v100h200v-100zM800 500v500h100v-500h-100zM1100 900v-100h-100v100l100 100h200v-100h-200zM1500 1000h100l100 -100v-300l-100 -100h-100l-100 100v300zM1600 900h-100v-300h100v300z M1100 700v100h100v-100h-100zM1200 600v100h100v-100l-100 -100h-200v100h200z" />
<glyph unicode="&#xe122;" d="M1500 2400v-550q0 -21 14.5 -35.5t35.5 -14.5h550v-700h-1400q-41 0 -70.5 -29.5t-29.5 -70.5v-500q0 -41 29.5 -70.5t70.5 -29.5h1400v-350q0 -21 -14.5 -35.5t-35.5 -14.5h-1800q-21 0 -35.5 14.5t-14.5 35.5v2300q0 21 14.5 35.5t35.5 14.5h1250zM2100 1900h-450 q-21 0 -35.5 14.5t-14.5 35.5v450zM1200 2000h-700v-300h700v300zM1100 1800h-200v100h200v-100zM1000 500v200h-100v-200h-100v500h100v-200h100v200h100v-500h-100zM1200 1000h200l100 -100v-300l-100 -100h-200v500zM1700 900v-100h200v-100h-200v-200h-100v400l101 100 h199v-100h-200zM1300 600h100v300h-100v-300z" />
<glyph unicode="&#xe123;" d="M1500 2400v-550q0 -21 14.5 -35.5t35.5 -14.5h550v-700h-1400q-41 0 -70.5 -29.5t-29.5 -70.5v-500q0 -41 29.5 -70.5t70.5 -29.5h1400v-350q0 -21 -14.5 -35.5t-35.5 -14.5h-1800q-21 0 -35.5 14.5t-14.5 35.5v2300q0 21 14.5 35.5t35.5 14.5h1250zM2100 1900h-450 q-21 0 -35.5 14.5t-14.5 35.5v450zM1200 2000h-700v-300h700v300zM1100 1800h-200v100h200v-100zM900 1000v-400h100v-100h-200v500h100zM1100 600h-100v400h100v-400zM1300 900v-300h200v-100h-200l-100 100v300l100 100h200v-100h-200zM1600 1000h200l100 -100v-300 l-100 -100h-200v500zM1700 600h100v300h-100v-300z" />
<glyph unicode="&#xe124;" d="M1500 2400v-550q0 -21 14.5 -35.5t35.5 -14.5h550v-700h-1400q-41 0 -70.5 -29.5t-29.5 -70.5v-500q0 -41 29.5 -70.5t70.5 -29.5h1400v-350q0 -21 -14.5 -35.5t-35.5 -14.5h-1800q-21 0 -35.5 14.5t-14.5 35.5v2300q0 21 14.5 35.5t35.5 14.5h1250zM2100 1900h-450 q-21 0 -35.5 14.5t-14.5 35.5v450zM1100 800l-50 -50l50 -50v-100l-100 -100h-200v500h200l100 -100v-100zM1400 500v100h-100v-100h-100v400l100 100h100l100 -100v-400h-100zM1800 800v-100h-100v-200h-100v500h100v-200h100zM1900 800h-100v200h100v-200zM1400 700v200 h-100v-200h100zM1000 800v100h-100v-100h100zM1000 600v100h-100v-100h100zM1800 500v200h100v-200h-100z" />
<glyph unicode="&#xe125;" d="M1500 2400v-550q0 -21 14.5 -35.5t35.5 -14.5h550v-700h-1400q-41 0 -70.5 -29.5t-29.5 -70.5v-500q0 -41 29.5 -70.5t70.5 -29.5h1400v-350q0 -21 -14.5 -35.5t-35.5 -14.5h-1800q-21 0 -35.5 14.5t-14.5 35.5v2300q0 21 14.5 35.5t35.5 14.5h1250zM2100 1900h-450 q-21 0 -35.5 14.5t-14.5 35.5v450zM900 500v400h-100v100h300v-100h-100v-400h-100zM1400 500v300h-100v-300h-100v500h100v-100h100v100h100v-500h-100zM1800 1000l100 -100v-200l-100 -100h-100v-100h-100v500h200zM1800 700v200h-100v-200h100z" />
<glyph unicode="&#xe126;" d="M1500 2400v-550q0 -21 14.5 -35.5t35.5 -14.5h550v-700h-1400q-41 0 -70.5 -29.5t-29.5 -70.5v-500q0 -41 29.5 -70.5t70.5 -29.5h1400v-350q0 -21 -14.5 -35.5t-35.5 -14.5h-1800q-21 0 -35.5 14.5t-14.5 35.5v2300q0 21 14.5 35.5t35.5 14.5h1250zM2100 1900h-450 q-21 0 -35.5 14.5t-14.5 35.5v450zM800 500v500h100v-500h-100zM1100 900v-300h200v-100h-200l-100 100v300l100 100h200v-100h-200zM1500 900v-100h-100v100l100 100h200v-100h-200zM1500 700v100h100v-100h-100zM1600 600v100h100v-100l-100 -100h-200v100h200z" />
<glyph unicode="&#xe127;" d="M1500 2400v-550q0 -21 14.5 -35.5t35.5 -14.5h550v-700h-1400q-41 0 -70.5 -29.5t-29.5 -70.5v-500q0 -41 29.5 -70.5t70.5 -29.5h1400v-350q0 -21 -14.5 -35.5t-35.5 -14.5h-1800q-21 0 -35.5 14.5t-14.5 35.5v2300q0 21 14.5 35.5t35.5 14.5h1250zM2100 1900h-450 q-21 0 -35.5 14.5t-14.5 35.5v450zM1000 500v300h-100v-300h-100v500h100v-100h100v100h100v-500h-100zM1300 900v-100h-100v100l100 100h200v-100h-200zM1600 500v500h100v-500h-100zM1300 700v100h100v-100h-100zM1400 600v100h100v-100l-100 -100h-200v100h200z" />
<glyph unicode="&#xe128;" d="M1500 2400v-550q0 -21 14.5 -35.5t35.5 -14.5h550v-700h-1400q-41 0 -70.5 -29.5t-29.5 -70.5v-500q0 -41 29.5 -70.5t70.5 -29.5h1400v-350q0 -21 -14.5 -35.5t-35.5 -14.5h-1800q-21 0 -35.5 14.5t-14.5 35.5v2300q0 21 14.5 35.5t35.5 14.5h1250zM2100 1900h-450 q-21 0 -35.5 14.5t-14.5 35.5v450zM900 900v-300h200v-100h-200l-100 100v300l100 100h200v-100h-200zM1300 900v-100h200v-100h-200v-200h-100v400l101 100h199v-100h-200zM1700 900v-300h100v200h100v-300h-200l-100 100v300l100 100h200v-100h-200z" />
<glyph unicode="&#xe129;" d="M1500 2400v-550q0 -21 14.5 -35.5t35.5 -14.5h550v-700h-1400q-41 0 -70.5 -29.5t-29.5 -70.5v-500q0 -41 29.5 -70.5t70.5 -29.5h1400v-350q0 -21 -14.5 -35.5t-35.5 -14.5h-1800q-21 0 -35.5 14.5t-14.5 35.5v2300q0 21 14.5 35.5t35.5 14.5h1250zM2100 1900h-450 q-21 0 -35.5 14.5t-14.5 35.5v450zM800 500v500h100v-500h-100zM1200 1000v-100h-100v-400h-100v500h200zM1400 500v500h100v-500h-100zM1200 500v400h100v-400h-100z" />
<glyph unicode="&#xe130;" d="M1500 2400v-550q0 -21 14.5 -35.5t35.5 -14.5h550v-700h-1400q-41 0 -70.5 -29.5t-29.5 -70.5v-500q0 -41 29.5 -70.5t70.5 -29.5h1400v-350q0 -21 -14.5 -35.5t-35.5 -14.5h-1800q-21 0 -35.5 14.5t-14.5 35.5v2300q0 21 14.5 35.5t35.5 14.5h1250zM2100 1900h-450 q-21 0 -35.5 14.5t-14.5 35.5v450zM1000 1000l100 -100v-200l-100 -100h-100v-100h-100v500h200zM1400 700v200h-100v-200l100 -100h-100v-100h-100v500h200l100 -100v-200h-100zM1700 900v-100h200v-100h-200v-200h-100v400l101 100h199v-100h-200zM1000 700v200h-100v-200 h100zM1400 500v100h100v-100h-100z" />
</font>
</defs>
</svg>
